<?xml version="1.0" standalone="no"?>
<!DOCTYPE svg PUBLIC "-//W3C//DTD SVG 1.1//EN" "http://www.w3.org/Graphics/SVG/1.1/DTD/svg11.dtd" >
<svg xmlns="http://www.w3.org/2000/svg" xmlns:xlink="http://www.w3.org/1999/xlink" version="1.1">
<metadata>
Created by FontForge 20201107 at Fri Jul 26 19:46:36 2024
 By 
Copyright (c) 2001-2009 Typotheque.com All rights reserved. Cyrillic designed by Alexei Kassian and Gayaneh Bagdasaryan.
</metadata>
<defs>
<font id="FedraSansAltPro-BookLF" horiz-adv-x="1394" >
  <font-face 
    font-family="Fedra Sans Alt Pro Book LF"
    font-weight="400"
    font-stretch="normal"
    units-per-em="2048"
    panose-1="2 0 5 3 0 0 0 2 0 4"
    ascent="1597"
    descent="-451"
    x-height="1118"
    cap-height="1448"
    bbox="-1163 -582 2730 2144"
    underline-thickness="102"
    underline-position="-204"
    unicode-range="U+0020-FB04"
  />
<missing-glyph horiz-adv-x="1458" 
d="M625 768v55h55v-55h-55zM778 1075v55h56v-55h-56zM625 1075v55h55v-55h-55zM471 1075v55h55v-55h-55zM164 0v55h55v-55h-55zM317 0v55h56v-55h-56zM471 0v55h55v-55h-55zM625 0v55h55v-55h-55zM778 0v55h56v-55h-56zM164 154v55h55v-55h-55zM164 307v55h55v-55h-55z
M164 461v55h55v-55h-55zM164 614v56h55v-56h-55zM164 768v55h55v-55h-55zM164 922v55h55v-55h-55zM164 1075v55h55v-55h-55zM164 1229v55h55v-55h-55zM164 1382v56h55v-56h-55zM317 1382v56h56v-56h-56zM471 1382v56h55v-56h-55zM625 1382v56h55v-56h-55zM778 1382v56h56
v-56h-56zM932 1382v56h55v-56h-55zM1085 1382v56h56v-56h-56zM1085 0v55h56v-55h-56zM932 0v55h55v-55h-55zM1239 0v55h55v-55h-55zM1239 1382v56h55v-56h-55zM625 614v56h55v-56h-55zM625 307v55h55v-55h-55zM778 768v55h56v-55h-56zM932 768v55h55v-55h-55zM932 922v55h55
v-55h-55zM932 1075v55h55v-55h-55zM1239 1229v55h55v-55h-55zM1239 1075v55h55v-55h-55zM1239 768v55h55v-55h-55zM1239 614v56h55v-56h-55zM1239 307v55h55v-55h-55zM1239 154v55h55v-55h-55zM1239 461v55h55v-55h-55zM1239 922v55h55v-55h-55z" />
    <glyph glyph-name="f_f" unicode="ff" horiz-adv-x="1368" 
d="M227 0v987h-164v131h164v101q0 372 455 372q173 0 362 -75q52 45 122 60t161 15q48 0 139 -15.5t119 -25.5l-31 -129q-127 27 -215 27q-128 0 -190 -55.5t-62 -173.5v-101h242v-131h-242v-987h-157v987h-541v-987h-162zM389 1118h541v103q0 116 33 176q-57 20 -146 35.5
t-168 15.5q-130 0 -195 -54t-65 -175v-101z" />
    <glyph glyph-name="fi" unicode="fi" horiz-adv-x="1265" 
d="M227 0v987h-164v131h164v72q0 118 28.5 199t83 123.5t118.5 59.5t149 17q40 0 146 -5.5t159 -6.5q56 0 138 8l24 -125q-79 -26 -213 -26q-48 1 -136 7.5t-122 6.5q-119 0 -166 -63.5t-47 -196.5v-70h705v-1118h-166v987h-541v-987h-160z" />
    <glyph glyph-name="fl" unicode="fl" horiz-adv-x="1265" 
d="M227 0v987h-164v131h164v68q0 109 29 189t82 125t119 66t149 21q39 0 144.5 -7.5t160.5 -8.5q54 0 183 12v-1583h-166v1434q-60 -3 -169 5.5t-157 8.5q-117 0 -165 -66t-48 -186v-78h242v-131h-244v-987h-160z" />
    <glyph glyph-name="f_f_i" unicode="ffi" horiz-adv-x="1961" 
d="M227 0v987h-164v131h164v101q0 87 24.5 154t64.5 107.5t97 66t115 35t125 9.5q105 0 218 -26t176 -52q100 78 258 78q35 0 141 -6t166 -6q18 0 135 6l25 -123q-69 -26 -211 -26q-51 0 -141 6t-120 6q-61 0 -103 -19t-65 -56.5t-32.5 -85t-9.5 -113.5v-56h700v-1118h-162
v987h-538v-987h-160v987h-539v-987h-164zM391 1118h537v58q0 139 37 223q-60 17 -156 33t-160 16q-130 0 -194 -54t-64 -175v-101z" />
    <glyph glyph-name="f_f_l" unicode="ffl" horiz-adv-x="1939" 
d="M227 0v987h-164v131h164v101q0 372 455 372q156 0 362 -78q93 78 256 78q35 0 142.5 -9t165.5 -9q30 0 90 5t69 5v-1583h-161v1436q-55 -1 -157 5.5t-149 6.5q-120 0 -166.5 -67.5t-46.5 -202.5v-60h238v-131h-238v-987h-161v987h-535v-987h-164zM391 1118h535v58
q0 137 37 221q-61 20 -151 35.5t-163 15.5q-130 0 -194 -54t-64 -175v-101z" />
    <glyph glyph-name="aogonek_j" unicode="&#x105;j" horiz-adv-x="1695" 
d="M1014 -485q-149 0 -236.5 60.5t-87.5 174.5q0 78 51 144.5t136 117.5q-33 15 -56 48t-26 69q-2 -1 -37.5 -27t-61 -40.5t-71 -35.5t-101.5 -31.5t-118 -10.5q-151 0 -234.5 81.5t-83.5 233.5q0 66 18.5 119t52 88.5t74.5 61.5t91.5 40.5t96.5 21t95 7.5l266 4v150
q0 128 -64 170.5t-222 42.5q-102 0 -277 -52l-35 127q168 66 359 66q89 0 157.5 -14.5t124.5 -47.5t85.5 -93t29.5 -146v-621q0 -98 104 -108l-10 -117q-190 -118 -190 -223q0 -46 29 -75t67 -38.5t86 -9.5q162 0 247 85.5t85 272.5v1108h164v-1110q0 -235 -138 -364
t-370 -129zM444 115q28 0 60 5.5t63 16t58.5 21.5t55.5 25.5t45 23t36 20t20 11.5v290l-268 -10q-133 -6 -200.5 -61.5t-67.5 -141.5q0 -108 50 -154t148 -46zM1518 1370h-158v191h158v-191z" />
    <glyph glyph-name="f_h" unicode="fh" horiz-adv-x="1992" 
d="M227 0v987h-164v131h164v58q0 118 28.5 201.5t81.5 129t117.5 65t147.5 19.5q36 0 143 -9t166 -9q29 0 102.5 5t76.5 5v-586q8 5 51.5 35t67.5 43t69 33.5t94 29.5t105 9q69 0 124 -14t91.5 -36t62.5 -57.5t40 -69t22 -81t10 -83.5t2 -85v-721h-162v690q0 58 -4 100
t-18 85t-38.5 69.5t-67 43t-101.5 16.5q-21 0 -44.5 -3.5t-47.5 -11.5t-45 -15.5t-46 -20t-42 -21.5t-40.5 -23t-33.5 -20t-29 -18t-20 -13v-858h-162v1436q-61 -2 -170 5t-156 7q-119 0 -166 -69.5t-47 -204.5v-56h238v-131h-240v-987h-160z" />
    <glyph glyph-name="f_b" unicode="fb" horiz-adv-x="1964" 
d="M1317 -18q-58 0 -110.5 3.5t-87 7.5t-69.5 11.5t-51.5 12t-40.5 12t-28 8.5v1397q-61 -3 -171 5.5t-157 8.5q-117 0 -165 -66t-48 -186v-78h242v-131h-244v-987h-160v987h-164v131h164v68q0 109 29 189t82 125t119 66t149 21q39 0 144.5 -7.5t160.5 -8.5q50 0 179 12
v-508q171 64 309 64q219 0 337.5 -138.5t118.5 -394.5q0 -136 -29.5 -244t-79 -178t-119 -116.5t-146 -66t-164.5 -19.5zM1370 1008q-136 0 -280 -58v-807q110 -26 233 -26q118 0 202.5 62.5t124.5 164t40 229.5q0 75 -7.5 134t-28.5 117.5t-55.5 97t-92.5 62.5t-136 24z
" />
    <glyph glyph-name="f_j" unicode="fj" horiz-adv-x="1261" 
d="M711 -455q-77 0 -144 25l29 131q40 -10 119 -10q119 0 164 68.5t45 205.5v1022h-537v-987h-160v987h-164v131h164v58q0 118 28.5 201.5t81.5 129t117.5 65t147.5 19.5q36 0 143 -6t166 -6q75 0 136 6l22 -123q-74 -28 -213 -28q-47 1 -134 7.5t-120 6.5
q-119 0 -166 -70.5t-47 -206.5v-53h698v-1153q0 -96 -19.5 -169.5t-52.5 -120.5t-81.5 -76.5t-102.5 -41.5t-120 -12z" />
    <glyph glyph-name="f_k" unicode="fk" horiz-adv-x="1855" 
d="M227 0v987h-164v131h164v58q0 118 28.5 201.5t81.5 129t117.5 65t147.5 19.5q36 0 143 -9t166 -9q29 0 102.5 5t76.5 5v-1583h-162v1436q-61 -2 -170 5t-156 7q-119 0 -166 -69.5t-47 -204.5v-56h238v-131h-240v-987h-160zM1595 0l-460 592l471 526h186l-475 -522
l479 -596h-201z" />
    <glyph glyph-name="f_f_j" unicode="ffj" horiz-adv-x="1961" 
d="M1413 -451q-72 0 -137 21l29 133q42 -14 108 -14q119 0 166 71.5t47 206.5v1020h-536v-987h-160v987h-539v-987h-164v987h-164v131h164v101q0 87 24.5 154t64.5 107.5t97 66t115 35t125 9.5q105 0 218 -26t176 -52q100 78 258 78q35 0 141 -6t166 -6q18 0 135 6l25 -123
q-69 -26 -211 -26q-51 0 -141 6t-120 6q-61 0 -103 -19t-65 -56.5t-32.5 -85t-9.5 -113.5v-56h700v-1153q-1 -95 -20.5 -168t-52.5 -119.5t-82 -76t-102.5 -41t-119.5 -11.5zM391 1118h537v58q0 139 37 223q-60 17 -156 33t-160 16q-130 0 -194 -54t-64 -175v-101z" />
    <glyph glyph-name="f_idieresis" unicode="f&#xef;" horiz-adv-x="1249" 
d="M227 0v987h-164v131h164v119q0 170 84 250t224 80q101 0 165 -23l-26 -131q-69 19 -133 19q-78 0 -115 -44.5t-37 -144.5v-125h236v-131h-236v-987h-162zM909 0v1118h164v-1118h-164zM907 1374h-131v168h131v-168zM1241 1374h-131v168h131v-168z" />
    <glyph glyph-name="f_igrave" unicode="f&#xec;" horiz-adv-x="1249" 
d="M227 0v987h-164v131h164v119q0 170 83 250t222 80q104 0 175 -23l-29 -131q-74 19 -139 19q-76 0 -113 -44.5t-37 -144.5v-125h236v-131h-236v-987h-162zM1038 1237l-276 311l106 92l262 -325zM909 0v1118h164v-1118h-164z" />
    <glyph glyph-name=".notdef" horiz-adv-x="1458" 
d="M625 768v55h55v-55h-55zM778 1075v55h56v-55h-56zM625 1075v55h55v-55h-55zM471 1075v55h55v-55h-55zM164 0v55h55v-55h-55zM317 0v55h56v-55h-56zM471 0v55h55v-55h-55zM625 0v55h55v-55h-55zM778 0v55h56v-55h-56zM164 154v55h55v-55h-55zM164 307v55h55v-55h-55z
M164 461v55h55v-55h-55zM164 614v56h55v-56h-55zM164 768v55h55v-55h-55zM164 922v55h55v-55h-55zM164 1075v55h55v-55h-55zM164 1229v55h55v-55h-55zM164 1382v56h55v-56h-55zM317 1382v56h56v-56h-56zM471 1382v56h55v-56h-55zM625 1382v56h55v-56h-55zM778 1382v56h56
v-56h-56zM932 1382v56h55v-56h-55zM1085 1382v56h56v-56h-56zM1085 0v55h56v-55h-56zM932 0v55h55v-55h-55zM1239 0v55h55v-55h-55zM1239 1382v56h55v-56h-55zM625 614v56h55v-56h-55zM625 307v55h55v-55h-55zM778 768v55h56v-55h-56zM932 768v55h55v-55h-55zM932 922v55h55
v-55h-55zM932 1075v55h55v-55h-55zM1239 1229v55h55v-55h-55zM1239 1075v55h55v-55h-55zM1239 768v55h55v-55h-55zM1239 614v56h55v-56h-55zM1239 307v55h55v-55h-55zM1239 154v55h55v-55h-55zM1239 461v55h55v-55h-55zM1239 922v55h55v-55h-55z" />
    <glyph glyph-name=".null" horiz-adv-x="0" 
 />
    <glyph glyph-name="nonmarkingreturn" horiz-adv-x="682" 
 />
    <glyph glyph-name="space" unicode=" " horiz-adv-x="534" 
 />
    <glyph glyph-name="exclam" unicode="!" horiz-adv-x="589" 
d="M223 352l-8 287v809h160v-809l-8 -287h-144zM203 0v178h184v-178h-184z" />
    <glyph glyph-name="quotedbl" unicode="&#x22;" horiz-adv-x="727" 
d="M131 1055l-8 487h141l-12 -487h-121zM473 1055l-8 487h141l-12 -487h-121z" />
    <glyph glyph-name="numbersign" unicode="#" horiz-adv-x="1314" 
d="M1186 326h-225l-19 -326h-156l19 326h-342l-19 -326h-153l18 326h-178v141h186l29 512h-215v139h223l19 330h155l-18 -330h340l18 330h156l-20 -330h182v-139h-189l-28 -512h217v-141zM842 979h-342l-27 -512h340z" />
    <glyph glyph-name="dollar" unicode="$" horiz-adv-x="1099" 
d="M1001 381q0 -171 -107 -268.5t-284 -120.5v-96h-2v-99h-151v187q-222 5 -369 84l57 135q150 -69 312 -74v580q-59 28 -100.5 51t-88 59.5t-75 75.5t-47.5 95t-19 122q0 144 91 230.5t239 107.5v188h151v-106h2v-76q169 -8 297 -65l-47 -125q-124 44 -250 49v-498
q52 -25 82 -40t77 -42.5t75 -50t61.5 -56.5t51.5 -69t31 -81t13 -97zM836 369q0 93 -58.5 154t-167.5 114v-498q226 47 226 230zM287 1120q0 -73 44 -126t126 -99v412q-170 -38 -170 -187z" />
    <glyph glyph-name="percent" unicode="%" horiz-adv-x="1617" 
d="M412 793q-66 0 -121 18.5t-98.5 56t-68 101t-24.5 147.5q0 160 92.5 253t225.5 93q67 0 121 -17t98.5 -54t69 -103.5t24.5 -157.5q0 -156 -91.5 -246.5t-227.5 -90.5zM412 911q83 0 132.5 58.5t49.5 160.5q0 101 -44.5 159.5t-131.5 58.5q-77 0 -125.5 -59t-48.5 -173
q0 -205 168 -205zM1194 -18q-136 0 -222.5 79.5t-86.5 243.5q0 162 91 254t224 92q68 0 122.5 -16.5t99.5 -53t69.5 -102.5t24.5 -157q0 -157 -92.5 -248.5t-229.5 -91.5zM1194 102q84 0 133 58.5t49 161.5q0 101 -44 158t-132 57q-75 0 -123.5 -59t-48.5 -173
q0 -203 166 -203zM287 119l-88 94l1093 1090l86 -93z" />
    <glyph glyph-name="ampersand" unicode="&#x26;" horiz-adv-x="1419" 
d="M1167 721l113 -74q-123 -261 -270 -414q191 -115 366 -127l-20 -129q-214 3 -455 154q-196 -154 -412 -154q-77 0 -143 18.5t-120.5 57.5t-85.5 108t-31 161q0 67 20 126t59 108.5t81.5 87.5t101.5 79q-86 180 -86 344q0 112 38.5 201t119 143.5t192.5 54.5
q153 0 242.5 -94.5t89.5 -224.5q0 -32 -7 -63.5t-16.5 -57t-30 -53.5t-35 -47t-45.5 -45.5t-48.5 -40.5t-56 -40t-55.5 -37t-60 -37.5t-58 -35.5q129 -216 340 -379q169 161 272 410zM430 1079q0 -125 66 -276q49 29 72 43t65 42t62.5 45.5t49.5 45.5t42 52t23.5 55t10.5 63
q0 81 -53 133.5t-139 52.5q-97 0 -148 -67t-51 -189zM502 113q133 0 280 104q-214 171 -350 389q-82 -62 -127 -128t-45 -148q0 -59 22 -103t58.5 -67.5t77 -35t84.5 -11.5z" />
    <glyph glyph-name="quotesingle" unicode="'" horiz-adv-x="391" 
d="M131 1055l-8 487h147l-14 -487h-125z" />
    <glyph glyph-name="parenleft" unicode="(" horiz-adv-x="727" 
d="M631 -352l-86 -101q-445 394 -445 1033q0 187 39.5 352t106.5 285t141 205.5t158 146.5l88 -99q-58 -52 -106.5 -106t-100.5 -136t-88 -172.5t-59 -214t-23 -261.5q0 -561 375 -932z" />
    <glyph glyph-name="parenright" unicode=")" horiz-adv-x="727" 
d="M182 -453l-88 101q375 368 375 932q0 138 -23 261.5t-59 214t-88 172.5t-100.5 136t-106.5 106l90 99q66 -48 125.5 -110t119 -152.5t102 -195t69.5 -242.5t27 -289q0 -640 -443 -1033z" />
    <glyph glyph-name="asterisk" unicode="*" horiz-adv-x="892" 
d="M168 954l-72 123l221 90l37 -67zM317 1225l-221 92l74 123l186 -146zM373 836l37 233h77l31 -233h-145zM410 1323l-33 238h143l-31 -238h-79zM725 952l-188 146l43 69l219 -88zM578 1229l-41 65l190 146l72 -123z" />
    <glyph glyph-name="plus" unicode="+" horiz-adv-x="1191" 
d="M514 111v442h-438v135l438 -2v455h141l-4 -457l467 4v-135h-465l2 -442h-141z" />
    <glyph glyph-name="comma" unicode="," horiz-adv-x="448" 
d="M88 -256q23 55 38 137t15 150v139h168v-76q0 -190 -82 -350h-139z" />
    <glyph glyph-name="hyphen" unicode="-" horiz-adv-x="1009" 
d="M201 516v141h610v-141h-610z" />
    <glyph glyph-name="hyphen" unicode="&#xad;" horiz-adv-x="1009" 
d="M201 516v141h610v-141h-610z" />
    <glyph glyph-name="period" unicode="." horiz-adv-x="475" 
d="M141 0v193h195v-193h-195z" />
    <glyph glyph-name="slash" unicode="/" horiz-adv-x="880" 
d="M125 -127l477 1696h150l-476 -1696h-151z" />
    <glyph glyph-name="zero" unicode="0" horiz-adv-x="1357" 
d="M1198 745q0 -139 -18 -254t-58.5 -210.5t-102 -161t-150.5 -101.5t-203 -36q-508 0 -508 718q0 125 15.5 232t54.5 206.5t99.5 169t155.5 111t217 41.5q87 0 158 -21.5t122 -58t89.5 -90.5t63 -114t39.5 -134t20.5 -145t5.5 -152zM1030 733q0 72 -4.5 133t-16.5 132
t-36.5 126t-61 102t-93.5 72t-130 25q-78 0 -138.5 -26t-99 -74t-64 -104.5t-38.5 -131t-17.5 -138.5t-4.5 -140q0 -588 350 -588q65 0 118 19t89.5 50.5t63.5 79.5t42.5 98.5t25 115.5t12.5 122.5t3 126.5z" />
    <glyph glyph-name="one" unicode="1" horiz-adv-x="702" 
d="M483 0h-161v1309h-289v127l450 12v-1448z" />
    <glyph glyph-name="two" unicode="2" horiz-adv-x="1093" 
d="M1010 0h-936v133q4 4 66.5 62.5t132.5 125.5t159.5 165t158.5 189t117 189.5t48 173.5q0 156 -66 219.5t-201 63.5q-155 0 -297 -82q-4 -3 -6 -4l-63 117q167 112 381 112q100 0 176.5 -25t121 -63.5t72 -94.5t37 -109t9.5 -115q0 -91 -36 -188t-89 -179.5t-144.5 -185
t-170 -178.5t-197.5 -185h727v-141z" />
    <glyph glyph-name="three" unicode="3" horiz-adv-x="1024" 
d="M899 379q0 -397 -467 -397q-108 0 -200.5 15t-131.5 29l-39 15l39 135q156 -49 312 -49q56 0 98 4.5t87.5 20t74.5 42t48 73t19 110.5q0 137 -109.5 217.5t-287.5 91.5v135q138 11 236 92.5t98 198.5q0 59 -20 102t-56 66.5t-79 34t-95 10.5q-62 0 -123.5 -11.5
t-92.5 -22.5l-30 -11l-49 119q141 65 303 65q182 0 289.5 -87.5t107.5 -250.5q0 -70 -25.5 -133t-66.5 -107t-86 -73.5t-90 -42.5q61 -15 118 -46.5t107 -79t80.5 -116.5t30.5 -149z" />
    <glyph glyph-name="four" unicode="4" horiz-adv-x="1175" 
d="M1110 387h-250v-387h-162v387h-639v143l559 918h242v-918h250v-143zM698 530v795l-479 -795h479z" />
    <glyph glyph-name="five" unicode="5" horiz-adv-x="1069" 
d="M952 436q0 -217 -131 -335.5t-348 -118.5q-210 0 -352 43l41 143q144 -37 311 -37q141 0 229.5 75.5t88.5 205.5q0 155 -85.5 231t-224.5 76q-15 0 -43 -1t-41 -1q-100 -3 -225 -15v746h729v-139h-573v-453q66 4 184 4q202 0 321 -113.5t119 -310.5z" />
    <glyph glyph-name="six" unicode="6" horiz-adv-x="1193" 
d="M635 -27q-95 0 -167.5 19.5t-133 65.5t-99.5 119.5t-60 184t-21 256.5q0 207 45.5 368.5t128.5 265t197 157t253 53.5q125 0 207 -28l-35 -134q-70 19 -174 19q-89 0 -161 -29t-120.5 -76.5t-83.5 -115.5t-54 -138.5t-29 -152.5q164 84 327 84q215 0 325 -117t110 -313
q0 -233 -125 -360.5t-330 -127.5zM649 113q131 0 206 93.5t75 233.5q0 156 -79.5 234t-213.5 78q-94 0 -168.5 -22.5t-153.5 -61.5v-62q0 -125 14.5 -211t51 -152.5t103 -98t165.5 -31.5z" />
    <glyph glyph-name="seven" unicode="7" horiz-adv-x="937" 
d="M903 1309l-633 -1325l-143 51l616 1270h-716v143h876v-139z" />
    <glyph glyph-name="eight" unicode="8" horiz-adv-x="1193" 
d="M590 -25q-210 0 -338.5 101t-128.5 268q0 62 20 116.5t48 93t77.5 79t89 65.5t101.5 60q-51 32 -86.5 57t-74.5 61t-63 70.5t-39.5 80t-15.5 95.5q0 160 116.5 253t315.5 93q97 0 175.5 -29t127.5 -77t75 -106.5t26 -120.5q0 -52 -17 -99.5t-42 -83t-66.5 -72t-78.5 -62
t-91 -58.5q55 -30 87.5 -49.5t78.5 -50.5t73.5 -59.5t54.5 -65t39.5 -79.5t12.5 -91q0 -180 -128 -285t-349 -105zM602 109q137 0 218 66.5t81 197.5q0 41 -19 79.5t-43.5 66t-74 63t-82.5 55t-98 55.5q-69 -39 -114 -69t-91.5 -72t-69 -90t-22.5 -103q0 -117 87 -183
t228 -66zM594 821q60 33 101.5 61t80.5 64.5t58.5 78.5t19.5 89q0 97 -59.5 161t-184.5 64q-131 0 -200.5 -60.5t-69.5 -164.5q0 -88 65.5 -155t188.5 -138z" />
    <glyph glyph-name="nine" unicode="9" horiz-adv-x="1196" 
d="M399 -18q-104 0 -194 28l35 135q80 -20 159 -20q103 0 181.5 25.5t129 67.5t85 107t51 133t24.5 156q-143 -79 -338 -79q-204 0 -315 117.5t-111 340.5q0 150 61 258.5t164 161.5t236 53q221 0 351.5 -168t130.5 -479q0 -231 -41 -392.5t-125.5 -259t-202.5 -141.5
t-281 -44zM563 674q164 0 316 76q2 29 2 96q0 95 -18 177.5t-55.5 151t-102.5 108.5t-152 40q-131 0 -206 -87.5t-75 -225.5q0 -95 21.5 -162.5t62 -104.5t91 -53t116.5 -16z" />
    <glyph glyph-name="colon" unicode=":" horiz-adv-x="602" 
d="M203 0v193h194v-193h-194zM203 926v192h194v-192h-194z" />
    <glyph glyph-name="semicolon" unicode=";" horiz-adv-x="598" 
d="M162 -256q53 144 53 270v156h172v-88q0 -185 -86 -338h-139zM199 926v192h194v-192h-194z" />
    <glyph glyph-name="less" unicode="&#x3c;" horiz-adv-x="1044" 
d="M922 131l-826 389v203l826 393v-151l-721 -344l721 -336v-154z" />
    <glyph glyph-name="equal" unicode="=" horiz-adv-x="1441" 
d="M215 340v135h1012v-135h-1012zM215 770v135h1012v-135h-1012z" />
    <glyph glyph-name="greater" unicode="&#x3e;" horiz-adv-x="1044" 
d="M123 131v154l721 336l-721 344v151l825 -393v-203z" />
    <glyph glyph-name="question" unicode="?" horiz-adv-x="772" 
d="M215 334q-55 100 -55 190q0 64 26 122t65 98.5t85 82.5t85 75t65 74t26 81q0 64 -34.5 112.5t-95 77t-126 45t-143.5 23.5l32 139q78 -6 150 -21.5t143.5 -46t123.5 -72.5t84 -106t32 -141q0 -70 -38 -134t-92.5 -113t-108.5 -95.5t-92 -99t-38 -105.5q0 -77 45 -162z
M188 0v178h183v-178h-183z" />
    <glyph glyph-name="at" unicode="@" horiz-adv-x="1603" 
d="M750 -145q-305 0 -469 180t-164 506q0 191 44 347t120.5 262.5t183.5 179t229.5 105.5t261.5 33q124 0 222 -33.5t171.5 -103t112.5 -183t39 -265.5q0 -148 -40 -263.5t-106 -183t-144 -101.5t-162 -34q-76 0 -117.5 38t-36.5 101q-39 -46 -111 -84.5t-122 -38.5
q-95 0 -146 58t-51 200q0 204 109 327.5t292 123.5q122 0 217 -45l-55 -465q-10 -92 39 -92q39 0 76.5 12t78 44t70 81t49 132t19.5 188q0 460 -412 460q-111 0 -208.5 -24.5t-186 -83t-151.5 -146t-100.5 -222.5t-37.5 -304q0 -300 130.5 -435.5t375.5 -135.5q140 0 309 37
l27 -119q-86 -32 -164.5 -42.5t-191.5 -10.5zM690 446q56 0 112 36t91 75l43 344q-38 10 -72 10q-127 0 -190.5 -88.5t-63.5 -234.5q0 -82 18.5 -112t61.5 -30z" />
    <glyph glyph-name="A" unicode="A" horiz-adv-x="1374" 
d="M0 0l594 1448h219l526 -1448h-182l-192 541h-572l-215 -541h-178zM444 676h476l-226 653z" />
    <glyph glyph-name="B" unicode="B" horiz-adv-x="1302" 
d="M217 0v1448h395q236 0 352.5 -99t116.5 -266q0 -115 -54 -198.5t-146 -116.5v-6q60 -11 112.5 -36.5t96.5 -67t70 -105.5t26 -141q0 -93 -28 -166t-87.5 -129.5t-160 -86.5t-236.5 -30h-457zM385 139h258q65 0 116.5 6.5t100.5 24t81.5 46.5t52.5 77.5t20 112.5
q0 270 -402 270h-227v-537zM385 811h250q137 0 205.5 63t68.5 183q0 142 -84.5 201t-255.5 59h-184v-506z" />
    <glyph glyph-name="C" unicode="C" horiz-adv-x="1386" 
d="M874 -25q-176 0 -318.5 55t-237 153t-145 234t-50.5 298q0 342 198.5 547.5t544.5 205.5q248 0 420 -82l-51 -135q-67 24 -107 36t-110 23t-148 11q-93 0 -176 -20t-156.5 -65t-126.5 -112t-83.5 -166.5t-30.5 -222.5q0 -126 31.5 -228.5t87 -172.5t133.5 -117t167 -68.5
t191 -21.5q195 0 340 53l41 -135q-89 -33 -181.5 -51.5t-232.5 -18.5z" />
    <glyph glyph-name="D" unicode="D" horiz-adv-x="1544" 
d="M217 0v1448h391q142 0 263.5 -26.5t223 -83t172.5 -140t110.5 -203t39.5 -266.5q0 -187 -56 -327.5t-161.5 -228t-250 -130.5t-328.5 -43h-404zM385 139h258q286 0 443 144.5t157 423.5q0 151 -45.5 266.5t-130.5 188.5t-202 110t-263 37h-217v-1170z" />
    <glyph glyph-name="E" unicode="E" horiz-adv-x="1191" 
d="M217 0v1448h811v-137h-643v-514h598v-140h-598v-518h690v-139h-858z" />
    <glyph glyph-name="F" unicode="F" horiz-adv-x="1165" 
d="M217 0v1448h852v-137h-684v-555h639v-140h-639v-616h-168z" />
    <glyph glyph-name="G" unicode="G" horiz-adv-x="1456" 
d="M885 -25q-356 0 -559 199t-203 541q0 347 195 550t546 203q151 0 244 -20t174 -57l-47 -138q-61 22 -99.5 33.5t-112 23t-155.5 11.5q-117 0 -216.5 -33t-180 -101t-126.5 -183.5t-46 -268.5q0 -157 48 -276.5t133 -191t192.5 -107t234.5 -35.5q131 0 234 31v557h168
v-666q-209 -72 -424 -72z" />
    <glyph glyph-name="H" unicode="H" horiz-adv-x="1564" 
d="M217 0v1448h168v-651h795v651h168v-1448h-168v657h-795v-657h-168z" />
    <glyph glyph-name="I" unicode="I" horiz-adv-x="602" 
d="M217 0v1448h168v-1448h-168z" />
    <glyph glyph-name="J" unicode="J" horiz-adv-x="604" 
d="M-4 -383l-72 123q92 51 151 108t90.5 129t43.5 148.5t12 183.5v1139h170v-1135q0 -84 -6 -149.5t-21 -134.5t-43 -124.5t-71 -108t-106.5 -97.5t-147.5 -82z" />
    <glyph glyph-name="K" unicode="K" horiz-adv-x="1286" 
d="M1044 0l-606 758v30l574 660h213l-600 -670l641 -778h-222zM217 0v1448h168v-1448h-168z" />
    <glyph glyph-name="L" unicode="L" horiz-adv-x="1030" 
d="M217 0v1448h168v-1303h629v-145h-797z" />
    <glyph glyph-name="M" unicode="M" horiz-adv-x="1929" 
d="M217 0v1448h227l496 -1348l557 1348h215v-1448h-170v973l8 223h-6l-487 -1196h-244l-432 1200h-6l10 -201v-999h-168z" />
    <glyph glyph-name="N" unicode="N" horiz-adv-x="1576" 
d="M217 0v1448h215l762 -1258h4l-8 183v1075h170v-1448h-225l-752 1239h-6l8 -149v-1090h-168z" />
    <glyph glyph-name="O" unicode="O" horiz-adv-x="1695" 
d="M831 -25q-221 0 -382.5 96t-243.5 265t-82 391q0 339 201.5 540t535.5 201q171 0 307.5 -57t224.5 -157.5t134.5 -236t46.5 -294.5q0 -221 -88 -389.5t-257 -263.5t-397 -95zM838 115q141 0 250 46.5t177.5 130t103 193t34.5 240.5q0 174 -63 309t-189 215t-299 80
q-137 0 -244.5 -45.5t-176 -127t-104.5 -190t-36 -237.5q0 -100 21.5 -190.5t66 -168t108.5 -134.5t154 -89t197 -32z" />
    <glyph glyph-name="P" unicode="P" horiz-adv-x="1234" 
d="M217 0v1448h471q219 0 344 -118t125 -335q0 -99 -34.5 -183t-103 -149.5t-180.5 -103t-257 -37.5h-197v-522h-168zM385 1311v-647h209q180 0 282.5 78t102.5 243q0 166 -83 246t-253 80h-258z" />
    <glyph glyph-name="Q" unicode="Q" horiz-adv-x="1730" 
d="M831 -25q-221 0 -382.5 96t-243.5 265t-82 391q0 339 201.5 540t535.5 201q171 0 307.5 -57t224.5 -157.5t134.5 -236t46.5 -294.5q0 -309 -170 -510l227 -227l-98 -88l-225 223q-195 -146 -476 -146zM838 115q222 0 362 112l-225 226l102 88l213 -215q113 158 113 399
q0 174 -63 309t-189 215t-299 80q-137 0 -244.5 -45.5t-176 -127t-104.5 -190t-36 -237.5q0 -100 21.5 -190.5t66 -168t108.5 -134.5t154 -89t197 -32z" />
    <glyph glyph-name="R" unicode="R" horiz-adv-x="1415" 
d="M215 0v1448h473q216 0 342.5 -106t126.5 -318q0 -135 -66.5 -239.5t-205.5 -157.5l444 -627h-207l-403 586q-68 -11 -137 -11h-197v-575h-170zM385 717h209q88 0 155.5 14.5t120.5 47.5t81 91.5t28 141.5q0 161 -82.5 230t-253.5 69h-258v-594z" />
    <glyph glyph-name="S" unicode="S" horiz-adv-x="1110" 
d="M504 -25q-238 0 -404 101l54 139q184 -92 352 -92q64 0 121.5 13t108 40.5t80.5 77.5t30 117q0 58 -24.5 105t-65.5 80t-94.5 61.5t-112.5 54.5t-117.5 53.5t-112 63t-94.5 78.5t-65.5 105t-24.5 138q0 112 60.5 195t157 123t214.5 40q209 0 357 -79l-52 -132
q-153 70 -301 70q-120 0 -197 -54t-77 -159q0 -58 31 -106t81.5 -81t115 -66.5t132 -62t132 -68.5t115 -85t81.5 -112.5t31 -149.5q0 -101 -40.5 -180t-111 -128t-162.5 -74.5t-198 -25.5z" />
    <glyph glyph-name="T" unicode="T" horiz-adv-x="1196" 
d="M514 0v1305h-496v143h1160v-143h-496v-1305h-168z" />
    <glyph glyph-name="U" unicode="U" horiz-adv-x="1552" 
d="M776 -25q-90 0 -168.5 14t-156 51.5t-132 95.5t-88.5 152t-34 216v944h170v-930q0 -92 23.5 -162.5t61.5 -114.5t92 -71.5t110 -38t122 -10.5q414 0 414 444v883h166v-889q0 -134 -36 -238.5t-93 -168.5t-135 -105t-155 -56.5t-161 -15.5z" />
    <glyph glyph-name="V" unicode="V" horiz-adv-x="1359" 
d="M551 0l-522 1448h184l459 -1315l516 1315h170l-574 -1448h-233z" />
    <glyph glyph-name="W" unicode="W" horiz-adv-x="2123" 
d="M2093 1448l-475 -1448h-246l-307 1225l-348 -1225h-248l-401 1448h176l358 -1346l385 1346h172l340 -1346l426 1346h168z" />
    <glyph glyph-name="X" unicode="X" horiz-adv-x="1247" 
d="M20 0l510 766l-421 682h192l330 -547l352 547h182l-446 -678l479 -770h-197l-380 635l-408 -635h-193z" />
    <glyph glyph-name="Y" unicode="Y" horiz-adv-x="1232" 
d="M528 0v549l-473 899h191l372 -750l402 750h180l-504 -899v-549h-168z" />
    <glyph glyph-name="Z" unicode="Z" horiz-adv-x="1167" 
d="M86 0v145l766 1158h-713v145h901v-133l-776 -1170h819v-145h-997z" />
    <glyph glyph-name="bracketleft" unicode="[" horiz-adv-x="636" 
d="M174 -451v1995h367v-133h-209v-1728h209v-134h-367z" />
    <glyph glyph-name="backslash" unicode="\" horiz-adv-x="880" 
d="M604 -127l-475 1696h150l477 -1696h-152z" />
    <glyph glyph-name="bracketright" unicode="]" horiz-adv-x="636" 
d="M94 -451v134h211v1728h-211v133h369v-1995h-369z" />
    <glyph glyph-name="asciicircum" unicode="^" horiz-adv-x="1067" 
d="M106 602l332 846h217l306 -846h-175l-241 731l-273 -731h-166z" />
    <glyph glyph-name="underscore" unicode="_" horiz-adv-x="1255" 
d="M113 -338v141h1030v-141h-1030z" />
    <glyph glyph-name="grave" unicode="`" horiz-adv-x="1163" 
d="M750 1266l-396 245l72 123l387 -266z" />
    <glyph glyph-name="a" unicode="a" horiz-adv-x="1130" 
d="M422 -18q-155 0 -244.5 82.5t-89.5 232.5q0 80 27.5 141.5t70 97.5t102 59.5t113.5 32t115 9.5l266 4v143q0 128 -60.5 175t-199.5 47q-156 0 -303 -56l-37 127q163 70 363 70q395 0 395 -309v-619q0 -30 11 -51t30 -31.5t38.5 -15t41.5 -4.5l-6 -125q-20 -4 -45 -4
q-81 0 -143 35.5t-72 105.5q-37 -29 -58 -43.5t-73.5 -44t-113.5 -44.5t-128 -15zM459 113q151 0 323 125v290l-268 -10q-130 -4 -200 -60t-70 -155q0 -93 59 -141.5t156 -48.5z" />
    <glyph glyph-name="b" unicode="b" horiz-adv-x="1202" 
d="M553 -18q-69 0 -127 4t-102.5 12t-68.5 13t-56.5 15t-34.5 11v1507h162v-469q168 64 309 64q218 0 336.5 -138.5t118.5 -394.5q0 -136 -29 -244t-78.5 -178t-119 -116.5t-146 -66t-164.5 -19.5zM606 1010q-105 0 -280 -62v-805q110 -26 233 -26q118 0 202.5 62.5
t124.5 164t40 229.5q0 75 -7.5 134t-28.5 118t-55.5 98t-92.5 63t-136 24z" />
    <glyph glyph-name="c" unicode="c" horiz-adv-x="1017" 
d="M666 -25q-284 0 -420.5 138t-136.5 424q0 296 140.5 453t389.5 157q176 0 297 -68l-49 -129q-140 56 -248 56q-177 0 -271 -115.5t-94 -345.5q0 -216 93.5 -323t314.5 -107q46 0 91 6t64.5 11t71.5 18l25 -132q-127 -43 -268 -43z" />
    <glyph glyph-name="d" unicode="d" horiz-adv-x="1193" 
d="M557 -20q-59 0 -115 12.5t-118.5 50t-108 96.5t-76 161t-30.5 235q0 156 41 274.5t115.5 191.5t174.5 109.5t224 36.5q89 0 196 -29v426h162v-1544h-162v106q-69 -62 -137.5 -94t-165.5 -32zM578 117q140 0 282 125v737q-90 35 -207 35q-85 0 -152 -26t-109 -69.5
t-70 -105t-39 -127t-11 -141.5q0 -212 85 -320t221 -108z" />
    <glyph glyph-name="e" unicode="e" horiz-adv-x="1118" 
d="M641 -25q-127 0 -221 28.5t-165.5 92.5t-107.5 174t-36 267q0 159 37.5 278.5t104.5 190.5t153.5 106t191.5 35q212 0 313 -138.5t101 -420.5v-60h-738q1 -125 32 -209.5t88 -127.5t121.5 -59.5t152.5 -16.5q136 0 297 51l28 -131q-144 -60 -352 -60zM276 649h568
q0 176 -64.5 273.5t-197.5 97.5q-126 0 -209.5 -95t-96.5 -276z" />
    <glyph glyph-name="f" unicode="f" horiz-adv-x="667" 
d="M227 0v987h-164v131h164v76q0 99 28 172.5t78.5 116.5t114.5 63.5t142 20.5q98 0 172 -23l-29 -131q-66 17 -141 17q-107 0 -155 -54.5t-48 -179.5v-78h240v-131h-240v-987h-162z" />
    <glyph glyph-name="g" unicode="g" horiz-adv-x="1200" 
d="M543 399q-117 0 -201 37q-41 -60 -41 -112q0 -38 23 -62t59 -24h254q214 0 317 -79.5t103 -211.5q0 -79 -38 -153.5t-107 -133.5t-177.5 -95t-238.5 -36q-205 0 -315.5 84t-110.5 225q0 175 166 297q-72 48 -72 144q0 114 94 204q-129 98 -129 277q0 78 26 146t76 122
t131.5 85.5t184.5 31.5q73 0 137 -17t89 -31t42 -28l318 6v-135h-203q41 -66 41 -172q0 -166 -120.5 -267.5t-307.5 -101.5zM629 98h-254q-27 0 -37 2q-127 -100 -127 -225q0 -100 80 -156.5t227 -56.5q175 0 281 80.5t106 187.5q0 74 -63.5 121t-212.5 47zM547 516
q121 0 193.5 69t72.5 185q0 112 -71 186t-193 74t-193 -71t-71 -189q0 -120 72.5 -187t189.5 -67z" />
    <glyph glyph-name="h" unicode="h" horiz-adv-x="1232" 
d="M172 0v1544h162v-555q44 33 78 54.5t86 48t111 40t122 13.5q66 0 119 -14.5t88 -36.5t60 -58t38.5 -69.5t21 -80.5t9.5 -82.5t2 -82.5v-721h-156v688q0 79 -8.5 132t-31 96.5t-67 64t-112.5 20.5q-51 0 -100.5 -11.5t-99.5 -35.5t-80.5 -41.5t-79.5 -48.5v-864h-162z" />
    <glyph glyph-name="i" unicode="i" horiz-adv-x="509" 
d="M172 0v1118h164v-1118h-164zM332 1370h-158v191h158v-191z" />
    <glyph glyph-name="j" unicode="j" horiz-adv-x="509" 
d="M-41 -459q-78 0 -143 25l28 131q58 -16 117 -16q118 0 164.5 72t46.5 210v1155h164v-1157q0 -119 -28.5 -203.5t-81.5 -130.5t-118 -66t-149 -20zM332 1370h-158v191h158v-191z" />
    <glyph glyph-name="k" unicode="k" horiz-adv-x="1099" 
d="M840 0l-461 592l471 526h186l-475 -522l479 -596h-200zM172 0v1544h162v-1544h-162z" />
    <glyph glyph-name="l" unicode="l" horiz-adv-x="505" 
d="M172 0v1544h162v-1544h-162z" />
    <glyph glyph-name="m" unicode="m" horiz-adv-x="1914" 
d="M172 0v1118h162v-131q96 76 183 117t190 41q111 0 188.5 -46.5t108.5 -119.5q46 35 81.5 59t88.5 51.5t112.5 41.5t124.5 14q66 0 119 -14t88.5 -36.5t61 -57.5t39.5 -69.5t22 -81t10 -82.5t2 -83v-721h-162v690q0 58 -4 100t-17.5 84t-37.5 68t-65.5 42.5t-98.5 16.5
q-154 0 -338 -135q12 -71 12 -145v-721h-159v690q0 58 -4 100.5t-17.5 85t-36 69t-61 43t-92.5 16.5q-159 0 -338 -146v-858h-162z" />
    <glyph glyph-name="n" unicode="n" horiz-adv-x="1232" 
d="M172 0v1118h162v-127q70 52 118.5 81t123.5 52t157 23q66 0 118.5 -14.5t87.5 -36.5t60 -58t39 -70t21.5 -81t9.5 -83t2 -83v-721h-158v690q0 79 -8 131.5t-31 96.5t-68 65t-114 21q-97 0 -181.5 -37t-176.5 -101v-866h-162z" />
    <glyph glyph-name="o" unicode="o" horiz-adv-x="1224" 
d="M606 -25q-232 0 -364.5 149.5t-132.5 422.5q0 285 141 442.5t379 157.5q236 0 361.5 -151.5t125.5 -430.5q0 -148 -38 -262t-107 -185t-161 -107t-204 -36zM616 109q78 0 138 26t97 67.5t60.5 101t32 120.5t8.5 131q0 69 -8.5 129.5t-31.5 122.5t-59 106.5t-97 72.5
t-140 28t-140.5 -27.5t-99 -72t-62 -106.5t-33.5 -123.5t-9 -129.5q0 -72 10.5 -134.5t35.5 -121t63.5 -100t98.5 -66t136 -24.5z" />
    <glyph glyph-name="p" unicode="p" horiz-adv-x="1208" 
d="M172 -451v1569h162v-92q84 58 158.5 87.5t169.5 29.5q204 0 320 -147t116 -418q0 -132 -29.5 -235.5t-79.5 -171.5t-121 -112t-150 -63t-171 -19t-213 19v-447h-162zM545 113q104 0 180.5 33.5t121.5 95.5t66 142.5t21 182.5q0 66 -8.5 125.5t-30 117.5t-55 100t-88 68
t-123.5 26q-61 0 -124.5 -21t-95 -39t-75.5 -47v-762q3 0 45 -7t84.5 -11t81.5 -4z" />
    <glyph glyph-name="q" unicode="q" horiz-adv-x="1187" 
d="M860 -451v496q-117 -65 -272 -65q-48 0 -93 6.5t-94 24t-90.5 44.5t-79.5 71t-64.5 100.5t-42 136t-15.5 174.5q0 157 41.5 276t117 191t175.5 107.5t223 35.5q91 0 188 -18t168 -48v-1532h-162zM602 117q72 0 144 20t114 45v793q-83 37 -209 37q-86 0 -153 -25
t-109.5 -67t-70 -102t-39 -126t-11.5 -143q0 -220 88.5 -326t245.5 -106z" />
    <glyph glyph-name="r" unicode="r" horiz-adv-x="792" 
d="M172 0v1118h162v-149q44 72 127 123t192 51q68 0 131 -19l-26 -137q-61 14 -133 14q-92 0 -168 -52.5t-123 -125.5v-823h-162z" />
    <glyph glyph-name="s" unicode="s" horiz-adv-x="917" 
d="M399 -25q-161 0 -313 50l27 137q166 -49 299 -49q124 0 196 46t72 128q0 45 -24 80.5t-64 58.5t-90.5 46.5t-103 43t-103 49t-90.5 63.5t-64 87t-24 119q0 148 107.5 230.5t271.5 82.5q159 0 280 -53l-37 -129q-117 47 -245 47q-110 0 -165 -45.5t-55 -118.5
q0 -52 31 -91.5t80.5 -65.5t109 -50t119 -52.5t109 -64.5t80.5 -94t31 -133q0 -69 -26.5 -125t-69 -92t-100.5 -60.5t-117 -34.5t-122 -10z" />
    <glyph glyph-name="t" unicode="t" horiz-adv-x="815" 
d="M553 -25q-82 0 -142 15.5t-106 53t-69 104t-23 163.5v670h-164v137h164v230h158v-230h350v-137h-348v-664q0 -113 48.5 -156.5t151.5 -43.5q92 0 189 33l29 -134q-46 -16 -115 -28.5t-123 -12.5z" />
    <glyph glyph-name="u" unicode="u" horiz-adv-x="1226" 
d="M494 -25q-64 0 -115 14.5t-85 37.5t-58.5 59t-38 71t-21.5 82t-10 83.5t-2 83.5v712h160v-680q0 -62 3 -101.5t15 -84.5t34.5 -70t63 -42t99.5 -17q164 0 360 139v856h156v-1118h-156v131q-54 -38 -84.5 -58t-84 -47t-111.5 -39t-125 -12z" />
    <glyph glyph-name="v" unicode="v" horiz-adv-x="1054" 
d="M406 0l-367 1118h176l234 -768l73 -237l78 241l266 764h166l-403 -1118h-223z" />
    <glyph glyph-name="w" unicode="w" horiz-adv-x="1796" 
d="M389 0l-346 1118h170l289 -1001l303 1001h207l266 -1001l328 1001h161l-385 -1118h-217l-225 817l-35 154l-39 -152l-258 -819h-219z" />
    <glyph glyph-name="x" unicode="x" horiz-adv-x="1050" 
d="M45 0l389 571l-366 547h188l270 -432l273 432h180l-361 -543l390 -575h-195l-287 459l-290 -459h-191z" />
    <glyph glyph-name="y" unicode="y" horiz-adv-x="1046" 
d="M319 -451l152 451h-76l-360 1118h176l242 -799l63 -200l66 196l274 803h166l-547 -1569h-156z" />
    <glyph glyph-name="z" unicode="z" horiz-adv-x="1024" 
d="M76 0v139l661 838h-608v141h793v-131l-666 -846h674v-141h-854z" />
    <glyph glyph-name="braceleft" unicode="{" horiz-adv-x="716" 
d="M580 -451q-66 0 -117.5 6t-103.5 24t-86 48t-55 81.5t-21 121.5q0 19 4 59l43 406q8 67 -42 128.5t-126 61.5v148q77 0 126.5 60t41.5 130l-43 422q-4 51 -2 72q13 266 381 266h45v-137h-52q-122 0 -175.5 -50t-41.5 -161l41 -373q14 -124 -32 -199t-138 -98v-4
q197 -71 170 -297l-41 -375q-10 -103 45 -152.5t172 -49.5h52v-138h-45z" />
    <glyph glyph-name="bar" unicode="|" horiz-adv-x="499" 
d="M174 -451v1995h152v-1995h-152z" />
    <glyph glyph-name="braceright" unicode="}" horiz-adv-x="716" 
d="M137 -451h-45v138h49q118 0 173.5 49.5t45.5 152.5l-43 375q-24 226 172 297v4q-93 23 -139 97.5t-33 199.5l43 373q12 111 -42.5 161t-176.5 50h-49v137h45q368 0 381 -266q2 -21 -2 -72l-45 -422q-6 -71 43.5 -130.5t126.5 -59.5v-148q-78 0 -127 -61t-43 -129l45 -406
q4 -40 4 -59q0 -70 -21 -121.5t-55 -81.5t-86 -48t-103.5 -24t-117.5 -6z" />
    <glyph glyph-name="asciitilde" unicode="~" horiz-adv-x="1206" 
d="M825 580q-70 0 -135 19t-107 42t-96.5 42t-105.5 19q-94 0 -184 -59l-76 113q127 110 270 110q70 0 131.5 -19.5t99 -43t91.5 -43t112 -19.5q91 0 179 68l83 -102q-117 -127 -262 -127z" />
    <glyph glyph-name="uni00A0" unicode="&#xa0;" horiz-adv-x="534" 
 />
    <glyph glyph-name="exclamdown" unicode="&#xa1;" horiz-adv-x="526" 
d="M184 -332v809l6 287h146l6 -287v-809h-158zM172 938v178h184v-178h-184z" />
    <glyph glyph-name="cent" unicode="&#xa2;" horiz-adv-x="1064" 
d="M549 0v203q-222 29 -323 165.5t-101 403.5q0 244 113 395.5t311 182.5v194h149v-188q151 -7 250 -62l-49 -129q-119 47 -201 54v-885h11q39 0 80.5 5.5t81 13t51.5 9.5l24 -131q-118 -34 -248 -36v-195h-149zM291 778q0 -192 57.5 -294.5t200.5 -135.5v860
q-122 -31 -190 -142t-68 -288z" />
    <glyph glyph-name="sterling" unicode="&#xa3;" horiz-adv-x="1089" 
d="M1001 0h-858v143q41 14 74 65t51 113.5t27.5 112.5t11.5 82h-194v141h204q5 54 5 140v243q0 82 20 147.5t46.5 107t75 72.5t84 46t97.5 24t90 10.5t84 3.5q20 1 29 1l8 -137q-141 -12 -170 -18q-132 -24 -177 -112q-30 -59 -28 -153q2 -41 2 -125q0 -123 -10 -250h377
v-141h-389q-28 -267 -127 -375h667v-141z" />
    <glyph glyph-name="currency" unicode="&#xa4;" horiz-adv-x="1112" 
d="M199 285l-80 82l141 137q-32 40 -52 98t-20 119q0 63 19 121t51 96l-139 139l80 78l143 -143q106 65 213 65q126 0 215 -61l139 141l82 -82l-139 -137q70 -76 70 -217t-72 -219l137 -140l-76 -79l-143 141q-102 -57 -213 -57q-119 0 -211 61zM555 496q113 0 169 62.5
t56 162.5q2 99 -56 163t-169 64q-109 0 -168 -64t-59 -163q0 -98 60 -161.5t167 -63.5z" />
    <glyph glyph-name="yen" unicode="&#xa5;" horiz-adv-x="1351" 
d="M1249 1448l-438 -786h385v-142h-448v-198h448v-142h-448v-180h-170v180h-424v142h424v198h-424v142h364l-414 786h191l375 -750l399 750h180z" />
    <glyph glyph-name="brokenbar" unicode="&#xa6;" horiz-adv-x="583" 
d="M215 -451v742h154v-742h-154zM215 803v739h154v-739h-154z" />
    <glyph glyph-name="section" unicode="&#xa7;" horiz-adv-x="1101" 
d="M297 -444q-130 0 -234 79l58 136q12 -9 31 -21.5t66.5 -33.5t80.5 -21q40 0 66 31.5t34.5 67.5t8.5 73q0 85 -31 248l-133 721q-21 116 -21 204q0 248 137.5 383.5t372.5 135.5q172 0 297 -89q-63 -127 -67 -131q-45 29 -112 54.5t-130 25.5q-100 0 -100 -143
q0 -86 14 -152l147 -747q35 -194 35 -309q0 -219 -145.5 -365.5t-374.5 -146.5zM510 -276q158 122 158 317q0 77 -23 211l-149 784q-19 120 -19 199q0 98 27 158q-131 -82 -131 -306q-2 -62 16 -186l148 -782q20 -142 20 -211q0 -41 -7.5 -75.5t-14 -51t-25.5 -57.5z" />
    <glyph glyph-name="dieresis" unicode="&#xa8;" horiz-adv-x="835" 
d="M268 1370h-157v191h157v-191zM717 1370h-160v191h160v-191z" />
    <glyph glyph-name="copyright" unicode="&#xa9;" horiz-adv-x="1695" 
d="M899 309q-206 0 -318 116.5t-112 303.5q0 198 110 314t316 116q150 0 246 -57l-41 -96q-58 23 -99 32t-104 9q-131 0 -217 -77t-86 -231q0 -155 92 -235t236 -80q87 0 190 35l37 -101q-118 -49 -250 -49zM831 -27q-220 0 -381 95.5t-243 264t-82 390.5q0 226 94 395
t262.5 258.5t388.5 89.5q170 0 305 -57t221.5 -158t131.5 -236.5t45 -295.5q0 -223 -88 -391t-257 -261.5t-397 -93.5zM838 84q151 0 268 49t190 136t110.5 201.5t37.5 250.5q0 182 -68 324t-203.5 225.5t-320.5 83.5q-145 0 -260 -48t-188.5 -133t-111.5 -199t-38 -249
q0 -104 23 -198t70.5 -175t115.5 -140.5t164.5 -93.5t210.5 -34z" />
    <glyph glyph-name="ordfeminine" unicode="&#xaa;" horiz-adv-x="880" 
d="M350 791q-91 0 -140.5 48t-49.5 140q0 57 23 97t62.5 59.5t79.5 27.5t87 8l143 5v77q0 66 -32.5 86.5t-119.5 20.5q-26 0 -52 -4.5t-63 -14t-52 -12.5l-25 92q105 43 219 43q53 0 93.5 -7.5t75 -26.5t53 -56.5t18.5 -91.5v-342q0 -49 61 -49l-6 -96q-35 -2 -67.5 2.5
t-61.5 23.5t-35 51q-39 -31 -96.5 -56t-114.5 -25zM373 891q16 0 38 6t45.5 16.5t41.5 19.5t36.5 19t20.5 11v124l-139 -6q-142 -6 -142 -94q0 -96 99 -96zM139 614v107h611v-107h-611z" />
    <glyph glyph-name="guillemotleft" unicode="&#xab;" horiz-adv-x="915" 
d="M319 106l-217 451l217 451l121 -45l-178 -406l176 -399zM684 106l-219 451l219 451l119 -45l-178 -406l176 -399z" />
    <glyph glyph-name="logicalnot" unicode="&#xac;" horiz-adv-x="1282" 
d="M971 229v324h-826v137h971v-461h-145z" />
    <glyph glyph-name="registered" unicode="&#xae;" horiz-adv-x="1136" 
d="M1042 1090q0 -211 -133.5 -332t-337.5 -121q-67 0 -131 14t-127.5 48t-111.5 84.5t-77.5 129.5t-29.5 177q0 213 134.5 335.5t340.5 122.5q89 0 170 -25.5t150.5 -77.5t111 -143.5t41.5 -211.5zM948 1090q0 94 -32.5 167.5t-87 117t-120 65.5t-137.5 22q-78 0 -145.5 -21
t-121 -63.5t-84 -114t-30.5 -165.5q0 -66 15.5 -121.5t40.5 -93.5t59.5 -67.5t69.5 -46.5t74.5 -28t71 -14.5t61.5 -3.5q160 0 263 97t103 270zM819 922l-12 -68q-99 3 -148 55q-12 12 -24 26.5t-24.5 32.5t-20 29t-20 31t-15.5 25h-70v-187h-96v496h184q80 0 126 -38.5
t46 -115.5q0 -95 -92 -139q55 -79 74 -98q8 -8 16.5 -14.5t18.5 -11.5t17 -8t20 -7.5t20 -7.5zM653 1206q0 46 -20.5 66t-73.5 20h-74v-172h64q54 0 79 20.5t25 65.5z" />
    <glyph glyph-name="macron" unicode="&#xaf;" horiz-adv-x="1105" 
d="M272 1368v133h547v-133h-547z" />
    <glyph glyph-name="degree" unicode="&#xb0;" horiz-adv-x="835" 
d="M412 827q-153 0 -234.5 82.5t-81.5 241.5q0 140 91.5 228.5t232.5 88.5q149 0 235 -83.5t86 -233.5q0 -149 -90.5 -236.5t-238.5 -87.5zM418 938q89 0 137.5 55t48.5 158q0 96 -49.5 151.5t-136.5 55.5q-88 0 -137.5 -55t-49.5 -152q0 -103 52 -158t135 -55z" />
    <glyph glyph-name="plusminus" unicode="&#xb1;" horiz-adv-x="1130" 
d="M494 252v375h-375v137l375 -2v377h145l-2 -377l377 2v-137h-377l2 -375h-145zM119 0v139h895v-139h-895z" />
    <glyph glyph-name="twosuperior" unicode="&#xb2;" horiz-adv-x="628" 
d="M33 850v104q23 17 75 55.5t75 55.5t65 50t61.5 52t47 48.5t40 52t22 50t9.5 54.5q0 59 -37 90t-94 31q-50 0 -99 -19t-81 -51q-3 6 -30 43t-30 43q46 46 114 73.5t140 27.5q107 0 179.5 -60.5t72.5 -165.5q0 -41 -12.5 -80t-29.5 -70t-50 -66t-58 -57t-70 -54t-69 -47
t-71 -45h370v-115h-540z" />
    <glyph glyph-name="threesuperior" unicode="&#xb3;" horiz-adv-x="616" 
d="M274 840q-115 0 -219 32q1 6 13.5 52.5t13.5 52.5q98 -27 180 -27q78 0 125 27.5t47 85.5q0 73 -54 102t-169 37v80q188 16 188 131q-1 44 -36.5 68t-88.5 24q-69 0 -145 -35l-35 89q41 23 97.5 38t103.5 15q102 0 168.5 -49.5t66.5 -132.5q0 -57 -32 -105t-92 -72
q79 -17 122 -68.5t43 -119.5q0 -80 -45 -132.5t-109 -72.5t-143 -20z" />
    <glyph glyph-name="acute" unicode="&#xb4;" horiz-adv-x="1163" 
d="M428 1266l-57 100l385 262l71 -115z" />
    <glyph glyph-name="mu" unicode="&#xb5;" horiz-adv-x="1284" 
d="M168 -451v1569h160v-688q0 -42 1 -71t6 -64t13.5 -58t24.5 -46.5t38.5 -37t55.5 -22t76 -8.5q34 0 71.5 9t66.5 19.5t65.5 30t53.5 30t47.5 30.5t31.5 20v856h159v-891q0 -70 36.5 -94t117.5 -16l-2 -129q-52 -6 -98 -6q-191 0 -209 153q-47 -37 -73.5 -55.5t-78 -48
t-107.5 -43t-120 -13.5q-112 0 -176 54v-480h-160z" />
    <glyph glyph-name="paragraph" unicode="&#xb6;" horiz-adv-x="1218" 
d="M674 -453q-88 0 -146 23l29 143q66 -16 119 -16q120 0 166.5 67.5t46.5 202.5v1481h162v-1483q0 -119 -28.5 -203t-81.5 -129.5t-118 -65.5t-149 -20zM539 551q-216 0 -334.5 113.5t-118.5 341.5q0 225 119 333.5t340 108.5h151v-897h-157z" />
    <glyph glyph-name="periodcentered" unicode="&#xb7;" horiz-adv-x="493" 
d="M141 637v192h195v-192h-195z" />
    <glyph glyph-name="cedilla" unicode="&#xb8;" horiz-adv-x="927" 
d="M401 -492l-53 93q121 75 121 157q0 49 -49 138h158q40 -71 40 -138q3 -156 -217 -250z" />
    <glyph glyph-name="onesuperior" unicode="&#xb9;" horiz-adv-x="518" 
d="M233 850v639h-180v108q13 0 159 4.5t161 4.5v-756h-140z" />
    <glyph glyph-name="ordmasculine" unicode="&#xba;" horiz-adv-x="897" 
d="M442 786q-142 0 -219.5 87.5t-77.5 246.5q0 163 83.5 255.5t222.5 92.5q151 0 226 -87.5t75 -254.5q0 -163 -86.5 -251.5t-223.5 -88.5zM451 891q174 0 174 235q0 238 -176 238q-51 0 -87.5 -20t-56 -56t-27.5 -76t-8 -88q0 -233 181 -233zM143 614v107h611v-107h-611z
" />
    <glyph glyph-name="guillemotright" unicode="&#xbb;" horiz-adv-x="915" 
d="M233 106l-118 52l176 399l-178 406l120 45l218 -451zM596 106l-117 52l174 399l-178 406l121 45l219 -451z" />
    <glyph glyph-name="onequarter" unicode="&#xbc;" horiz-adv-x="1564" 
d="M1212 2v180h-346v117l271 453h206v-463h127v-107h-127v-180h-131zM975 289h237v387zM297 850v639h-180v108q13 0 158.5 4.5t160.5 4.5v-756h-139zM205 156l-80 82l1079 1095l76 -78z" />
    <glyph glyph-name="onehalf" unicode="&#xbd;" horiz-adv-x="1550" 
d="M868 0v104q24 18 75.5 55.5t75 55t65 50.5t61.5 52.5t47.5 48.5t40 52t22 50t9.5 54q0 59 -37 90t-94 31q-50 0 -99.5 -19t-81.5 -51q-3 6 -29.5 43t-29.5 43q46 46 114 73.5t140 27.5q107 0 179.5 -60t72.5 -165q0 -41 -12.5 -80t-30 -70.5t-50.5 -66t-58 -57t-69.5 -54
t-69 -47.5t-71.5 -45h371v-115h-541zM291 850v639h-180v108q13 0 158.5 4.5t160.5 4.5v-756h-139zM180 156l-80 82l1080 1095l75 -78z" />
    <glyph glyph-name="threequarters" unicode="&#xbe;" horiz-adv-x="1566" 
d="M1217 2v180h-347v117l271 453h207v-463h127v-107h-127v-180h-131zM322 840q-116 0 -220 32q1 6 13.5 52.5t13.5 52.5q98 -27 180 -27q78 0 125 27.5t47 85.5q0 73 -54 102t-169 37v80q188 16 188 131q-1 44 -36 68t-88 24q-70 0 -146 -35l-35 89q41 23 97.5 38t103.5 15
q102 0 169 -49.5t67 -132.5q0 -57 -32.5 -105t-92.5 -72q79 -17 122 -68.5t43 -119.5q0 -60 -25 -105.5t-68.5 -70.5t-94 -37t-108.5 -12zM231 156l-79 82l1079 1095l76 -78zM979 289h238v387z" />
    <glyph glyph-name="questiondown" unicode="&#xbf;" horiz-adv-x="753" 
d="M631 -336q-65 5 -125 16t-121.5 30.5t-111.5 50.5t-89.5 71t-61.5 96.5t-22 124.5q0 58 27.5 113.5t68.5 96.5t89.5 85t89.5 80t68.5 81.5t27.5 90.5q0 25 -16 77t-31 83l139 24q55 -112 55 -186q0 -57 -19.5 -108t-50.5 -90t-68.5 -75t-75 -68t-68.5 -62.5t-50.5 -66
t-19.5 -71.5q0 -60 34.5 -107.5t94 -76.5t126 -46t143.5 -24zM410 940v178h184v-178h-184z" />
    <glyph glyph-name="Agrave" unicode="&#xc0;" horiz-adv-x="1374" 
d="M813 1530l-459 133l43 139l453 -164zM0 0l594 1448h219l526 -1448h-182l-192 541h-572l-215 -541h-178zM444 676h476l-226 653z" />
    <glyph glyph-name="Aacute" unicode="&#xc1;" horiz-adv-x="1374" 
d="M0 0l594 1448h219l526 -1448h-182l-192 541h-572l-215 -541h-178zM444 676h476l-226 653zM559 1530l-33 106l449 172l43 -137z" />
    <glyph glyph-name="Acircumflex" unicode="&#xc2;" horiz-adv-x="1374" 
d="M0 0l594 1448h219l526 -1448h-182l-192 541h-572l-215 -541h-178zM444 676h476l-226 653zM438 1536l-57 111l321 155l312 -151l-60 -113l-252 117z" />
    <glyph glyph-name="Atilde" unicode="&#xc3;" horiz-adv-x="1374" 
d="M0 0l594 1448h219l526 -1448h-182l-192 541h-572l-215 -541h-178zM444 676h476l-226 653zM829 1544q-43 0 -125 38t-120 38q-76 0 -142 -49l-63 92q37 35 92.5 64.5t112.5 29.5q56 0 135 -38t110 -38q48 0 74.5 12.5t57.5 41.5l63 -90q-76 -101 -195 -101z" />
    <glyph glyph-name="Adieresis" unicode="&#xc4;" horiz-adv-x="1374" 
d="M0 0l594 1448h219l526 -1448h-182l-192 541h-572l-215 -541h-178zM444 676h476l-226 653zM567 1552h-157v191h157v-191zM967 1552h-160v191h160v-191z" />
    <glyph glyph-name="Aring" unicode="&#xc5;" horiz-adv-x="1374" 
d="M0 0l594 1448h219l526 -1448h-182l-192 541h-572l-215 -541h-178zM444 676h476l-226 653zM707 1524q-86 0 -144.5 44.5t-58.5 135.5q0 88 58 137t140 49q78 0 139.5 -45t61.5 -137q0 -86 -55.5 -135t-140.5 -49zM705 1599q51 0 79.5 28.5t28.5 78.5q0 46 -33 76t-78 30
q-50 0 -80 -26.5t-30 -75.5t31.5 -80t81.5 -31z" />
    <glyph glyph-name="AE" unicode="&#xc6;" horiz-adv-x="1869" 
d="M-29 0l770 1448h965v-137h-643v-514h598v-140h-598v-518h692v-139h-860v637h-403l-330 -637h-191zM559 774h336v537h-57z" />
    <glyph glyph-name="Ccedilla" unicode="&#xc7;" horiz-adv-x="1386" 
d="M874 -25q-176 0 -318.5 55t-237 153t-145 234t-50.5 298q0 342 198.5 547.5t544.5 205.5q248 0 420 -82l-51 -135q-67 24 -107 36t-110 23t-148 11q-93 0 -176 -20t-156.5 -65t-126.5 -112t-83.5 -166.5t-30.5 -222.5q0 -126 31.5 -228.5t87 -172.5t133.5 -117t167 -68.5
t191 -21.5q195 0 340 53l41 -135q-89 -33 -181.5 -51.5t-232.5 -18.5zM748 -492l-54 93q121 75 121 157q0 49 -49 138h158q41 -73 41 -138q3 -156 -217 -250z" />
    <glyph glyph-name="Egrave" unicode="&#xc8;" horiz-adv-x="1191" 
d="M795 1530l-459 133l43 139l452 -164zM217 0v1448h811v-137h-643v-514h598v-140h-598v-518h690v-139h-858z" />
    <glyph glyph-name="Eacute" unicode="&#xc9;" horiz-adv-x="1191" 
d="M492 1530l-33 106l448 172l43 -137zM217 0v1448h811v-137h-643v-514h598v-140h-598v-518h690v-139h-858z" />
    <glyph glyph-name="Ecircumflex" unicode="&#xca;" horiz-adv-x="1191" 
d="M217 0v1448h811v-137h-643v-514h598v-140h-598v-518h690v-139h-858zM369 1536l-58 111l322 155l311 -151l-59 -113l-252 117z" />
    <glyph glyph-name="Edieresis" unicode="&#xcb;" horiz-adv-x="1191" 
d="M506 1552h-158v191h158v-191zM905 1552h-160v191h160v-191zM217 0v1448h811v-137h-643v-514h598v-140h-598v-518h690v-139h-858z" />
    <glyph glyph-name="Igrave" unicode="&#xcc;" horiz-adv-x="602" 
d="M397 1530l-458 133l43 139l452 -164zM217 0v1448h168v-1448h-168z" />
    <glyph glyph-name="Iacute" unicode="&#xcd;" horiz-adv-x="602" 
d="M217 0v1448h168v-1448h-168zM207 1530l-33 106l449 172l43 -137z" />
    <glyph glyph-name="Icircumflex" unicode="&#xce;" horiz-adv-x="602" 
d="M217 0v1448h168v-1448h-168zM45 1536l-57 111l321 155l312 -151l-60 -113l-252 117z" />
    <glyph glyph-name="Idieresis" unicode="&#xcf;" horiz-adv-x="602" 
d="M217 0v1448h168v-1448h-168zM176 1552h-158v191h158v-191zM575 1552h-159v191h159v-191z" />
    <glyph glyph-name="Eth" unicode="&#xd0;" horiz-adv-x="1599" 
d="M109 655v129h161v664h392q178 0 323.5 -43t255 -128.5t169.5 -225t60 -322.5q0 -187 -56 -327.5t-161.5 -228t-250 -130.5t-328.5 -43h-404v655h-161zM438 139h258q286 0 443 144.5t157 423.5q0 151 -45.5 266.5t-130.5 188.5t-202 110t-263 37h-217v-525h344v-129h-344
v-516z" />
    <glyph glyph-name="Ntilde" unicode="&#xd1;" horiz-adv-x="1576" 
d="M932 1544q-43 0 -125.5 38t-120.5 38q-75 0 -141 -49l-64 92q37 35 92.5 64.5t112.5 29.5q56 0 135.5 -38t110.5 -38q48 0 74 12.5t57 41.5l63 -90q-76 -101 -194 -101zM217 0v1448h215l762 -1258h4l-8 183v1075h170v-1448h-225l-752 1239h-6l8 -149v-1090h-168z" />
    <glyph glyph-name="Ograve" unicode="&#xd2;" horiz-adv-x="1695" 
d="M1012 1530l-459 133l43 139l453 -164zM831 -25q-221 0 -382.5 96t-243.5 265t-82 391q0 339 201.5 540t535.5 201q171 0 307.5 -57t224.5 -157.5t134.5 -236t46.5 -294.5q0 -221 -88 -389.5t-257 -263.5t-397 -95zM838 115q141 0 250 46.5t177.5 130t103 193t34.5 240.5
q0 174 -63 309t-189 215t-299 80q-137 0 -244.5 -45.5t-176 -127t-104.5 -190t-36 -237.5q0 -100 21.5 -190.5t66 -168t108.5 -134.5t154 -89t197 -32z" />
    <glyph glyph-name="Oacute" unicode="&#xd3;" horiz-adv-x="1695" 
d="M666 1530l-33 106l448 172l43 -137zM831 -25q-221 0 -382.5 96t-243.5 265t-82 391q0 339 201.5 540t535.5 201q171 0 307.5 -57t224.5 -157.5t134.5 -236t46.5 -294.5q0 -221 -88 -389.5t-257 -263.5t-397 -95zM838 115q141 0 250 46.5t177.5 130t103 193t34.5 240.5
q0 174 -63 309t-189 215t-299 80q-137 0 -244.5 -45.5t-176 -127t-104.5 -190t-36 -237.5q0 -100 21.5 -190.5t66 -168t108.5 -134.5t154 -89t197 -32z" />
    <glyph glyph-name="Ocircumflex" unicode="&#xd4;" horiz-adv-x="1695" 
d="M592 1536l-57 111l321 155l311 -151l-59 -113l-252 117zM831 -25q-221 0 -382.5 96t-243.5 265t-82 391q0 339 201.5 540t535.5 201q171 0 307.5 -57t224.5 -157.5t134.5 -236t46.5 -294.5q0 -221 -88 -389.5t-257 -263.5t-397 -95zM838 115q141 0 250 46.5t177.5 130
t103 193t34.5 240.5q0 174 -63 309t-189 215t-299 80q-137 0 -244.5 -45.5t-176 -127t-104.5 -190t-36 -237.5q0 -100 21.5 -190.5t66 -168t108.5 -134.5t154 -89t197 -32z" />
    <glyph glyph-name="Otilde" unicode="&#xd5;" horiz-adv-x="1695" 
d="M987 1544q-43 0 -125.5 38t-120.5 38q-75 0 -141 -49l-63 92q37 35 92 64.5t112 29.5q56 0 135.5 -38t110.5 -38q48 0 74 12.5t57 41.5l64 -90q-76 -101 -195 -101zM831 -25q-221 0 -382.5 96t-243.5 265t-82 391q0 339 201.5 540t535.5 201q171 0 307.5 -57
t224.5 -157.5t134.5 -236t46.5 -294.5q0 -221 -88 -389.5t-257 -263.5t-397 -95zM838 115q141 0 250 46.5t177.5 130t103 193t34.5 240.5q0 174 -63 309t-189 215t-299 80q-137 0 -244.5 -45.5t-176 -127t-104.5 -190t-36 -237.5q0 -100 21.5 -190.5t66 -168t108.5 -134.5
t154 -89t197 -32z" />
    <glyph glyph-name="Odieresis" unicode="&#xd6;" horiz-adv-x="1695" 
d="M713 1552h-158v191h158v-191zM1112 1552h-160v191h160v-191zM831 -25q-221 0 -382.5 96t-243.5 265t-82 391q0 339 201.5 540t535.5 201q171 0 307.5 -57t224.5 -157.5t134.5 -236t46.5 -294.5q0 -221 -88 -389.5t-257 -263.5t-397 -95zM838 115q141 0 250 46.5
t177.5 130t103 193t34.5 240.5q0 174 -63 309t-189 215t-299 80q-137 0 -244.5 -45.5t-176 -127t-104.5 -190t-36 -237.5q0 -100 21.5 -190.5t66 -168t108.5 -134.5t154 -89t197 -32z" />
    <glyph glyph-name="multiply" unicode="&#xd7;" horiz-adv-x="1136" 
d="M932 166l-369 369l-354 -355l-98 99l354 354l-352 350l94 96l352 -352l361 360l100 -98l-367 -362l371 -367z" />
    <glyph glyph-name="Oslash" unicode="&#xd8;" horiz-adv-x="1759" 
d="M186 -61l-77 79l196 205q-151 195 -151 504q0 339 201.5 540t535.5 201q284 0 469 -155l194 200l84 -75l-198 -205q164 -200 164 -510q0 -221 -88 -389.5t-257 -263.5t-397 -95q-293 0 -479 166zM868 115q141 0 250.5 46.5t177.5 129.5t103 193t35 241q0 230 -111 387
l-827 -854q143 -143 372 -143zM322 729q0 -231 102 -385l825 854q-140 131 -366 131q-137 0 -244.5 -45.5t-176 -127t-104.5 -190t-36 -237.5z" />
    <glyph glyph-name="Ugrave" unicode="&#xd9;" horiz-adv-x="1552" 
d="M909 1530l-458 133l43 139l452 -164zM776 -25q-90 0 -168.5 14t-156 51.5t-132 95.5t-88.5 152t-34 216v944h170v-930q0 -92 23.5 -162.5t61.5 -114.5t92 -71.5t110 -38t122 -10.5q414 0 414 444v883h166v-889q0 -134 -36 -238.5t-93 -168.5t-135 -105t-155 -56.5
t-161 -15.5z" />
    <glyph glyph-name="Uacute" unicode="&#xda;" horiz-adv-x="1552" 
d="M643 1530l-33 106l449 172l43 -137zM776 -25q-90 0 -168.5 14t-156 51.5t-132 95.5t-88.5 152t-34 216v944h170v-930q0 -92 23.5 -162.5t61.5 -114.5t92 -71.5t110 -38t122 -10.5q414 0 414 444v883h166v-889q0 -134 -36 -238.5t-93 -168.5t-135 -105t-155 -56.5
t-161 -15.5z" />
    <glyph glyph-name="Ucircumflex" unicode="&#xdb;" horiz-adv-x="1552" 
d="M776 -25q-90 0 -168.5 14t-156 51.5t-132 95.5t-88.5 152t-34 216v944h170v-930q0 -92 23.5 -162.5t61.5 -114.5t92 -71.5t110 -38t122 -10.5q414 0 414 444v883h166v-889q0 -134 -36 -238.5t-93 -168.5t-135 -105t-155 -56.5t-161 -15.5zM526 1536l-57 111l322 155
l311 -151l-60 -113l-251 117z" />
    <glyph glyph-name="Udieresis" unicode="&#xdc;" horiz-adv-x="1552" 
d="M653 1552h-157v191h157v-191zM1053 1552h-160v191h160v-191zM776 -25q-90 0 -168.5 14t-156 51.5t-132 95.5t-88.5 152t-34 216v944h170v-930q0 -92 23.5 -162.5t61.5 -114.5t92 -71.5t110 -38t122 -10.5q414 0 414 444v883h166v-889q0 -134 -36 -238.5t-93 -168.5
t-135 -105t-155 -56.5t-161 -15.5z" />
    <glyph glyph-name="Yacute" unicode="&#xdd;" horiz-adv-x="1232" 
d="M528 0v549l-473 899h191l372 -750l402 750h180l-504 -899v-549h-168zM487 1530l-32 106l448 172l43 -137z" />
    <glyph glyph-name="Thorn" unicode="&#xde;" horiz-adv-x="1241" 
d="M217 0v1448h168v-266h305q223 0 346 -110t123 -333q0 -204 -145 -330t-430 -126h-197v-283h-170zM387 1044v-620h209q385 0 385 305q0 165 -81.5 240t-254.5 75h-258z" />
    <glyph glyph-name="germandbls" unicode="&#xdf;" horiz-adv-x="1206" 
d="M172 -25v1170q0 422 397 422q45 0 89 -7t94.5 -28t88 -54t62.5 -90t25 -131q0 -58 -24.5 -113.5t-59 -98t-69 -81t-59 -78.5t-24.5 -75q0 -48 25 -88t65 -69t88 -56t96.5 -56.5t88.5 -63.5t65 -84.5t25 -112.5q0 -82 -31 -142.5t-84 -93.5t-111.5 -48t-123.5 -15
q-185 0 -303 45l30 131q140 -39 242 -39q227 0 227 143q0 47 -25 85t-65 64.5t-88.5 52.5t-97 55.5t-88.5 66t-65 92t-25 125.5q0 51 23 100t55.5 89t64.5 80t55 88.5t23 99.5q0 84 -55.5 127t-139.5 43q-69 0 -115.5 -20.5t-70.5 -61.5t-33.5 -89.5t-9.5 -115.5v-1168h-162
z" />
    <glyph glyph-name="agrave" unicode="&#xe0;" horiz-adv-x="1130" 
d="M422 -18q-155 0 -244.5 82.5t-89.5 232.5q0 80 27.5 141.5t70 97.5t102 59.5t113.5 32t115 9.5l266 4v143q0 128 -60.5 175t-199.5 47q-156 0 -303 -56l-37 127q163 70 363 70q395 0 395 -309v-619q0 -30 11 -51t30 -31.5t38.5 -15t41.5 -4.5l-6 -125q-20 -4 -45 -4
q-81 0 -143 35.5t-72 105.5q-37 -29 -58 -43.5t-73.5 -44t-113.5 -44.5t-128 -15zM459 113q151 0 323 125v290l-268 -10q-130 -4 -200 -60t-70 -155q0 -93 59 -141.5t156 -48.5zM684 1268l-395 245l71 123l388 -266z" />
    <glyph glyph-name="aacute" unicode="&#xe1;" horiz-adv-x="1130" 
d="M422 -18q-155 0 -244.5 82.5t-89.5 232.5q0 80 27.5 141.5t70 97.5t102 59.5t113.5 32t115 9.5l266 4v143q0 128 -60.5 175t-199.5 47q-156 0 -303 -56l-37 127q163 70 363 70q395 0 395 -309v-619q0 -30 11 -51t30 -31.5t38.5 -15t41.5 -4.5l-6 -125q-20 -4 -45 -4
q-81 0 -143 35.5t-72 105.5q-37 -29 -58 -43.5t-73.5 -44t-113.5 -44.5t-128 -15zM459 113q151 0 323 125v290l-268 -10q-130 -4 -200 -60t-70 -155q0 -93 59 -141.5t156 -48.5zM434 1266l-57 100l385 262l72 -115z" />
    <glyph glyph-name="acircumflex" unicode="&#xe2;" horiz-adv-x="1130" 
d="M788 1288l-245 170l-264 -172l-70 94l340 232l311 -228zM422 -18q-155 0 -244.5 82.5t-89.5 232.5q0 80 27.5 141.5t70 97.5t102 59.5t113.5 32t115 9.5l266 4v143q0 128 -60.5 175t-199.5 47q-156 0 -303 -56l-37 127q163 70 363 70q395 0 395 -309v-619q0 -30 11 -51
t30 -31.5t38.5 -15t41.5 -4.5l-6 -125q-20 -4 -45 -4q-81 0 -143 35.5t-72 105.5q-37 -29 -58 -43.5t-73.5 -44t-113.5 -44.5t-128 -15zM459 113q151 0 323 125v290l-268 -10q-130 -4 -200 -60t-70 -155q0 -93 59 -141.5t156 -48.5z" />
    <glyph glyph-name="atilde" unicode="&#xe3;" horiz-adv-x="1130" 
d="M422 -18q-155 0 -244.5 82.5t-89.5 232.5q0 80 27.5 141.5t70 97.5t102 59.5t113.5 32t115 9.5l266 4v143q0 128 -60.5 175t-199.5 47q-156 0 -303 -56l-37 127q163 70 363 70q395 0 395 -309v-619q0 -30 11 -51t30 -31.5t38.5 -15t41.5 -4.5l-6 -125q-20 -4 -45 -4
q-81 0 -143 35.5t-72 105.5q-37 -29 -58 -43.5t-73.5 -44t-113.5 -44.5t-128 -15zM459 113q151 0 323 125v290l-268 -10q-130 -4 -200 -60t-70 -155q0 -93 59 -141.5t156 -48.5zM680 1321q-49 0 -130 38t-124 38q-46 0 -75 -11t-66 -40l-64 94q92 92 215 92q46 0 92 -19
t86.5 -38t73.5 -19q32 0 64 12t44 20t35 25l64 -90q-89 -102 -215 -102z" />
    <glyph glyph-name="adieresis" unicode="&#xe4;" horiz-adv-x="1130" 
d="M401 1370h-157v191h157v-191zM850 1370h-160v191h160v-191zM422 -18q-155 0 -244.5 82.5t-89.5 232.5q0 80 27.5 141.5t70 97.5t102 59.5t113.5 32t115 9.5l266 4v143q0 128 -60.5 175t-199.5 47q-156 0 -303 -56l-37 127q163 70 363 70q395 0 395 -309v-619
q0 -30 11 -51t30 -31.5t38.5 -15t41.5 -4.5l-6 -125q-20 -4 -45 -4q-81 0 -143 35.5t-72 105.5q-37 -29 -58 -43.5t-73.5 -44t-113.5 -44.5t-128 -15zM459 113q151 0 323 125v290l-268 -10q-130 -4 -200 -60t-70 -155q0 -93 59 -141.5t156 -48.5z" />
    <glyph glyph-name="aring" unicode="&#xe5;" horiz-adv-x="1130" 
d="M422 -18q-155 0 -244.5 82.5t-89.5 232.5q0 80 27.5 141.5t70 97.5t102 59.5t113.5 32t115 9.5l266 4v143q0 128 -60.5 175t-199.5 47q-156 0 -303 -56l-37 127q163 70 363 70q395 0 395 -309v-619q0 -30 11 -51t30 -31.5t38.5 -15t41.5 -4.5l-6 -125q-20 -4 -45 -4
q-81 0 -143 35.5t-72 105.5q-37 -29 -58 -43.5t-73.5 -44t-113.5 -44.5t-128 -15zM459 113q151 0 323 125v290l-268 -10q-130 -4 -200 -60t-70 -155q0 -93 59 -141.5t156 -48.5zM582 1257q-95 0 -161.5 50.5t-66.5 150.5q0 98 66 153.5t158 55.5q39 0 76.5 -11t72 -33.5
t55.5 -64t21 -96.5q0 -96 -62.5 -150.5t-158.5 -54.5zM580 1341q57 0 88.5 31.5t33.5 87.5q0 54 -35.5 86.5t-88.5 32.5q-58 0 -90.5 -30t-32.5 -85t34.5 -89t90.5 -34z" />
    <glyph glyph-name="ae" unicode="&#xe6;" horiz-adv-x="1779" 
d="M1305 -18q-324 0 -451 194q-103 -76 -163 -109q-151 -83 -285 -83q-151 0 -234.5 81.5t-83.5 233.5q0 78 27.5 138.5t70 96t102 58.5t113.5 31.5t115 9.5q252 6 264 6v154q0 69 -15.5 111.5t-53 65t-86 29.5t-129.5 7q-35 0 -81 -7t-78 -14t-71 -17t-47 -12l-35 123
q168 66 359 66q134 0 225 -34.5t135 -125.5q127 160 373 160q197 0 297 -135.5t100 -399.5v-59l-737 -29q2 -102 24 -175.5t56.5 -117t90 -68t112 -32.5t135.5 -8q91 0 274 39l27 -129q-123 -49 -350 -49zM444 117q64 0 178 50.5t191 98.5q-30 100 -37 254l-258 -8
q-139 -3 -207.5 -58t-68.5 -139q0 -112 52.5 -155t149.5 -43zM942 647l563 27q0 160 -66.5 255t-187.5 95q-125 0 -212 -93.5t-97 -283.5z" />
    <glyph glyph-name="ccedilla" unicode="&#xe7;" horiz-adv-x="1017" 
d="M666 -25q-284 0 -420.5 138t-136.5 424q0 296 140.5 453t389.5 157q176 0 297 -68l-49 -129q-140 56 -248 56q-177 0 -271 -115.5t-94 -345.5q0 -216 93.5 -323t314.5 -107q46 0 91 6t64.5 11t71.5 18l25 -132q-127 -43 -268 -43zM516 -492l-53 93q121 75 121 157
q0 49 -49 138h157q41 -73 41 -138q3 -156 -217 -250z" />
    <glyph glyph-name="egrave" unicode="&#xe8;" horiz-adv-x="1118" 
d="M641 -25q-127 0 -221 28.5t-165.5 92.5t-107.5 174t-36 267q0 159 37.5 278.5t104.5 190.5t153.5 106t191.5 35q212 0 313 -138.5t101 -420.5v-60h-738q1 -125 32 -209.5t88 -127.5t121.5 -59.5t152.5 -16.5q136 0 297 51l28 -131q-144 -60 -352 -60zM276 649h568
q0 176 -64.5 273.5t-197.5 97.5q-126 0 -209.5 -95t-96.5 -276zM711 1268l-396 245l72 123l387 -266z" />
    <glyph glyph-name="eacute" unicode="&#xe9;" horiz-adv-x="1118" 
d="M461 1266l-58 100l385 262l72 -115zM641 -25q-127 0 -221 28.5t-165.5 92.5t-107.5 174t-36 267q0 159 37.5 278.5t104.5 190.5t153.5 106t191.5 35q212 0 313 -138.5t101 -420.5v-60h-738q1 -125 32 -209.5t88 -127.5t121.5 -59.5t152.5 -16.5q136 0 297 51l28 -131
q-144 -60 -352 -60zM276 649h568q0 176 -64.5 273.5t-197.5 97.5q-126 0 -209.5 -95t-96.5 -276z" />
    <glyph glyph-name="ecircumflex" unicode="&#xea;" horiz-adv-x="1118" 
d="M815 1288l-246 170l-264 -172l-69 94l339 232l312 -228zM641 -25q-127 0 -221 28.5t-165.5 92.5t-107.5 174t-36 267q0 159 37.5 278.5t104.5 190.5t153.5 106t191.5 35q212 0 313 -138.5t101 -420.5v-60h-738q1 -125 32 -209.5t88 -127.5t121.5 -59.5t152.5 -16.5
q136 0 297 51l28 -131q-144 -60 -352 -60zM276 649h568q0 176 -64.5 273.5t-197.5 97.5q-126 0 -209.5 -95t-96.5 -276z" />
    <glyph glyph-name="edieresis" unicode="&#xeb;" horiz-adv-x="1118" 
d="M422 1370h-158v191h158v-191zM870 1370h-159v191h159v-191zM641 -25q-127 0 -221 28.5t-165.5 92.5t-107.5 174t-36 267q0 159 37.5 278.5t104.5 190.5t153.5 106t191.5 35q212 0 313 -138.5t101 -420.5v-60h-738q1 -125 32 -209.5t88 -127.5t121.5 -59.5t152.5 -16.5
q136 0 297 51l28 -131q-144 -60 -352 -60zM276 649h568q0 176 -64.5 273.5t-197.5 97.5q-126 0 -209.5 -95t-96.5 -276z" />
    <glyph glyph-name="igrave" unicode="&#xec;" horiz-adv-x="509" 
d="M172 0v1118h164v-1118h-164zM340 1268l-395 245l71 123l387 -266z" />
    <glyph glyph-name="iacute" unicode="&#xed;" horiz-adv-x="509" 
d="M143 1266l-57 100l385 262l72 -115zM172 0v1118h164v-1118h-164z" />
    <glyph glyph-name="icircumflex" unicode="&#xee;" horiz-adv-x="509" 
d="M504 1288l-246 170l-264 -172l-70 94l340 232l311 -228zM172 0v1118h164v-1118h-164z" />
    <glyph glyph-name="idieresis" unicode="&#xef;" horiz-adv-x="509" 
d="M106 1370h-157v191h157v-191zM555 1370h-160v191h160v-191zM172 0v1118h164v-1118h-164z" />
    <glyph glyph-name="eth" unicode="&#xf0;" horiz-adv-x="1253" 
d="M608 -18q-235 0 -366 144.5t-131 416.5q0 275 141 425t366 150q140 0 244 -71q-72 148 -200 260l-195 -133l-66 81l172 119q-81 58 -167 96l90 109q119 -56 202 -113l197 136l63 -82l-172 -119q332 -293 332 -823q0 -134 -32 -243t-95 -188t-160.5 -122t-222.5 -43z
M621 115q77 0 136.5 24.5t96 65t59.5 98t32 117.5t9 131q0 89 -16.5 162t-53.5 136.5t-106 99.5t-166 36q-77 0 -137 -25t-97 -66t-61 -98.5t-33.5 -116.5t-9.5 -126q0 -73 10.5 -135.5t36 -119t64 -96.5t99 -63.5t137.5 -23.5z" />
    <glyph glyph-name="ntilde" unicode="&#xf1;" horiz-adv-x="1232" 
d="M752 1321q-49 0 -130 38t-124 38q-46 0 -76 -11t-66 -40l-63 94q92 92 215 92q46 0 92 -19t86.5 -38t73.5 -19q32 0 64 12t44 20t35 25l64 -90q-89 -102 -215 -102zM172 0v1118h162v-127q70 52 118.5 81t123.5 52t157 23q66 0 118.5 -14.5t87.5 -36.5t60 -58t39 -70
t21.5 -81t9.5 -83t2 -83v-721h-158v690q0 79 -8 131.5t-31 96.5t-68 65t-114 21q-97 0 -181.5 -37t-176.5 -101v-866h-162z" />
    <glyph glyph-name="ograve" unicode="&#xf2;" horiz-adv-x="1224" 
d="M754 1268l-396 245l72 123l387 -266zM606 -25q-232 0 -364.5 149.5t-132.5 422.5q0 285 141 442.5t379 157.5q236 0 361.5 -151.5t125.5 -430.5q0 -148 -38 -262t-107 -185t-161 -107t-204 -36zM616 109q78 0 138 26t97 67.5t60.5 101t32 120.5t8.5 131q0 69 -8.5 129.5
t-31.5 122.5t-59 106.5t-97 72.5t-140 28t-140.5 -27.5t-99 -72t-62 -106.5t-33.5 -123.5t-9 -129.5q0 -72 10.5 -134.5t35.5 -121t63.5 -100t98.5 -66t136 -24.5z" />
    <glyph glyph-name="oacute" unicode="&#xf3;" horiz-adv-x="1224" 
d="M473 1266l-57 100l385 262l71 -115zM606 -25q-232 0 -364.5 149.5t-132.5 422.5q0 285 141 442.5t379 157.5q236 0 361.5 -151.5t125.5 -430.5q0 -148 -38 -262t-107 -185t-161 -107t-204 -36zM616 109q78 0 138 26t97 67.5t60.5 101t32 120.5t8.5 131q0 69 -8.5 129.5
t-31.5 122.5t-59 106.5t-97 72.5t-140 28t-140.5 -27.5t-99 -72t-62 -106.5t-33.5 -123.5t-9 -129.5q0 -72 10.5 -134.5t35.5 -121t63.5 -100t98.5 -66t136 -24.5z" />
    <glyph glyph-name="ocircumflex" unicode="&#xf4;" horiz-adv-x="1224" 
d="M856 1288l-246 170l-264 -172l-70 94l340 232l312 -228zM606 -25q-232 0 -364.5 149.5t-132.5 422.5q0 285 141 442.5t379 157.5q236 0 361.5 -151.5t125.5 -430.5q0 -148 -38 -262t-107 -185t-161 -107t-204 -36zM616 109q78 0 138 26t97 67.5t60.5 101t32 120.5
t8.5 131q0 69 -8.5 129.5t-31.5 122.5t-59 106.5t-97 72.5t-140 28t-140.5 -27.5t-99 -72t-62 -106.5t-33.5 -123.5t-9 -129.5q0 -72 10.5 -134.5t35.5 -121t63.5 -100t98.5 -66t136 -24.5z" />
    <glyph glyph-name="otilde" unicode="&#xf5;" horiz-adv-x="1224" 
d="M606 -25q-232 0 -364.5 149.5t-132.5 422.5q0 285 141 442.5t379 157.5q236 0 361.5 -151.5t125.5 -430.5q0 -148 -38 -262t-107 -185t-161 -107t-204 -36zM616 109q78 0 138 26t97 67.5t60.5 101t32 120.5t8.5 131q0 69 -8.5 129.5t-31.5 122.5t-59 106.5t-97 72.5
t-140 28t-140.5 -27.5t-99 -72t-62 -106.5t-33.5 -123.5t-9 -129.5q0 -72 10.5 -134.5t35.5 -121t63.5 -100t98.5 -66t136 -24.5zM731 1321q-49 0 -130 38t-124 38q-46 0 -75 -11t-66 -40l-64 94q92 92 215 92q46 0 92 -19t86.5 -38t73.5 -19q67 0 144 57l63 -90
q-89 -102 -215 -102z" />
    <glyph glyph-name="odieresis" unicode="&#xf6;" horiz-adv-x="1224" 
d="M461 1370h-158v191h158v-191zM909 1370h-159v191h159v-191zM606 -25q-232 0 -364.5 149.5t-132.5 422.5q0 285 141 442.5t379 157.5q236 0 361.5 -151.5t125.5 -430.5q0 -148 -38 -262t-107 -185t-161 -107t-204 -36zM616 109q78 0 138 26t97 67.5t60.5 101t32 120.5
t8.5 131q0 69 -8.5 129.5t-31.5 122.5t-59 106.5t-97 72.5t-140 28t-140.5 -27.5t-99 -72t-62 -106.5t-33.5 -123.5t-9 -129.5q0 -72 10.5 -134.5t35.5 -121t63.5 -100t98.5 -66t136 -24.5z" />
    <glyph glyph-name="divide" unicode="&#xf7;" horiz-adv-x="1333" 
d="M573 139v160h164v-160h-164zM145 553v135h1043v-135h-1043zM573 944v162h164v-162h-164z" />
    <glyph glyph-name="oslash" unicode="&#xf8;" horiz-adv-x="1273" 
d="M629 -25q-205 0 -334 117l-135 -155l-72 69l141 162q-98 146 -98 379q0 285 141 442.5t379 157.5q204 0 328 -115l121 139l74 -67l-132 -150q97 -151 97 -389q0 -148 -38 -262t-107 -185t-161 -107t-204 -36zM639 109q78 0 138 26t97 67.5t60.5 101t32 120.5t8.5 131
q0 156 -45 268l-535 -614q90 -100 244 -100zM295 555q0 -154 45 -258l534 616q-84 101 -235 101q-79 0 -140.5 -27.5t-99 -72t-62 -106.5t-33.5 -123.5t-9 -129.5z" />
    <glyph glyph-name="ugrave" unicode="&#xf9;" horiz-adv-x="1226" 
d="M494 -25q-64 0 -115 14.5t-85 37.5t-58.5 59t-38 71t-21.5 82t-10 83.5t-2 83.5v712h160v-680q0 -62 3 -101.5t15 -84.5t34.5 -70t63 -42t99.5 -17q164 0 360 139v856h156v-1118h-156v131q-54 -38 -84.5 -58t-84 -47t-111.5 -39t-125 -12zM715 1268l-396 245l72 123
l387 -266z" />
    <glyph glyph-name="uacute" unicode="&#xfa;" horiz-adv-x="1226" 
d="M518 1268l-57 100l385 262l72 -114zM494 -25q-64 0 -115 14.5t-85 37.5t-58.5 59t-38 71t-21.5 82t-10 83.5t-2 83.5v712h160v-680q0 -62 3 -101.5t15 -84.5t34.5 -70t63 -42t99.5 -17q164 0 360 139v856h156v-1118h-156v131q-54 -38 -84.5 -58t-84 -47t-111.5 -39
t-125 -12z" />
    <glyph glyph-name="ucircumflex" unicode="&#xfb;" horiz-adv-x="1226" 
d="M860 1288l-246 170l-264 -172l-69 94l340 232l311 -228zM494 -25q-64 0 -115 14.5t-85 37.5t-58.5 59t-38 71t-21.5 82t-10 83.5t-2 83.5v712h160v-680q0 -62 3 -101.5t15 -84.5t34.5 -70t63 -42t99.5 -17q164 0 360 139v856h156v-1118h-156v131q-54 -38 -84.5 -58
t-84 -47t-111.5 -39t-125 -12z" />
    <glyph glyph-name="udieresis" unicode="&#xfc;" horiz-adv-x="1226" 
d="M461 1370h-158v191h158v-191zM909 1370h-159v191h159v-191zM494 -25q-64 0 -115 14.5t-85 37.5t-58.5 59t-38 71t-21.5 82t-10 83.5t-2 83.5v712h160v-680q0 -62 3 -101.5t15 -84.5t34.5 -70t63 -42t99.5 -17q164 0 360 139v856h156v-1118h-156v131q-54 -38 -84.5 -58
t-84 -47t-111.5 -39t-125 -12z" />
    <glyph glyph-name="yacute" unicode="&#xfd;" horiz-adv-x="1046" 
d="M319 -451l152 451h-76l-360 1118h176l242 -799l63 -200l66 196l274 803h166l-547 -1569h-156zM428 1266l-57 100l385 262l71 -115z" />
    <glyph glyph-name="thorn" unicode="&#xfe;" horiz-adv-x="1208" 
d="M172 -451v1995h158v-518q64 46 147.5 78.5t165.5 32.5q218 0 336.5 -142t118.5 -403q0 -136 -29 -242.5t-78.5 -175t-119.5 -113t-146 -63t-164 -18.5q-121 0 -231 16v-447h-158zM567 113q176 0 270.5 122t94.5 316q0 76 -7.5 137.5t-29 121t-57 99t-93.5 64t-135 24.5
q-72 0 -155 -35t-125 -65v-762q9 -1 49.5 -7.5t84.5 -10.5t103 -4z" />
    <glyph glyph-name="ydieresis" unicode="&#xff;" horiz-adv-x="1046" 
d="M369 1370h-158v191h158v-191zM817 1370h-160v191h160v-191zM319 -451l152 451h-76l-360 1118h176l242 -799l63 -200l66 196l274 803h166l-547 -1569h-156z" />
    <glyph glyph-name="Amacron" unicode="&#x100;" horiz-adv-x="1374" 
d="M0 0l594 1448h219l526 -1448h-182l-192 541h-572l-215 -541h-178zM444 676h476l-226 653zM424 1608v133h547v-133h-547z" />
    <glyph glyph-name="amacron" unicode="&#x101;" horiz-adv-x="1130" 
d="M422 -18q-155 0 -244.5 82.5t-89.5 232.5q0 80 27.5 141.5t70 97.5t102 59.5t113.5 32t115 9.5l266 4v143q0 128 -60.5 175t-199.5 47q-156 0 -303 -56l-37 127q163 70 363 70q395 0 395 -309v-619q0 -30 11 -51t30 -31.5t38.5 -15t41.5 -4.5l-6 -125q-20 -4 -45 -4
q-81 0 -143 35.5t-72 105.5q-37 -29 -58 -43.5t-73.5 -44t-113.5 -44.5t-128 -15zM459 113q151 0 323 125v290l-268 -10q-130 -4 -200 -60t-70 -155q0 -93 59 -141.5t156 -48.5zM303 1370v133h547v-133h-547z" />
    <glyph glyph-name="Abreve" unicode="&#x102;" horiz-adv-x="1374" 
d="M0 0l594 1448h219l526 -1448h-182l-192 541h-572l-215 -541h-178zM444 676h476l-226 653zM692 1542q-109 0 -187.5 51t-119.5 123l90 80q95 -123 223 -123q143 0 222 121l84 -74q-39 -70 -117.5 -124t-194.5 -54z" />
    <glyph glyph-name="abreve" unicode="&#x103;" horiz-adv-x="1130" 
d="M422 -18q-155 0 -244.5 82.5t-89.5 232.5q0 80 27.5 141.5t70 97.5t102 59.5t113.5 32t115 9.5l266 4v143q0 128 -60.5 175t-199.5 47q-156 0 -303 -56l-37 127q163 70 363 70q395 0 395 -309v-619q0 -30 11 -51t30 -31.5t38.5 -15t41.5 -4.5l-6 -125q-20 -4 -45 -4
q-81 0 -143 35.5t-72 105.5q-37 -29 -58 -43.5t-73.5 -44t-113.5 -44.5t-128 -15zM459 113q151 0 323 125v290l-268 -10q-130 -4 -200 -60t-70 -155q0 -93 59 -141.5t156 -48.5zM575 1321q-111 0 -189.5 51t-117.5 123l90 78q96 -121 224 -121q140 0 221 119l84 -72
q-18 -31 -44 -59.5t-63.5 -56.5t-91 -45t-113.5 -17z" />
    <glyph glyph-name="Aogonek" unicode="&#x104;" horiz-adv-x="1372" 
d="M1378 -430q-20 -11 -33 -16.5t-48.5 -11t-86.5 -5.5q-245 0 -245 209q0 121 188 266l-188 529h-572l-215 -541h-178l594 1448h219l526 -1448q-49 -30 -92 -62.5t-84 -81.5t-41 -89q0 -56 32.5 -76.5t94.5 -20.5q54 0 94 17zM920 676l-132 373l-94 280l-108 -287
l-142 -366h476z" />
    <glyph glyph-name="aogonek" unicode="&#x105;" horiz-adv-x="1120" 
d="M1083 -430q-67 -37 -168 -37q-239 0 -239 213q0 131 201 266q-33 15 -56 48t-26 69q-6 -4 -37.5 -28t-59 -40.5t-71 -37.5t-99.5 -32t-118 -11q-147 0 -234.5 84t-87.5 235q0 78 27.5 139t70 97.5t101.5 60t114 32t115 9.5l266 6v148q0 66 -16 108.5t-53 66t-87.5 32
t-129.5 8.5q-96 0 -277 -54l-35 127q173 68 359 68q89 0 157.5 -14.5t124.5 -48t85.5 -94t29.5 -146.5v-621q0 -98 104 -108l-10 -117q-38 -28 -63 -49t-63.5 -57t-59.5 -70.5t-21 -63.5q0 -50 33.5 -72t85.5 -22q60 0 101 23zM782 238v290l-268 -10q-133 -6 -200.5 -61.5
t-67.5 -141.5q0 -200 203 -200q95 0 182.5 36.5t150.5 86.5z" />
    <glyph glyph-name="Cacute" unicode="&#x106;" horiz-adv-x="1386" 
d="M874 -25q-176 0 -318.5 55t-237 153t-145 234t-50.5 298q0 342 198.5 547.5t544.5 205.5q248 0 420 -82l-51 -135q-67 24 -107 36t-110 23t-148 11q-93 0 -176 -20t-156.5 -65t-126.5 -112t-83.5 -166.5t-30.5 -222.5q0 -126 31.5 -228.5t87 -172.5t133.5 -117t167 -68.5
t191 -21.5q195 0 340 53l41 -135q-89 -33 -181.5 -51.5t-232.5 -18.5zM672 1530l-33 106l448 172l43 -137z" />
    <glyph glyph-name="cacute" unicode="&#x107;" horiz-adv-x="1017" 
d="M469 1266l-57 100l385 262l71 -115zM666 -25q-284 0 -420.5 138t-136.5 424q0 296 140.5 453t389.5 157q176 0 297 -68l-49 -129q-140 56 -248 56q-177 0 -271 -115.5t-94 -345.5q0 -216 93.5 -323t314.5 -107q46 0 91 6t64.5 11t71.5 18l25 -132q-127 -43 -268 -43z" />
    <glyph glyph-name="Ccircumflex" unicode="&#x108;" horiz-adv-x="1386" 
d="M874 -25q-176 0 -318.5 55t-237 153t-145 234t-50.5 298q0 342 198.5 547.5t544.5 205.5q248 0 420 -82l-51 -135q-67 24 -107 36t-110 23t-148 11q-93 0 -176 -20t-156.5 -65t-126.5 -112t-83.5 -166.5t-30.5 -222.5q0 -126 31.5 -228.5t87 -172.5t133.5 -117t167 -68.5
t191 -21.5q195 0 340 53l41 -135q-89 -33 -181.5 -51.5t-232.5 -18.5zM610 1536l-57 111l321 155l312 -151l-60 -113l-252 117z" />
    <glyph glyph-name="ccircumflex" unicode="&#x109;" horiz-adv-x="1017" 
d="M858 1288l-246 170l-264 -172l-69 94l339 232l312 -228zM666 -25q-284 0 -420.5 138t-136.5 424q0 296 140.5 453t389.5 157q176 0 297 -68l-49 -129q-140 56 -248 56q-177 0 -271 -115.5t-94 -345.5q0 -216 93.5 -323t314.5 -107q46 0 91 6t64.5 11t71.5 18l25 -132
q-127 -43 -268 -43z" />
    <glyph glyph-name="Cdotaccent" unicode="&#x10a;" horiz-adv-x="1386" 
d="M940 1593h-158v191h158v-191zM874 -25q-176 0 -318.5 55t-237 153t-145 234t-50.5 298q0 342 198.5 547.5t544.5 205.5q248 0 420 -82l-51 -135q-67 24 -107 36t-110 23t-148 11q-93 0 -176 -20t-156.5 -65t-126.5 -112t-83.5 -166.5t-30.5 -222.5q0 -126 31.5 -228.5
t87 -172.5t133.5 -117t167 -68.5t191 -21.5q195 0 340 53l41 -135q-89 -33 -181.5 -51.5t-232.5 -18.5z" />
    <glyph glyph-name="cdotaccent" unicode="&#x10b;" horiz-adv-x="1017" 
d="M666 -25q-284 0 -420.5 138t-136.5 424q0 296 140.5 453t389.5 157q176 0 297 -68l-49 -129q-140 56 -248 56q-177 0 -271 -115.5t-94 -345.5q0 -216 93.5 -323t314.5 -107q46 0 91 6t64.5 11t71.5 18l25 -132q-127 -43 -268 -43zM709 1370h-158v191h158v-191z" />
    <glyph glyph-name="Ccaron" unicode="&#x10c;" horiz-adv-x="1386" 
d="M1188 1679l-326 -151l-317 151l55 115l262 -119l268 117zM874 -25q-176 0 -318.5 55t-237 153t-145 234t-50.5 298q0 342 198.5 547.5t544.5 205.5q248 0 420 -82l-51 -135q-67 24 -107 36t-110 23t-148 11q-93 0 -176 -20t-156.5 -65t-126.5 -112t-83.5 -166.5
t-30.5 -222.5q0 -126 31.5 -228.5t87 -172.5t133.5 -117t167 -68.5t191 -21.5q195 0 340 53l41 -135q-89 -33 -181.5 -51.5t-232.5 -18.5z" />
    <glyph glyph-name="ccaron" unicode="&#x10d;" horiz-adv-x="1017" 
d="M598 1278l-330 227l66 97l266 -175l270 177l66 -97zM666 -25q-284 0 -420.5 138t-136.5 424q0 296 140.5 453t389.5 157q176 0 297 -68l-49 -129q-140 56 -248 56q-177 0 -271 -115.5t-94 -345.5q0 -216 93.5 -323t314.5 -107q46 0 91 6t64.5 11t71.5 18l25 -132
q-127 -43 -268 -43z" />
    <glyph glyph-name="Dcaron" unicode="&#x10e;" horiz-adv-x="1544" 
d="M983 1679l-326 -151l-317 151l55 115l262 -119l269 117zM217 0v1448h391q142 0 263.5 -26.5t223 -83t172.5 -140t110.5 -203t39.5 -266.5q0 -187 -56 -327.5t-161.5 -228t-250 -130.5t-328.5 -43h-404zM385 139h258q286 0 443 144.5t157 423.5q0 151 -45.5 266.5
t-130.5 188.5t-202 110t-263 37h-217v-1170z" />
    <glyph glyph-name="dcaron" unicode="&#x10f;" horiz-adv-x="1282" 
d="M1335 1544l-82 -416h-118l43 416h157zM557 -20q-59 0 -115 12.5t-118.5 50t-108 96.5t-76 161t-30.5 235q0 156 41 274.5t115.5 191.5t174.5 109.5t224 36.5q89 0 196 -29v426h162v-1544h-162v106q-69 -62 -137.5 -94t-165.5 -32zM578 117q140 0 282 125v737
q-90 35 -207 35q-85 0 -152 -26t-109 -69.5t-70 -105t-39 -127t-11 -141.5q0 -212 85 -320t221 -108z" />
    <glyph glyph-name="Dcroat" unicode="&#x110;" horiz-adv-x="1599" 
d="M109 655v129h161v664h392q178 0 323.5 -43t255 -128.5t169.5 -225t60 -322.5q0 -187 -56 -327.5t-161.5 -228t-250 -130.5t-328.5 -43h-404v655h-161zM438 139h258q286 0 443 144.5t157 423.5q0 151 -45.5 266.5t-130.5 188.5t-202 110t-263 37h-217v-525h344v-129h-344
v-516z" />
    <glyph glyph-name="dcroat" unicode="&#x111;" horiz-adv-x="1193" 
d="M563 1274v104h297v166h162v-166h154v-104h-154v-1274h-162v106q-132 -124 -285 -124q-466 0 -466 573q0 143 42 257t115 186.5t168 110.5t205 38q77 0 119 -5.5t102 -23.5v156h-297zM590 119q112 0 270 123v737q-112 35 -221 35q-97 0 -170 -39t-114.5 -106t-62 -147.5
t-20.5 -172.5q0 -217 85 -323.5t233 -106.5z" />
    <glyph glyph-name="Emacron" unicode="&#x112;" horiz-adv-x="1191" 
d="M344 1608v133h547v-133h-547zM217 0v1448h811v-137h-643v-514h598v-140h-598v-518h690v-139h-858z" />
    <glyph glyph-name="emacron" unicode="&#x113;" horiz-adv-x="1118" 
d="M307 1370v133h547v-133h-547zM641 -25q-127 0 -221 28.5t-165.5 92.5t-107.5 174t-36 267q0 159 37.5 278.5t104.5 190.5t153.5 106t191.5 35q212 0 313 -138.5t101 -420.5v-60h-738q1 -125 32 -209.5t88 -127.5t121.5 -59.5t152.5 -16.5q136 0 297 51l28 -131
q-144 -60 -352 -60zM276 649h568q0 176 -64.5 273.5t-197.5 97.5q-126 0 -209.5 -95t-96.5 -276z" />
    <glyph glyph-name="Ebreve" unicode="&#x114;" horiz-adv-x="1191" 
d="M618 1542q-109 0 -187.5 51t-119.5 123l90 80q95 -123 224 -123q142 0 221 121l84 -74q-39 -70 -117.5 -124t-194.5 -54zM217 0v1448h811v-137h-643v-514h598v-140h-598v-518h690v-139h-858z" />
    <glyph glyph-name="ebreve" unicode="&#x115;" horiz-adv-x="1118" 
d="M641 -25q-127 0 -221 28.5t-165.5 92.5t-107.5 174t-36 267q0 159 37.5 278.5t104.5 190.5t153.5 106t191.5 35q212 0 313 -138.5t101 -420.5v-60h-738q1 -125 32 -209.5t88 -127.5t121.5 -59.5t152.5 -16.5q136 0 297 51l28 -131q-144 -60 -352 -60zM276 649h568
q0 176 -64.5 273.5t-197.5 97.5q-126 0 -209.5 -95t-96.5 -276zM590 1321q-111 0 -189.5 51t-117.5 123l90 78q96 -121 223 -121q140 0 221 119l84 -72q-41 -71 -119 -124.5t-192 -53.5z" />
    <glyph glyph-name="Edotaccent" unicode="&#x116;" horiz-adv-x="1191" 
d="M723 1593h-158v191h158v-191zM217 0v1448h811v-137h-643v-514h598v-140h-598v-518h690v-139h-858z" />
    <glyph glyph-name="edotaccent" unicode="&#x117;" horiz-adv-x="1118" 
d="M641 -25q-127 0 -221 28.5t-165.5 92.5t-107.5 174t-36 267q0 159 37.5 278.5t104.5 190.5t153.5 106t191.5 35q212 0 313 -138.5t101 -420.5v-60h-738q1 -125 32 -209.5t88 -127.5t121.5 -59.5t152.5 -16.5q136 0 297 51l28 -131q-144 -60 -352 -60zM276 649h568
q0 176 -64.5 273.5t-197.5 97.5q-126 0 -209.5 -95t-96.5 -276zM674 1370h-158v191h158v-191z" />
    <glyph glyph-name="Eogonek" unicode="&#x118;" horiz-adv-x="1191" 
d="M1110 -430q-80 -43 -168 -43q-115 0 -173 60.5t-58 150.5q0 75 52 144t126 118h-672v1448h811v-137h-643v-514h598v-140h-598v-518h690v-139q-77 -44 -147 -112.5t-70 -125.5q0 -51 35.5 -73.5t85.5 -22.5q39 0 96 21z" />
    <glyph glyph-name="eogonek" unicode="&#x119;" horiz-adv-x="1122" 
d="M825 -463q-239 0 -239 211q0 120 151 238q-70 -4 -108 -4q-123 0 -215 28.5t-161 92t-104.5 173t-35.5 263.5q0 165 37.5 285t106.5 188.5t156.5 100.5t198.5 32q204 0 303 -138.5t99 -418.5v-60h-740q2 -104 24 -179t57 -119t90.5 -69.5t111.5 -33.5t133 -8q53 0 138 14
t137 27l28 -131q-252 -153 -252 -260q0 -56 33.5 -78.5t95.5 -22.5q58 0 91 19l36 -117q-60 -33 -172 -33zM276 649h568q2 175 -62.5 275t-193.5 100q-130 0 -213.5 -96t-98.5 -279z" />
    <glyph glyph-name="Ecaron" unicode="&#x11a;" horiz-adv-x="1191" 
d="M932 1679l-326 -151l-317 151l55 115l262 -119l268 117zM217 0v1448h811v-137h-643v-514h598v-140h-598v-518h690v-139h-858z" />
    <glyph glyph-name="ecaron" unicode="&#x11b;" horiz-adv-x="1118" 
d="M586 1278l-330 227l66 97l266 -175l270 177l66 -97zM641 -25q-127 0 -221 28.5t-165.5 92.5t-107.5 174t-36 267q0 159 37.5 278.5t104.5 190.5t153.5 106t191.5 35q212 0 313 -138.5t101 -420.5v-60h-738q1 -125 32 -209.5t88 -127.5t121.5 -59.5t152.5 -16.5
q136 0 297 51l28 -131q-144 -60 -352 -60zM276 649h568q0 176 -64.5 273.5t-197.5 97.5q-126 0 -209.5 -95t-96.5 -276z" />
    <glyph glyph-name="Gcircumflex" unicode="&#x11c;" horiz-adv-x="1456" 
d="M623 1536l-58 111l322 155l311 -151l-59 -113l-252 117zM885 -25q-356 0 -559 199t-203 541q0 347 195 550t546 203q151 0 244 -20t174 -57l-47 -138q-61 22 -99.5 33.5t-112 23t-155.5 11.5q-117 0 -216.5 -33t-180 -101t-126.5 -183.5t-46 -268.5q0 -157 48 -276.5
t133 -191t192.5 -107t234.5 -35.5q131 0 234 31v557h168v-666q-209 -72 -424 -72z" />
    <glyph glyph-name="gcircumflex" unicode="&#x11d;" horiz-adv-x="1200" 
d="M543 399q-117 0 -201 37q-41 -60 -41 -112q0 -38 23 -62t59 -24h254q214 0 317 -79.5t103 -211.5q0 -79 -38 -153.5t-107 -133.5t-177.5 -95t-238.5 -36q-205 0 -315.5 84t-110.5 225q0 175 166 297q-72 48 -72 144q0 114 94 204q-129 98 -129 277q0 78 26 146t76 122
t131.5 85.5t184.5 31.5q73 0 137 -17t89 -31t42 -28l318 6v-135h-203q41 -66 41 -172q0 -166 -120.5 -267.5t-307.5 -101.5zM629 98h-254q-27 0 -37 2q-127 -100 -127 -225q0 -100 80 -156.5t227 -56.5q175 0 281 80.5t106 187.5q0 74 -63.5 121t-212.5 47zM547 516
q121 0 193.5 69t72.5 185q0 112 -71 186t-193 74t-193 -71t-71 -189q0 -120 72.5 -187t189.5 -67zM797 1288l-246 170l-264 -172l-70 94l340 232l311 -228z" />
    <glyph glyph-name="Gbreve" unicode="&#x11e;" horiz-adv-x="1456" 
d="M846 1542q-109 0 -187.5 51t-119.5 123l90 80q95 -123 223 -123q142 0 221 121l84 -74q-39 -70 -117 -124t-194 -54zM885 -25q-356 0 -559 199t-203 541q0 347 195 550t546 203q151 0 244 -20t174 -57l-47 -138q-61 22 -99.5 33.5t-112 23t-155.5 11.5q-117 0 -216.5 -33
t-180 -101t-126.5 -183.5t-46 -268.5q0 -157 48 -276.5t133 -191t192.5 -107t234.5 -35.5q131 0 234 31v557h168v-666q-209 -72 -424 -72z" />
    <glyph glyph-name="gbreve" unicode="&#x11f;" horiz-adv-x="1200" 
d="M543 399q-117 0 -201 37q-41 -60 -41 -112q0 -38 23 -62t59 -24h254q214 0 317 -79.5t103 -211.5q0 -79 -38 -153.5t-107 -133.5t-177.5 -95t-238.5 -36q-205 0 -315.5 84t-110.5 225q0 175 166 297q-72 48 -72 144q0 114 94 204q-129 98 -129 277q0 78 26 146t76 122
t131.5 85.5t184.5 31.5q73 0 137 -17t89 -31t42 -28l318 6v-135h-203q41 -66 41 -172q0 -166 -120.5 -267.5t-307.5 -101.5zM629 98h-254q-27 0 -37 2q-127 -100 -127 -225q0 -100 80 -156.5t227 -56.5q175 0 281 80.5t106 187.5q0 74 -63.5 121t-212.5 47zM547 516
q121 0 193.5 69t72.5 185q0 112 -71 186t-193 74t-193 -71t-71 -189q0 -120 72.5 -187t189.5 -67zM555 1321q-111 0 -189.5 51t-117.5 123l90 78q96 -121 223 -121q140 0 221 119l84 -72q-41 -71 -119 -124.5t-192 -53.5z" />
    <glyph glyph-name="Gdotaccent" unicode="&#x120;" horiz-adv-x="1456" 
d="M952 1593h-157v191h157v-191zM885 -25q-356 0 -559 199t-203 541q0 347 195 550t546 203q151 0 244 -20t174 -57l-47 -138q-61 22 -99.5 33.5t-112 23t-155.5 11.5q-117 0 -216.5 -33t-180 -101t-126.5 -183.5t-46 -268.5q0 -157 48 -276.5t133 -191t192.5 -107
t234.5 -35.5q131 0 234 31v557h168v-666q-209 -72 -424 -72z" />
    <glyph glyph-name="gdotaccent" unicode="&#x121;" horiz-adv-x="1200" 
d="M543 399q-117 0 -201 37q-41 -60 -41 -112q0 -38 23 -62t59 -24h254q214 0 317 -79.5t103 -211.5q0 -79 -38 -153.5t-107 -133.5t-177.5 -95t-238.5 -36q-205 0 -315.5 84t-110.5 225q0 175 166 297q-72 48 -72 144q0 114 94 204q-129 98 -129 277q0 78 26 146t76 122
t131.5 85.5t184.5 31.5q73 0 137 -17t89 -31t42 -28l318 6v-135h-203q41 -66 41 -172q0 -166 -120.5 -267.5t-307.5 -101.5zM629 98h-254q-27 0 -37 2q-127 -100 -127 -225q0 -100 80 -156.5t227 -56.5q175 0 281 80.5t106 187.5q0 74 -63.5 121t-212.5 47zM547 516
q121 0 193.5 69t72.5 185q0 112 -71 186t-193 74t-193 -71t-71 -189q0 -120 72.5 -187t189.5 -67zM623 1370h-158v191h158v-191z" />
    <glyph glyph-name="Gcommaaccent" unicode="&#x122;" horiz-adv-x="1456" 
d="M952 -119l-80 -416h-120l43 416h157zM885 -25q-356 0 -559 199t-203 541q0 347 195 550t546 203q151 0 244 -20t174 -57l-47 -138q-61 22 -99.5 33.5t-112 23t-155.5 11.5q-117 0 -216.5 -33t-180 -101t-126.5 -183.5t-46 -268.5q0 -157 48 -276.5t133 -191t192.5 -107
t234.5 -35.5q131 0 234 31v557h168v-666q-209 -72 -424 -72z" />
    <glyph glyph-name="gcommaaccent" unicode="&#x123;" horiz-adv-x="1200" 
d="M543 399q-117 0 -201 37q-41 -60 -41 -112q0 -38 23 -62t59 -24h254q214 0 317 -79.5t103 -211.5q0 -79 -38 -153.5t-107 -133.5t-177.5 -95t-238.5 -36q-205 0 -315.5 84t-110.5 225q0 175 166 297q-72 48 -72 144q0 114 94 204q-129 98 -129 277q0 78 26 146t76 122
t131.5 85.5t184.5 31.5q73 0 137 -17t89 -31t42 -28l318 6v-135h-203q41 -66 41 -172q0 -166 -120.5 -267.5t-307.5 -101.5zM629 98h-254q-27 0 -37 2q-127 -100 -127 -225q0 -100 80 -156.5t227 -56.5q175 0 281 80.5t106 187.5q0 74 -63.5 121t-212.5 47zM547 516
q121 0 193.5 69t72.5 185q0 112 -71 186t-193 74t-193 -71t-71 -189q0 -120 72.5 -187t189.5 -67zM455 1243l86 406h127l-47 -406h-166z" />
    <glyph glyph-name="Hcircumflex" unicode="&#x124;" horiz-adv-x="1564" 
d="M217 0v1448h168v-651h795v651h168v-1448h-168v657h-795v-657h-168zM512 1536l-57 111l321 155l311 -151l-59 -113l-252 117z" />
    <glyph glyph-name="hcircumflex" unicode="&#x125;" horiz-adv-x="1230" 
d="M172 0v1544h162v-555q44 33 78 54.5t86 48t111 40t122 13.5q66 0 119 -14.5t88 -36.5t60 -58t38.5 -69.5t21 -80.5t9.5 -82.5t2 -82.5v-721h-156v688q0 79 -8.5 132t-31 96.5t-67 64t-112.5 20.5q-51 0 -100.5 -11.5t-99.5 -35.5t-80.5 -41.5t-79.5 -48.5v-864h-162z
M-2 1546l-57 111l321 155l311 -151l-59 -113l-252 117z" />
    <glyph glyph-name="Hbar" unicode="&#x126;" horiz-adv-x="1644" 
d="M92 1049v112h166v287h168v-287h795v287h168v-287h163v-112h-163v-1049h-168v657h-795v-657h-168v1049h-166zM426 797h795v252h-795v-252z" />
    <glyph glyph-name="hbar" unicode="&#x127;" horiz-adv-x="1230" 
d="M172 0v1274h-139v104h139v166h162v-166h309v-104h-309v-283q37 26 55.5 38.5t64.5 39t82 40.5t87.5 26t101.5 12q68 0 122 -14t89.5 -36t61.5 -57.5t39.5 -69t21 -81.5t9 -83t1.5 -85v-721h-156v690q0 65 -4.5 108.5t-18 85.5t-38.5 66.5t-67.5 39t-102.5 14.5
q-21 0 -44 -3.5t-47 -11t-45.5 -15t-46 -19t-42 -20t-40.5 -21.5t-33.5 -19t-29 -17t-20.5 -12v-866h-162z" />
    <glyph glyph-name="Itilde" unicode="&#x128;" horiz-adv-x="602" 
d="M217 0v1448h168v-1448h-168zM438 1544q-43 0 -125 38t-120 38q-76 0 -142 -49l-63 92q37 35 92.5 64.5t112.5 29.5q56 0 135 -38t110 -38q48 0 74 12.5t57 41.5l64 -90q-76 -101 -195 -101z" />
    <glyph glyph-name="itilde" unicode="&#x129;" horiz-adv-x="509" 
d="M172 0v1118h164v-1118h-164zM377 1321q-49 0 -130 38t-124 38q-46 0 -75 -11t-66 -40l-64 94q92 92 215 92q46 0 92 -19t86.5 -38t73.5 -19q32 0 64 12t44 20t35 25l64 -90q-89 -102 -215 -102z" />
    <glyph glyph-name="Imacron" unicode="&#x12a;" horiz-adv-x="602" 
d="M217 0v1448h168v-1448h-168zM20 1608v133h547v-133h-547z" />
    <glyph glyph-name="imacron" unicode="&#x12b;" horiz-adv-x="509" 
d="M172 0v1118h164v-1118h-164zM-16 1370v133h546v-133h-546z" />
    <glyph glyph-name="Ibreve" unicode="&#x12c;" horiz-adv-x="602" 
d="M217 0v1448h168v-1448h-168zM295 1542q-109 0 -187.5 51t-119.5 123l90 80q95 -123 223 -123q142 0 221 121l84 -74q-39 -70 -117 -124t-194 -54z" />
    <glyph glyph-name="ibreve" unicode="&#x12d;" horiz-adv-x="509" 
d="M172 0v1118h164v-1118h-164zM258 1321q-111 0 -189.5 51t-117.5 123l90 78q96 -121 223 -121q140 0 221 119l84 -72q-41 -71 -119 -124.5t-192 -53.5z" />
    <glyph glyph-name="Iogonek" unicode="&#x12e;" horiz-adv-x="602" 
d="M432 -430q-67 -37 -166 -37q-243 0 -243 219q0 131 194 260v1436h168v-1448q-209 -125 -209 -229q0 -56 34 -81.5t85 -25.5q43 0 100 23z" />
    <glyph glyph-name="iogonek" unicode="&#x12f;" horiz-adv-x="509" 
d="M215 -467q-242 0 -242 219q0 74 58 142.5t141 121.5v1102h164v-1118q-87 -52 -151 -117.5t-64 -124.5q0 -50 34.5 -73t84.5 -23q54 0 106 25l37 -117q-67 -37 -168 -37zM332 1370h-158v191h158v-191z" />
    <glyph glyph-name="Idotaccent" unicode="&#x130;" horiz-adv-x="602" 
d="M379 1593h-158v191h158v-191zM217 0v1448h168v-1448h-168z" />
    <glyph glyph-name="dotlessi" unicode="&#x131;" horiz-adv-x="509" 
d="M172 0v1118h164v-1118h-164z" />
    <glyph glyph-name="IJ" unicode="&#x132;" horiz-adv-x="1196" 
d="M217 0v1448h168v-1448h-168zM586 -383l-72 123q92 51 151 108t90.5 129t43.5 148.5t12 183.5v1139h170v-1135q0 -84 -6 -149.5t-21 -134.5t-43 -124.5t-71 -108t-106.5 -97.5t-147.5 -82z" />
    <glyph glyph-name="ij" unicode="&#x133;" horiz-adv-x="1069" 
d="M518 -459q-78 0 -143 25l28 131q58 -16 117 -16q118 0 164.5 72t46.5 210v1155h164v-1157q0 -119 -28.5 -203.5t-81.5 -130.5t-118 -66t-149 -20zM172 0v1118h164v-1118h-164zM334 1370h-158v191h158v-191zM893 1370h-158v191h158v-191z" />
    <glyph glyph-name="Jcircumflex" unicode="&#x134;" horiz-adv-x="604" 
d="M-4 -383l-72 123q92 51 151 108t90.5 129t43.5 148.5t12 183.5v1139h170v-1135q0 -84 -6 -149.5t-21 -134.5t-43 -124.5t-71 -108t-106.5 -97.5t-147.5 -82zM49 1536l-57 111l321 155l312 -151l-60 -113l-252 117z" />
    <glyph glyph-name="jcircumflex" unicode="&#x135;" horiz-adv-x="509" 
d="M496 1288l-246 170l-264 -172l-70 94l340 232l311 -228zM-41 -459q-78 0 -143 25l28 131q58 -16 117 -16q118 0 164.5 72t46.5 210v1155h164v-1157q0 -119 -28.5 -203.5t-81.5 -130.5t-118 -66t-149 -20z" />
    <glyph glyph-name="Kcommaaccent" unicode="&#x136;" horiz-adv-x="1286" 
d="M758 -119l-80 -416h-121l43 416h158zM1044 0l-606 758v30l574 660h213l-600 -670l641 -778h-222zM217 0v1448h168v-1448h-168z" />
    <glyph glyph-name="kcommaaccent" unicode="&#x137;" horiz-adv-x="1099" 
d="M666 -119l-80 -416h-121l43 416h158zM840 0l-461 592l471 526h186l-475 -522l479 -596h-200zM172 0v1544h162v-1544h-162z" />
    <glyph glyph-name="uni0138" unicode="&#x138;" horiz-adv-x="1099" 
d="M1087 0h-200l-498 582l447 536h186l-457 -526zM172 0v1118h162v-1118h-162z" />
    <glyph glyph-name="Lacute" unicode="&#x139;" horiz-adv-x="1030" 
d="M221 1530l-33 106l449 172l43 -137zM217 0v1448h168v-1303h629v-145h-797z" />
    <glyph glyph-name="lacute" unicode="&#x13a;" horiz-adv-x="505" 
d="M180 1606l-33 106l449 172l43 -137zM172 0v1544h162v-1544h-162z" />
    <glyph glyph-name="Lcommaaccent" unicode="&#x13b;" horiz-adv-x="1030" 
d="M707 -119l-80 -416h-121l43 416h158zM217 0v1448h168v-1303h629v-145h-797z" />
    <glyph glyph-name="lcommaaccent" unicode="&#x13c;" horiz-adv-x="505" 
d="M336 -119l-80 -416h-121l43 416h158zM172 0v1544h162v-1544h-162z" />
    <glyph glyph-name="Lcaron" unicode="&#x13d;" horiz-adv-x="1030" 
d="M784 1561l-79 -416h-121l43 416h157zM217 0v1448h168v-1303h629v-145h-797z" />
    <glyph glyph-name="lcaron" unicode="&#x13e;" horiz-adv-x="595" 
d="M653 1544l-82 -416h-118l43 416h157zM172 0v1544h162v-1544h-162z" />
    <glyph glyph-name="Ldot" unicode="&#x13f;" horiz-adv-x="1030" 
d="M694 668v192h195v-192h-195zM217 0v1448h168v-1303h629v-145h-797z" />
    <glyph glyph-name="ldot" unicode="&#x140;" horiz-adv-x="708" 
d="M463 637v192h194v-192h-194zM172 0v1544h162v-1544h-162z" />
    <glyph glyph-name="Lslash" unicode="&#x141;" horiz-adv-x="1073" 
d="M106 547l-2 127l156 90v684h168v-588l266 156v-133l-266 -152v-586h629v-145h-797v635z" />
    <glyph glyph-name="lslash" unicode="&#x142;" horiz-adv-x="632" 
d="M221 0v678l-164 -94v131l164 94v735h162v-643l182 105v-132l-182 -104v-770h-162z" />
    <glyph glyph-name="Nacute" unicode="&#x143;" horiz-adv-x="1576" 
d="M651 1530l-33 106l449 172l43 -137zM217 0v1448h215l762 -1258h4l-8 183v1075h170v-1448h-225l-752 1239h-6l8 -149v-1090h-168z" />
    <glyph glyph-name="nacute" unicode="&#x144;" horiz-adv-x="1232" 
d="M514 1266l-57 100l385 262l71 -115zM172 0v1118h162v-127q70 52 118.5 81t123.5 52t157 23q66 0 118.5 -14.5t87.5 -36.5t60 -58t39 -70t21.5 -81t9.5 -83t2 -83v-721h-158v690q0 79 -8 131.5t-31 96.5t-68 65t-114 21q-97 0 -181.5 -37t-176.5 -101v-866h-162z" />
    <glyph glyph-name="Ncommaaccent" unicode="&#x145;" horiz-adv-x="1576" 
d="M879 -119l-80 -416h-121l43 416h158zM217 0v1448h215l762 -1258h4l-8 183v1075h170v-1448h-225l-752 1239h-6l8 -149v-1090h-168z" />
    <glyph glyph-name="ncommaaccent" unicode="&#x146;" horiz-adv-x="1232" 
d="M725 -119l-80 -416h-121l43 416h158zM172 0v1118h162v-127q70 52 118.5 81t123.5 52t157 23q66 0 118.5 -14.5t87.5 -36.5t60 -58t39 -70t21.5 -81t9.5 -83t2 -83v-721h-158v690q0 79 -8 131.5t-31 96.5t-68 65t-114 21q-97 0 -181.5 -37t-176.5 -101v-866h-162z" />
    <glyph glyph-name="Ncaron" unicode="&#x147;" horiz-adv-x="1576" 
d="M1104 1679l-326 -151l-317 151l55 115l262 -119l269 117zM217 0v1448h215l762 -1258h4l-8 183v1075h170v-1448h-225l-752 1239h-6l8 -149v-1090h-168z" />
    <glyph glyph-name="ncaron" unicode="&#x148;" horiz-adv-x="1232" 
d="M610 1278l-329 227l65 97l266 -175l271 177l65 -97zM172 0v1118h162v-127q70 52 118.5 81t123.5 52t157 23q66 0 118.5 -14.5t87.5 -36.5t60 -58t39 -70t21.5 -81t9.5 -83t2 -83v-721h-158v690q0 79 -8 131.5t-31 96.5t-68 65t-114 21q-97 0 -181.5 -37t-176.5 -101v-866
h-162z" />
    <glyph glyph-name="napostrophe" unicode="&#x149;" horiz-adv-x="1275" 
d="M-49 1135q23 50 40 122t17 129v160h154v-82q0 -193 -82 -329h-129zM213 0v1118h162v-127q70 52 118.5 81t123.5 52t157 23q66 0 118.5 -14.5t87.5 -36.5t60 -58t39 -70t21.5 -81t9.5 -83t2 -83v-721h-158v690q0 79 -8 131.5t-31 96.5t-68 65t-114 21q-97 0 -181.5 -37
t-176.5 -101v-866h-162z" />
    <glyph glyph-name="Eng" unicode="&#x14a;" horiz-adv-x="1579" 
d="M987 -451q-72 0 -143 23l26 131q63 -14 119 -14q116 0 164.5 70t48.5 200v41h-102l-723 1286l8 -149v-1137h-168v1448h242l739 -1305l-8 181v1124h172v-1483q0 -95 -19.5 -168t-52 -119.5t-81.5 -76t-102.5 -41t-119.5 -11.5z" />
    <glyph glyph-name="eng" unicode="&#x14b;" horiz-adv-x="1232" 
d="M1071 -33q0 -119 -28 -203t-81 -129.5t-117.5 -65.5t-148.5 -20q-72 0 -143 23l27 131q63 -14 118 -14q118 0 166.5 72t48.5 208v719q0 82 -7.5 133.5t-31 95.5t-70.5 64t-122 20q-144 0 -348 -135v-866h-162v1118h162v-127q44 31 73 49t83.5 47t114 43.5t120.5 14.5
q68 0 122 -14t90 -35.5t62 -57t39.5 -69t21 -81t9.5 -83t2 -84.5v-754z" />
    <glyph glyph-name="Omacron" unicode="&#x14c;" horiz-adv-x="1695" 
d="M571 1608v133h547v-133h-547zM831 -25q-221 0 -382.5 96t-243.5 265t-82 391q0 339 201.5 540t535.5 201q171 0 307.5 -57t224.5 -157.5t134.5 -236t46.5 -294.5q0 -221 -88 -389.5t-257 -263.5t-397 -95zM838 115q141 0 250 46.5t177.5 130t103 193t34.5 240.5
q0 174 -63 309t-189 215t-299 80q-137 0 -244.5 -45.5t-176 -127t-104.5 -190t-36 -237.5q0 -100 21.5 -190.5t66 -168t108.5 -134.5t154 -89t197 -32z" />
    <glyph glyph-name="omacron" unicode="&#x14d;" horiz-adv-x="1224" 
d="M334 1370v133h547v-133h-547zM606 -25q-232 0 -364.5 149.5t-132.5 422.5q0 285 141 442.5t379 157.5q236 0 361.5 -151.5t125.5 -430.5q0 -148 -38 -262t-107 -185t-161 -107t-204 -36zM616 109q78 0 138 26t97 67.5t60.5 101t32 120.5t8.5 131q0 69 -8.5 129.5
t-31.5 122.5t-59 106.5t-97 72.5t-140 28t-140.5 -27.5t-99 -72t-62 -106.5t-33.5 -123.5t-9 -129.5q0 -72 10.5 -134.5t35.5 -121t63.5 -100t98.5 -66t136 -24.5z" />
    <glyph glyph-name="Obreve" unicode="&#x14e;" horiz-adv-x="1695" 
d="M846 1542q-109 0 -187.5 51t-119.5 123l90 80q95 -123 223 -123q142 0 221 121l84 -74q-39 -70 -117 -124t-194 -54zM831 -25q-221 0 -382.5 96t-243.5 265t-82 391q0 339 201.5 540t535.5 201q171 0 307.5 -57t224.5 -157.5t134.5 -236t46.5 -294.5q0 -221 -88 -389.5
t-257 -263.5t-397 -95zM838 115q141 0 250 46.5t177.5 130t103 193t34.5 240.5q0 174 -63 309t-189 215t-299 80q-137 0 -244.5 -45.5t-176 -127t-104.5 -190t-36 -237.5q0 -100 21.5 -190.5t66 -168t108.5 -134.5t154 -89t197 -32z" />
    <glyph glyph-name="obreve" unicode="&#x14f;" horiz-adv-x="1224" 
d="M606 -25q-232 0 -364.5 149.5t-132.5 422.5q0 285 141 442.5t379 157.5q236 0 361.5 -151.5t125.5 -430.5q0 -148 -38 -262t-107 -185t-161 -107t-204 -36zM616 109q78 0 138 26t97 67.5t60.5 101t32 120.5t8.5 131q0 69 -8.5 129.5t-31.5 122.5t-59 106.5t-97 72.5
t-140 28t-140.5 -27.5t-99 -72t-62 -106.5t-33.5 -123.5t-9 -129.5q0 -72 10.5 -134.5t35.5 -121t63.5 -100t98.5 -66t136 -24.5zM610 1321q-111 0 -189.5 51t-117.5 123l90 78q96 -121 223 -121q141 0 222 119l84 -72q-18 -31 -44 -59.5t-63.5 -56.5t-91 -45t-113.5 -17z
" />
    <glyph glyph-name="Ohungarumlaut" unicode="&#x150;" horiz-adv-x="1695" 
d="M831 -25q-221 0 -382.5 96t-243.5 265t-82 391q0 339 201.5 540t535.5 201q171 0 307.5 -57t224.5 -157.5t134.5 -236t46.5 -294.5q0 -221 -88 -389.5t-257 -263.5t-397 -95zM838 115q141 0 250 46.5t177.5 130t103 193t34.5 240.5q0 174 -63 309t-189 215t-299 80
q-137 0 -244.5 -45.5t-176 -127t-104.5 -190t-36 -237.5q0 -100 21.5 -190.5t66 -168t108.5 -134.5t154 -89t197 -32zM932 1763l-381 -250l-74 101l363 272zM1415 1642l-440 -122l-37 114l430 154z" />
    <glyph glyph-name="ohungarumlaut" unicode="&#x151;" horiz-adv-x="1224" 
d="M317 1255l-69 99l375 288l88 -122zM778 1264l-63 100l389 270l84 -125zM606 -25q-232 0 -364.5 149.5t-132.5 422.5q0 285 141 442.5t379 157.5q236 0 361.5 -151.5t125.5 -430.5q0 -148 -38 -262t-107 -185t-161 -107t-204 -36zM616 109q78 0 138 26t97 67.5t60.5 101
t32 120.5t8.5 131q0 69 -8.5 129.5t-31.5 122.5t-59 106.5t-97 72.5t-140 28t-140.5 -27.5t-99 -72t-62 -106.5t-33.5 -123.5t-9 -129.5q0 -72 10.5 -134.5t35.5 -121t63.5 -100t98.5 -66t136 -24.5z" />
    <glyph glyph-name="OE" unicode="&#x152;" horiz-adv-x="2250" 
d="M831 -25q-221 0 -382.5 96t-243.5 265t-82 391q0 227 93.5 396t262.5 258t391 89q234 0 402 -116v94h811v-137h-639v-514h594v-140h-594v-518h690v-139h-862v109q-102 -68 -197.5 -101t-243.5 -33zM838 121q289 0 434 188v826q-142 188 -420 188q-135 0 -242 -45.5
t-174.5 -126t-103 -188t-35.5 -234.5q0 -124 34.5 -233t100 -193t170 -133t236.5 -49z" />
    <glyph glyph-name="oe" unicode="&#x153;" horiz-adv-x="1959" 
d="M606 -25q-234 0 -365.5 149.5t-131.5 422.5q0 283 141.5 441.5t370.5 158.5q299 0 413 -238q118 238 418 238q205 0 303 -139t98 -420v-60h-739q2 -86 16.5 -152.5t41.5 -111t61 -74.5t82.5 -46t97.5 -22.5t113 -6.5q55 0 145 16.5t133 30.5l29 -133q-45 -17 -139 -34.5
t-213 -17.5q-345 0 -457 230q-63 -115 -171 -173.5t-247 -58.5zM618 109q78 0 137.5 26t96 68t60 102t32 121t8.5 133q0 67 -8.5 127t-31.5 122t-59.5 106t-97.5 72t-141 28q-78 0 -139 -27.5t-98.5 -72t-61.5 -106t-33.5 -122.5t-9.5 -129q0 -92 17.5 -169t56 -141.5
t108 -101t164.5 -36.5zM1116 649h567q0 175 -65.5 276t-192.5 101q-129 0 -211.5 -97t-97.5 -280z" />
    <glyph glyph-name="Racute" unicode="&#x154;" horiz-adv-x="1415" 
d="M479 1530l-33 106l449 172l43 -137zM215 0v1448h473q216 0 342.5 -106t126.5 -318q0 -135 -66.5 -239.5t-205.5 -157.5l444 -627h-207l-403 586q-68 -11 -137 -11h-197v-575h-170zM385 717h209q88 0 155.5 14.5t120.5 47.5t81 91.5t28 141.5q0 161 -82.5 230t-253.5 69
h-258v-594z" />
    <glyph glyph-name="racute" unicode="&#x155;" horiz-adv-x="792" 
d="M354 1266l-57 100l385 262l72 -115zM172 0v1118h162v-149q44 72 127 123t192 51q68 0 131 -19l-26 -137q-61 14 -133 14q-92 0 -168 -52.5t-123 -125.5v-823h-162z" />
    <glyph glyph-name="Rcommaaccent" unicode="&#x156;" horiz-adv-x="1415" 
d="M827 -119l-79 -416h-121l43 416h157zM215 0v1448h473q216 0 342.5 -106t126.5 -318q0 -135 -66.5 -239.5t-205.5 -157.5l444 -627h-207l-403 586q-68 -11 -137 -11h-197v-575h-170zM385 717h209q88 0 155.5 14.5t120.5 47.5t81 91.5t28 141.5q0 161 -82.5 230t-253.5 69
h-258v-594z" />
    <glyph glyph-name="rcommaaccent" unicode="&#x157;" horiz-adv-x="792" 
d="M340 -119l-80 -416h-121l43 416h158zM172 0v1118h162v-149q44 72 127 123t192 51q68 0 131 -19l-26 -137q-61 14 -133 14q-92 0 -168 -52.5t-123 -125.5v-823h-162z" />
    <glyph glyph-name="Rcaron" unicode="&#x158;" horiz-adv-x="1415" 
d="M926 1679l-326 -151l-317 151l55 115l262 -119l268 117zM215 0v1448h473q216 0 342.5 -106t126.5 -318q0 -135 -66.5 -239.5t-205.5 -157.5l444 -627h-207l-403 586q-68 -11 -137 -11h-197v-575h-170zM385 717h209q88 0 155.5 14.5t120.5 47.5t81 91.5t28 141.5
q0 161 -82.5 230t-253.5 69h-258v-594z" />
    <glyph glyph-name="rcaron" unicode="&#x159;" horiz-adv-x="792" 
d="M449 1278l-330 227l65 97l267 -175l270 177l65 -97zM172 0v1118h162v-149q44 72 127 123t192 51q68 0 131 -19l-26 -137q-61 14 -133 14q-92 0 -168 -52.5t-123 -125.5v-823h-162z" />
    <glyph glyph-name="Sacute" unicode="&#x15a;" horiz-adv-x="1110" 
d="M504 -25q-238 0 -404 101l54 139q184 -92 352 -92q64 0 121.5 13t108 40.5t80.5 77.5t30 117q0 58 -24.5 105t-65.5 80t-94.5 61.5t-112.5 54.5t-117.5 53.5t-112 63t-94.5 78.5t-65.5 105t-24.5 138q0 112 60.5 195t157 123t214.5 40q209 0 357 -79l-52 -132
q-153 70 -301 70q-120 0 -197 -54t-77 -159q0 -58 31 -106t81.5 -81t115 -66.5t132 -62t132 -68.5t115 -85t81.5 -112.5t31 -149.5q0 -101 -40.5 -180t-111 -128t-162.5 -74.5t-198 -25.5zM410 1530l-33 106l448 172l43 -137z" />
    <glyph glyph-name="sacute" unicode="&#x15b;" horiz-adv-x="917" 
d="M334 1266l-58 100l386 262l71 -115zM399 -25q-161 0 -313 50l27 137q166 -49 299 -49q124 0 196 46t72 128q0 45 -24 80.5t-64 58.5t-90.5 46.5t-103 43t-103 49t-90.5 63.5t-64 87t-24 119q0 148 107.5 230.5t271.5 82.5q159 0 280 -53l-37 -129q-117 47 -245 47
q-110 0 -165 -45.5t-55 -118.5q0 -52 31 -91.5t80.5 -65.5t109 -50t119 -52.5t109 -64.5t80.5 -94t31 -133q0 -69 -26.5 -125t-69 -92t-100.5 -60.5t-117 -34.5t-122 -10z" />
    <glyph glyph-name="Scircumflex" unicode="&#x15c;" horiz-adv-x="1110" 
d="M504 -25q-238 0 -404 101l54 139q184 -92 352 -92q64 0 121.5 13t108 40.5t80.5 77.5t30 117q0 58 -24.5 105t-65.5 80t-94.5 61.5t-112.5 54.5t-117.5 53.5t-112 63t-94.5 78.5t-65.5 105t-24.5 138q0 112 60.5 195t157 123t214.5 40q209 0 357 -79l-52 -132
q-153 70 -301 70q-120 0 -197 -54t-77 -159q0 -58 31 -106t81.5 -81t115 -66.5t132 -62t132 -68.5t115 -85t81.5 -112.5t31 -149.5q0 -101 -40.5 -180t-111 -128t-162.5 -74.5t-198 -25.5zM319 1536l-57 111l322 155l311 -151l-59 -113l-252 117z" />
    <glyph glyph-name="scircumflex" unicode="&#x15d;" horiz-adv-x="917" 
d="M696 1288l-245 170l-265 -172l-69 94l340 232l311 -228zM399 -25q-161 0 -313 50l27 137q166 -49 299 -49q124 0 196 46t72 128q0 45 -24 80.5t-64 58.5t-90.5 46.5t-103 43t-103 49t-90.5 63.5t-64 87t-24 119q0 148 107.5 230.5t271.5 82.5q159 0 280 -53l-37 -129
q-117 47 -245 47q-110 0 -165 -45.5t-55 -118.5q0 -52 31 -91.5t80.5 -65.5t109 -50t119 -52.5t109 -64.5t80.5 -94t31 -133q0 -69 -26.5 -125t-69 -92t-100.5 -60.5t-117 -34.5t-122 -10z" />
    <glyph glyph-name="Scedilla" unicode="&#x15e;" horiz-adv-x="1110" 
d="M504 -25q-238 0 -404 101l54 139q184 -92 352 -92q64 0 121.5 13t108 40.5t80.5 77.5t30 117q0 58 -24.5 105t-65.5 80t-94.5 61.5t-112.5 54.5t-117.5 53.5t-112 63t-94.5 78.5t-65.5 105t-24.5 138q0 112 60.5 195t157 123t214.5 40q209 0 357 -79l-52 -132
q-153 70 -301 70q-120 0 -197 -54t-77 -159q0 -58 31 -106t81.5 -81t115 -66.5t132 -62t132 -68.5t115 -85t81.5 -112.5t31 -149.5q0 -101 -40.5 -180t-111 -128t-162.5 -74.5t-198 -25.5zM432 -492l-53 93q121 75 121 157q0 49 -49 138h157q41 -73 41 -138
q3 -156 -217 -250z" />
    <glyph glyph-name="scedilla" unicode="&#x15f;" horiz-adv-x="917" 
d="M399 -25q-161 0 -313 50l27 137q166 -49 299 -49q124 0 196 46t72 128q0 45 -24 80.5t-64 58.5t-90.5 46.5t-103 43t-103 49t-90.5 63.5t-64 87t-24 119q0 148 107.5 230.5t271.5 82.5q159 0 280 -53l-37 -129q-117 47 -245 47q-110 0 -165 -45.5t-55 -118.5
q0 -52 31 -91.5t80.5 -65.5t109 -50t119 -52.5t109 -64.5t80.5 -94t31 -133q0 -69 -26.5 -125t-69 -92t-100.5 -60.5t-117 -34.5t-122 -10zM369 -492l-54 93q121 75 121 157q0 49 -49 138h158q41 -73 41 -138q3 -156 -217 -250z" />
    <glyph glyph-name="Scaron" unicode="&#x160;" horiz-adv-x="1110" 
d="M879 1679l-326 -151l-317 151l55 115l262 -119l268 117zM504 -25q-238 0 -404 101l54 139q184 -92 352 -92q64 0 121.5 13t108 40.5t80.5 77.5t30 117q0 58 -24.5 105t-65.5 80t-94.5 61.5t-112.5 54.5t-117.5 53.5t-112 63t-94.5 78.5t-65.5 105t-24.5 138
q0 112 60.5 195t157 123t214.5 40q209 0 357 -79l-52 -132q-153 70 -301 70q-120 0 -197 -54t-77 -159q0 -58 31 -106t81.5 -81t115 -66.5t132 -62t132 -68.5t115 -85t81.5 -112.5t31 -149.5q0 -101 -40.5 -180t-111 -128t-162.5 -74.5t-198 -25.5z" />
    <glyph glyph-name="scaron" unicode="&#x161;" horiz-adv-x="917" 
d="M453 1278l-330 227l65 97l267 -175l270 177l66 -97zM399 -25q-161 0 -313 50l27 137q166 -49 299 -49q124 0 196 46t72 128q0 45 -24 80.5t-64 58.5t-90.5 46.5t-103 43t-103 49t-90.5 63.5t-64 87t-24 119q0 148 107.5 230.5t271.5 82.5q159 0 280 -53l-37 -129
q-117 47 -245 47q-110 0 -165 -45.5t-55 -118.5q0 -52 31 -91.5t80.5 -65.5t109 -50t119 -52.5t109 -64.5t80.5 -94t31 -133q0 -69 -26.5 -125t-69 -92t-100.5 -60.5t-117 -34.5t-122 -10z" />
    <glyph glyph-name="Tcommaaccent" unicode="&#x162;" horiz-adv-x="1196" 
d="M688 -119l-80 -416h-121l43 416h158zM514 0v1305h-496v143h1160v-143h-496v-1305h-168z" />
    <glyph glyph-name="tcommaaccent" unicode="&#x163;" horiz-adv-x="815" 
d="M602 -119l-80 -416h-121l43 416h158zM553 -25q-82 0 -142 15.5t-106 53t-69 104t-23 163.5v670h-164v137h164v230h158v-230h350v-137h-348v-664q0 -113 48.5 -156.5t151.5 -43.5q92 0 189 33l29 -134q-46 -16 -115 -28.5t-123 -12.5z" />
    <glyph glyph-name="Tcaron" unicode="&#x164;" horiz-adv-x="1196" 
d="M913 1679l-325 -151l-318 151l56 115l262 -119l268 117zM514 0v1305h-496v143h1160v-143h-496v-1305h-168z" />
    <glyph glyph-name="tcaron" unicode="&#x165;" horiz-adv-x="815" 
d="M715 1667l-82 -416h-119l43 416h158zM553 -25q-82 0 -142 15.5t-106 53t-69 104t-23 163.5v670h-164v137h164v230h158v-230h350v-137h-348v-664q0 -113 48.5 -156.5t151.5 -43.5q92 0 189 33l29 -134q-46 -16 -115 -28.5t-123 -12.5z" />
    <glyph glyph-name="Tbar" unicode="&#x166;" horiz-adv-x="1196" 
d="M215 700v113h299v492h-496v143h1160v-143h-496v-492h301v-113h-301v-700h-168v700h-299z" />
    <glyph glyph-name="tbar" unicode="&#x167;" horiz-adv-x="815" 
d="M66 604v103h147v274h-164v137h164v230h158v-230h350v-137h-348v-274h280v-103h-280v-287q0 -113 48.5 -156.5t151.5 -43.5q92 0 189 33l29 -134q-46 -16 -115 -28.5t-123 -12.5q-82 0 -142 15.5t-106 53t-69 104t-23 163.5v293h-147z" />
    <glyph glyph-name="Utilde" unicode="&#x168;" horiz-adv-x="1552" 
d="M899 1544q-43 0 -125.5 38t-120.5 38q-75 0 -141 -49l-63 92q37 35 92 64.5t112 29.5q56 0 135.5 -38t110.5 -38q48 0 74 12.5t57 41.5l64 -90q-76 -101 -195 -101zM776 -25q-90 0 -168.5 14t-156 51.5t-132 95.5t-88.5 152t-34 216v944h170v-930q0 -92 23.5 -162.5
t61.5 -114.5t92 -71.5t110 -38t122 -10.5q414 0 414 444v883h166v-889q0 -134 -36 -238.5t-93 -168.5t-135 -105t-155 -56.5t-161 -15.5z" />
    <glyph glyph-name="utilde" unicode="&#x169;" horiz-adv-x="1226" 
d="M494 -25q-64 0 -115 14.5t-85 37.5t-58.5 59t-38 71t-21.5 82t-10 83.5t-2 83.5v712h160v-680q0 -62 3 -101.5t15 -84.5t34.5 -70t63 -42t99.5 -17q164 0 360 139v856h156v-1118h-156v131q-54 -38 -84.5 -58t-84 -47t-111.5 -39t-125 -12zM731 1321q-49 0 -130 38
t-124 38q-46 0 -75 -11t-66 -40l-64 94q92 92 215 92q46 0 92 -19t86.5 -38t73.5 -19q67 0 144 57l63 -90q-89 -102 -215 -102z" />
    <glyph glyph-name="Umacron" unicode="&#x16a;" horiz-adv-x="1552" 
d="M494 1608v133h546v-133h-546zM776 -25q-90 0 -168.5 14t-156 51.5t-132 95.5t-88.5 152t-34 216v944h170v-930q0 -92 23.5 -162.5t61.5 -114.5t92 -71.5t110 -38t122 -10.5q414 0 414 444v883h166v-889q0 -134 -36 -238.5t-93 -168.5t-135 -105t-155 -56.5t-161 -15.5z
" />
    <glyph glyph-name="umacron" unicode="&#x16b;" horiz-adv-x="1226" 
d="M340 1370v133h547v-133h-547zM494 -25q-64 0 -115 14.5t-85 37.5t-58.5 59t-38 71t-21.5 82t-10 83.5t-2 83.5v712h160v-680q0 -62 3 -101.5t15 -84.5t34.5 -70t63 -42t99.5 -17q164 0 360 139v856h156v-1118h-156v131q-54 -38 -84.5 -58t-84 -47t-111.5 -39t-125 -12z
" />
    <glyph glyph-name="Ubreve" unicode="&#x16c;" horiz-adv-x="1552" 
d="M778 1542q-109 0 -187.5 51t-119.5 123l90 80q95 -123 223 -123q143 0 222 121l84 -74q-39 -70 -117.5 -124t-194.5 -54zM776 -25q-90 0 -168.5 14t-156 51.5t-132 95.5t-88.5 152t-34 216v944h170v-930q0 -92 23.5 -162.5t61.5 -114.5t92 -71.5t110 -38t122 -10.5
q414 0 414 444v883h166v-889q0 -134 -36 -238.5t-93 -168.5t-135 -105t-155 -56.5t-161 -15.5z" />
    <glyph glyph-name="ubreve" unicode="&#x16d;" horiz-adv-x="1226" 
d="M494 -25q-64 0 -115 14.5t-85 37.5t-58.5 59t-38 71t-21.5 82t-10 83.5t-2 83.5v712h160v-680q0 -62 3 -101.5t15 -84.5t34.5 -70t63 -42t99.5 -17q164 0 360 139v856h156v-1118h-156v131q-54 -38 -84.5 -58t-84 -47t-111.5 -39t-125 -12zM610 1321q-111 0 -189.5 51
t-117.5 123l90 78q96 -121 223 -121q141 0 222 119l84 -72q-18 -31 -44 -59.5t-63.5 -56.5t-91 -45t-113.5 -17z" />
    <glyph glyph-name="Uring" unicode="&#x16e;" horiz-adv-x="1552" 
d="M778 1448q-86 0 -144.5 44.5t-58.5 135.5q0 88 58.5 137.5t140.5 49.5q78 0 139.5 -45.5t61.5 -137.5q0 -86 -56 -135t-141 -49zM776 1524q51 0 80 28t29 78q0 46 -33 76.5t-78 30.5q-50 0 -80 -27t-30 -76t31 -79.5t81 -30.5zM776 -25q-90 0 -168.5 14t-156 51.5
t-132 95.5t-88.5 152t-34 216v944h170v-930q0 -92 23.5 -162.5t61.5 -114.5t92 -71.5t110 -38t122 -10.5q414 0 414 444v883h166v-889q0 -134 -36 -238.5t-93 -168.5t-135 -105t-155 -56.5t-161 -15.5z" />
    <glyph glyph-name="uring" unicode="&#x16f;" horiz-adv-x="1226" 
d="M614 1257q-95 0 -161 50.5t-66 150.5q0 98 65.5 153.5t157.5 55.5q39 0 77 -11t72.5 -33.5t55.5 -64t21 -96.5q0 -96 -63 -150.5t-159 -54.5zM612 1341q57 0 89 31.5t34 87.5q0 54 -36 86.5t-89 32.5q-58 0 -90.5 -30t-32.5 -85t34.5 -89t90.5 -34zM494 -25
q-64 0 -115 14.5t-85 37.5t-58.5 59t-38 71t-21.5 82t-10 83.5t-2 83.5v712h160v-680q0 -62 3 -101.5t15 -84.5t34.5 -70t63 -42t99.5 -17q164 0 360 139v856h156v-1118h-156v131q-54 -38 -84.5 -58t-84 -47t-111.5 -39t-125 -12z" />
    <glyph glyph-name="Uhungarumlaut" unicode="&#x170;" horiz-adv-x="1552" 
d="M776 -25q-90 0 -168.5 14t-156 51.5t-132 95.5t-88.5 152t-34 216v944h170v-930q0 -92 23.5 -162.5t61.5 -114.5t92 -71.5t110 -38t122 -10.5q414 0 414 444v883h166v-889q0 -134 -36 -238.5t-93 -168.5t-135 -105t-155 -56.5t-161 -15.5zM836 1763l-381 -250l-74 101
l362 272zM1319 1642l-440 -122l-37 114l430 154z" />
    <glyph glyph-name="uhungarumlaut" unicode="&#x171;" horiz-adv-x="1226" 
d="M494 -25q-64 0 -115 14.5t-85 37.5t-58.5 59t-38 71t-21.5 82t-10 83.5t-2 83.5v712h160v-680q0 -62 3 -101.5t15 -84.5t34.5 -70t63 -42t99.5 -17q164 0 360 139v856h156v-1118h-156v131q-54 -38 -84.5 -58t-84 -47t-111.5 -39t-125 -12zM328 1255l-70 99l375 288
l88 -122zM788 1264l-63 100l389 270l84 -125z" />
    <glyph glyph-name="Uogonek" unicode="&#x172;" horiz-adv-x="1552" 
d="M997 -430q-66 -41 -168 -41q-120 0 -178.5 61.5t-58.5 157.5q0 115 131 229q-84 4 -156.5 21t-142 56t-118.5 97t-79 148t-30 205v944h170v-930q0 -92 23.5 -162.5t61.5 -114.5t92 -71.5t110 -38t122 -10.5q414 0 414 444v883h166v-889q0 -111 -24.5 -201.5t-64.5 -152
t-97 -107t-117 -70.5t-129 -38q-79 -46 -131 -103.5t-52 -117.5q0 -56 33.5 -84.5t89.5 -28.5q47 0 99 25z" />
    <glyph glyph-name="uogonek" unicode="&#x173;" horiz-adv-x="1226" 
d="M1065 -317l35 -115q-27 -13 -42.5 -19t-49.5 -12t-78 -6q-242 0 -242 213q0 53 35 108.5t78.5 94t97.5 73.5v111q-3 -2 -46 -29.5t-59 -36.5t-59.5 -31.5t-73.5 -31.5t-74 -18t-87 -9q-65 0 -117 14.5t-86.5 37t-60 58t-39 70t-21.5 81t-10 83t-2 84.5v715h160v-682
q0 -52 2 -85t8.5 -73.5t21 -65t38 -47t60.5 -32.5t87 -10q132 0 347 132q8 5 11 7v856h156v-1118q-47 -28 -91.5 -63t-84 -84.5t-39.5 -90.5q0 -100 118 -100q56 0 107 21z" />
    <glyph glyph-name="Wcircumflex" unicode="&#x174;" horiz-adv-x="2123" 
d="M813 1536l-57 111l321 155l312 -151l-60 -113l-252 117zM2093 1448l-475 -1448h-246l-307 1225l-348 -1225h-248l-401 1448h176l358 -1346l385 1346h172l340 -1346l426 1346h168z" />
    <glyph glyph-name="wcircumflex" unicode="&#x175;" horiz-adv-x="1796" 
d="M1151 1288l-246 170l-264 -172l-70 94l340 232l312 -228zM389 0l-346 1118h170l289 -1001l303 1001h207l266 -1001l328 1001h161l-385 -1118h-217l-225 817l-35 154l-39 -152l-258 -819h-219z" />
    <glyph glyph-name="Ycircumflex" unicode="&#x176;" horiz-adv-x="1232" 
d="M528 0v549l-473 899h191l372 -750l402 750h180l-504 -899v-549h-168zM365 1536l-58 111l322 155l311 -151l-59 -113l-252 117z" />
    <glyph glyph-name="ycircumflex" unicode="&#x177;" horiz-adv-x="1046" 
d="M770 1288l-246 170l-264 -172l-70 94l340 232l312 -228zM319 -451l152 451h-76l-360 1118h176l242 -799l63 -200l66 196l274 803h166l-547 -1569h-156z" />
    <glyph glyph-name="Ydieresis" unicode="&#x178;" horiz-adv-x="1232" 
d="M528 0v549l-473 899h191l372 -750l402 750h180l-504 -899v-549h-168zM492 1552h-158v191h158v-191zM891 1552h-160v191h160v-191z" />
    <glyph glyph-name="Zacute" unicode="&#x179;" horiz-adv-x="1167" 
d="M444 1530l-32 106l448 172l43 -137zM86 0v145l766 1158h-713v145h901v-133l-776 -1170h819v-145h-997z" />
    <glyph glyph-name="zacute" unicode="&#x17a;" horiz-adv-x="1024" 
d="M401 1266l-57 100l385 262l72 -115zM76 0v139l661 838h-608v141h793v-131l-666 -846h674v-141h-854z" />
    <glyph glyph-name="Zdotaccent" unicode="&#x17b;" horiz-adv-x="1167" 
d="M678 1593h-158v191h158v-191zM86 0v145l766 1158h-713v145h901v-133l-776 -1170h819v-145h-997z" />
    <glyph glyph-name="zdotaccent" unicode="&#x17c;" horiz-adv-x="1024" 
d="M76 0v139l661 838h-608v141h793v-131l-666 -846h674v-141h-854zM608 1370h-157v191h157v-191z" />
    <glyph glyph-name="Zcaron" unicode="&#x17d;" horiz-adv-x="1167" 
d="M905 1679l-325 -151l-318 151l55 115l263 -119l268 117zM86 0v145l766 1158h-713v145h901v-133l-776 -1170h819v-145h-997z" />
    <glyph glyph-name="zcaron" unicode="&#x17e;" horiz-adv-x="1024" 
d="M502 1278l-330 227l66 97l266 -175l270 177l66 -97zM76 0v139l661 838h-608v141h793v-131l-666 -846h674v-141h-854z" />
    <glyph glyph-name="uni018E" unicode="&#x18e;" horiz-adv-x="1171" 
d="M954 1448v-1448h-813v139h645v518h-589v140h589v514h-643v137h811z" />
    <glyph glyph-name="uni018F" unicode="&#x18f;" horiz-adv-x="1570" 
d="M760 -25q-159 0 -282 51t-201.5 145t-120.5 222t-47 287v115h1163q-8 117 -43.5 213.5t-99 168.5t-159.5 112t-218 40q-251 0 -514 -137l-56 125q113 63 268 107t328 44q134 0 244.5 -37t188.5 -103.5t131 -160t78.5 -205t25.5 -239.5q0 -167 -43 -303.5t-126.5 -236
t-215 -154t-301.5 -54.5zM766 115q478 0 506 549h-993q6 -94 25 -173t56.5 -149.5t92 -120t134.5 -78t179 -28.5z" />
    <glyph glyph-name="florin" unicode="&#x192;" horiz-adv-x="1222" 
d="M213 -465l-6 139q18 2 53 4q130 11 181 32q99 40 122 166q6 32 8 71l31 569h-211v146h219l21 380q4 75 22 135.5t45 103t66.5 74t81 50t95.5 30t104 15.5t110 4l8 -147q-140 -12 -163 -16q-118 -21 -164 -96q-36 -59 -41 -161l-21 -372h225v-146h-235l-31 -575
q-4 -75 -21.5 -135.5t-44 -102.5t-65.5 -73t-80 -49t-95 -28.5t-103 -14t-111 -3.5z" />
    <glyph glyph-name="Ohorn" unicode="&#x1a0;" horiz-adv-x="1738" 
d="M831 -25q-221 0 -382.5 96t-243.5 265t-82 391q0 339 201.5 540t535.5 201q264 0 443 -133q68 31 102.5 92t34.5 138q0 51 -21 125h154q24 -59 24 -144q0 -104 -49.5 -187.5t-134.5 -131.5q160 -198 160 -504q0 -221 -88 -389.5t-257 -263.5t-397 -95zM838 115
q141 0 250 46.5t177.5 130t103 193t34.5 240.5q0 174 -63 309t-189 215t-299 80q-137 0 -244.5 -45.5t-176 -127t-104.5 -190t-36 -237.5q0 -100 21.5 -190.5t66 -168t108.5 -134.5t154 -89t197 -32z" />
    <glyph glyph-name="ohorn" unicode="&#x1a1;" horiz-adv-x="1253" 
d="M606 -25q-232 0 -364.5 149.5t-132.5 422.5q0 285 141 442.5t379 157.5q167 0 280 -78q115 24 115 154q0 37 -18 100h147q23 -56 23 -117q0 -78 -43 -146.5t-115 -101.5q98 -152 98 -393q0 -148 -38 -262t-107 -185t-161 -107t-204 -36zM616 109q78 0 138 26t97 67.5
t60.5 101t32 120.5t8.5 131q0 69 -8.5 129.5t-31.5 122.5t-59 106.5t-97 72.5t-140 28t-140.5 -27.5t-99 -72t-62 -106.5t-33.5 -123.5t-9 -129.5q0 -72 10.5 -134.5t35.5 -121t63.5 -100t98.5 -66t136 -24.5z" />
    <glyph glyph-name="Uhorn" unicode="&#x1af;" horiz-adv-x="1615" 
d="M776 -25q-90 0 -168.5 14t-156 51.5t-132 95.5t-88.5 152t-34 216v944h170v-930q0 -92 23.5 -162.5t61.5 -114.5t92 -71.5t110 -38t122 -10.5q414 0 414 444v883h70q85 4 122 41t37 110q0 48 -18 111h143q23 -56 23 -127q0 -102 -56 -170.5t-155 -87.5v-766
q0 -134 -36 -238.5t-93 -168.5t-135 -105t-155 -56.5t-161 -15.5z" />
    <glyph glyph-name="uhorn" unicode="&#x1b0;" horiz-adv-x="1269" 
d="M494 -25q-64 0 -115 14.5t-85 37.5t-58.5 59t-38 71t-21.5 82t-10 83.5t-2 83.5v712h160v-680q0 -62 3 -101.5t15 -84.5t34.5 -70t63 -42t99.5 -17q164 0 360 139v856h86q74 7 103.5 40.5t29.5 101.5q0 30 -20 100h145q23 -56 23 -117q0 -99 -56 -165t-155 -85v-993h-156
v131q-54 -38 -84.5 -58t-84 -47t-111.5 -39t-125 -12z" />
    <glyph glyph-name="uni01C4" unicode="&#x1c4;" horiz-adv-x="2670" 
d="M2410 1679l-325 -151l-318 151l56 115l262 -119l268 117zM1587 0v145l766 1158h-713v145h902v-133l-777 -1170h820v-145h-998zM217 0v1448h391q142 0 263.5 -26.5t223 -83t172.5 -140t110.5 -203t39.5 -266.5q0 -187 -56 -327.5t-161.5 -228t-250 -130.5t-328.5 -43h-404
zM385 139h258q286 0 443 144.5t157 423.5q0 151 -45.5 266.5t-130.5 188.5t-202 110t-263 37h-217v-1170z" />
    <glyph glyph-name="uni01C5" unicode="&#x1c5;" horiz-adv-x="2555" 
d="M2062 1276l-329 227l65 96l266 -174l271 177l65 -97zM1606 0v139l661 838h-608v141h792v-131l-665 -846h674v-141h-854zM217 0v1448h391q142 0 263.5 -26.5t223 -83t172.5 -140t110.5 -203t39.5 -266.5q0 -187 -56 -327.5t-161.5 -228t-250 -130.5t-328.5 -43h-404z
M385 139h258q286 0 443 144.5t157 423.5q0 151 -45.5 266.5t-130.5 188.5t-202 110t-263 37h-217v-1170z" />
    <glyph glyph-name="uni01C6" unicode="&#x1c6;" horiz-adv-x="2240" 
d="M1749 1278l-330 227l66 97l266 -175l270 177l66 -97zM1292 0v139l662 838h-608v141h792v-131l-665 -846h673v-141h-854zM557 -20q-59 0 -115 12.5t-118.5 50t-108 96.5t-76 161t-30.5 235q0 156 41 274.5t115.5 191.5t174.5 109.5t224 36.5q89 0 196 -29v426h162v-1544
h-162v106q-69 -62 -137.5 -94t-165.5 -32zM578 117q140 0 282 125v737q-90 35 -207 35q-85 0 -152 -26t-109 -69.5t-70 -105t-39 -127t-11 -141.5q0 -212 85 -320t221 -108z" />
    <glyph glyph-name="uni01C7" unicode="&#x1c7;" horiz-adv-x="1632" 
d="M1024 -383l-72 123q92 51 151 108t90.5 129t43.5 148.5t12 183.5v1139h170v-1135q0 -84 -6 -149.5t-21 -134.5t-43 -124.5t-71 -108t-106.5 -97.5t-147.5 -82zM217 0v1448h168v-1303h629v-145h-797z" />
    <glyph glyph-name="uni01C8" unicode="&#x1c8;" horiz-adv-x="1552" 
d="M999 -459q-78 0 -143 25l29 131q58 -16 116 -16q118 0 164.5 72t46.5 210v1155h164v-1157q0 -119 -28.5 -203.5t-81.5 -130.5t-118 -66t-149 -20zM217 0v1448h168v-1303h629v-145h-797zM1372 1370h-158v191h158v-191z" />
    <glyph glyph-name="uni01C9" unicode="&#x1c9;" horiz-adv-x="1071" 
d="M520 -459q-78 0 -143 25l29 131q58 -16 116 -16q118 0 164.5 72t46.5 210v1155h164v-1157q0 -119 -28.5 -203.5t-81.5 -130.5t-118 -66t-149 -20zM172 0v1544h162v-1544h-162zM893 1370h-158v191h158v-191z" />
    <glyph glyph-name="uni01CA" unicode="&#x1ca;" horiz-adv-x="2201" 
d="M1591 -383l-71 123q92 51 151 108t90.5 129t43.5 148.5t12 183.5v1139h170v-1135q0 -84 -6 -150t-21 -134.5t-43.5 -124t-71.5 -108t-106.5 -97.5t-147.5 -82zM217 0v1448h215l762 -1258h4l-8 183v1075h170v-1448h-225l-752 1239h-6l8 -149v-1090h-168z" />
    <glyph glyph-name="uni01CB" unicode="&#x1cb;" horiz-adv-x="2117" 
d="M1567 -459q-79 0 -144 25l29 131q58 -16 117 -16q118 0 164.5 72t46.5 210v1155h164v-1157q0 -119 -28.5 -203.5t-81.5 -130.5t-118 -66t-149 -20zM1939 1370h-157v191h157v-191zM217 0v1448h215l762 -1258h4l-8 183v1075h170v-1448h-225l-752 1239h-6l8 -149v-1090h-168
z" />
    <glyph glyph-name="uni01CC" unicode="&#x1cc;" horiz-adv-x="1794" 
d="M1243 -459q-78 0 -143 25l28 131q58 -16 117 -16q118 0 164.5 72t46.5 210v1155h164v-1157q0 -119 -28.5 -203.5t-81.5 -130.5t-118 -66t-149 -20zM1616 1370h-158v191h158v-191zM172 0v1118h162v-127q70 52 118.5 81t123.5 52t157 23q66 0 118.5 -14.5t87.5 -36.5
t60 -58t39 -70t21.5 -81t9.5 -83t2 -83v-721h-158v690q0 79 -8 131.5t-31 96.5t-68 65t-114 21q-97 0 -181.5 -37t-176.5 -101v-866h-162z" />
    <glyph glyph-name="uni01CD" unicode="&#x1cd;" horiz-adv-x="1374" 
d="M0 0l594 1448h219l526 -1448h-182l-192 541h-572l-215 -541h-178zM444 676h476l-226 653zM1018 1679l-326 -151l-317 151l55 115l262 -119l269 117z" />
    <glyph glyph-name="uni01CE" unicode="&#x1ce;" horiz-adv-x="1130" 
d="M422 -18q-155 0 -244.5 82.5t-89.5 232.5q0 80 27.5 141.5t70 97.5t102 59.5t113.5 32t115 9.5l266 4v143q0 128 -60.5 175t-199.5 47q-156 0 -303 -56l-37 127q163 70 363 70q395 0 395 -309v-619q0 -30 11 -51t30 -31.5t38.5 -15t41.5 -4.5l-6 -125q-20 -4 -45 -4
q-81 0 -143 35.5t-72 105.5q-37 -29 -58 -43.5t-73.5 -44t-113.5 -44.5t-128 -15zM459 113q151 0 323 125v290l-268 -10q-130 -4 -200 -60t-70 -155q0 -93 59 -141.5t156 -48.5zM553 1276l-330 227l66 96l266 -174l270 177l66 -97z" />
    <glyph glyph-name="uni01CF" unicode="&#x1cf;" horiz-adv-x="602" 
d="M217 0v1448h168v-1448h-168zM618 1679l-325 -151l-318 151l56 115l262 -119l268 117z" />
    <glyph glyph-name="uni01D0" unicode="&#x1d0;" horiz-adv-x="509" 
d="M252 1276l-330 227l66 96l266 -174l270 177l66 -97zM172 0v1118h164v-1118h-164z" />
    <glyph glyph-name="uni01D1" unicode="&#x1d1;" horiz-adv-x="1695" 
d="M1176 1679l-326 -151l-318 151l56 115l262 -119l268 117zM831 -25q-221 0 -382.5 96t-243.5 265t-82 391q0 339 201.5 540t535.5 201q171 0 307.5 -57t224.5 -157.5t134.5 -236t46.5 -294.5q0 -221 -88 -389.5t-257 -263.5t-397 -95zM838 115q141 0 250 46.5t177.5 130
t103 193t34.5 240.5q0 174 -63 309t-189 215t-299 80q-137 0 -244.5 -45.5t-176 -127t-104.5 -190t-36 -237.5q0 -100 21.5 -190.5t66 -168t108.5 -134.5t154 -89t197 -32z" />
    <glyph glyph-name="uni01D2" unicode="&#x1d2;" horiz-adv-x="1224" 
d="M606 1276l-330 227l66 96l266 -174l271 177l65 -97zM606 -25q-232 0 -364.5 149.5t-132.5 422.5q0 285 141 442.5t379 157.5q236 0 361.5 -151.5t125.5 -430.5q0 -148 -38 -262t-107 -185t-161 -107t-204 -36zM616 109q78 0 138 26t97 67.5t60.5 101t32 120.5t8.5 131
q0 69 -8.5 129.5t-31.5 122.5t-59 106.5t-97 72.5t-140 28t-140.5 -27.5t-99 -72t-62 -106.5t-33.5 -123.5t-9 -129.5q0 -72 10.5 -134.5t35.5 -121t63.5 -100t98.5 -66t136 -24.5z" />
    <glyph glyph-name="uni01D3" unicode="&#x1d3;" horiz-adv-x="1552" 
d="M1096 1679l-326 -151l-317 151l55 115l262 -119l268 117zM776 -25q-90 0 -168.5 14t-156 51.5t-132 95.5t-88.5 152t-34 216v944h170v-930q0 -92 23.5 -162.5t61.5 -114.5t92 -71.5t110 -38t122 -10.5q414 0 414 444v883h166v-889q0 -134 -36 -238.5t-93 -168.5
t-135 -105t-155 -56.5t-161 -15.5z" />
    <glyph glyph-name="uni01D4" unicode="&#x1d4;" horiz-adv-x="1226" 
d="M610 1278l-329 227l65 97l266 -175l271 177l65 -97zM494 -25q-64 0 -115 14.5t-85 37.5t-58.5 59t-38 71t-21.5 82t-10 83.5t-2 83.5v712h160v-680q0 -62 3 -101.5t15 -84.5t34.5 -70t63 -42t99.5 -17q164 0 360 139v856h156v-1118h-156v131q-54 -38 -84.5 -58t-84 -47
t-111.5 -39t-125 -12z" />
    <glyph glyph-name="uni01D5" unicode="&#x1d5;" horiz-adv-x="1552" 
d="M653 1518h-157v190h157v-190zM1053 1518h-160v190h160v-190zM776 -25q-90 0 -168.5 14t-156 51.5t-132 95.5t-88.5 152t-34 216v944h170v-930q0 -92 23.5 -162.5t61.5 -114.5t92 -71.5t110 -38t122 -10.5q414 0 414 444v883h166v-889q0 -134 -36 -238.5t-93 -168.5
t-135 -105t-155 -56.5t-161 -15.5zM465 1790v133h612v-133h-612z" />
    <glyph glyph-name="uni01D6" unicode="&#x1d6;" horiz-adv-x="1226" 
d="M461 1309h-158v190h158v-190zM909 1309h-159v190h159v-190zM305 1626v133h613v-133h-613zM494 -25q-64 0 -115 14.5t-85 37.5t-58.5 59t-38 71t-21.5 82t-10 83.5t-2 83.5v712h160v-680q0 -62 3 -101.5t15 -84.5t34.5 -70t63 -42t99.5 -17q164 0 360 139v856h156v-1118
h-156v131q-54 -38 -84.5 -58t-84 -47t-111.5 -39t-125 -12z" />
    <glyph glyph-name="uni01D7" unicode="&#x1d7;" horiz-adv-x="1552" 
d="M653 1518h-157v190h157v-190zM1053 1518h-160v190h160v-190zM702 1741l-32 106l448 172l43 -137zM776 -25q-90 0 -168.5 14t-156 51.5t-132 95.5t-88.5 152t-34 216v944h170v-930q0 -92 23.5 -162.5t61.5 -114.5t92 -71.5t110 -38t122 -10.5q414 0 414 444v883h166v-889
q0 -134 -36 -238.5t-93 -168.5t-135 -105t-155 -56.5t-161 -15.5z" />
    <glyph glyph-name="uni01D8" unicode="&#x1d8;" horiz-adv-x="1226" 
d="M461 1309h-158v190h158v-190zM909 1309h-159v190h159v-190zM580 1544l-58 101l385 262l72 -115zM494 -25q-64 0 -115 14.5t-85 37.5t-58.5 59t-38 71t-21.5 82t-10 83.5t-2 83.5v712h160v-680q0 -62 3 -101.5t15 -84.5t34.5 -70t63 -42t99.5 -17q164 0 360 139v856h156
v-1118h-156v131q-54 -38 -84.5 -58t-84 -47t-111.5 -39t-125 -12z" />
    <glyph glyph-name="uni01D9" unicode="&#x1d9;" horiz-adv-x="1552" 
d="M653 1518h-157v190h157v-190zM1053 1518h-160v190h160v-190zM776 -25q-90 0 -168.5 14t-156 51.5t-132 95.5t-88.5 152t-34 216v944h170v-930q0 -92 23.5 -162.5t61.5 -114.5t92 -71.5t110 -38t122 -10.5q414 0 414 444v883h166v-889q0 -134 -36 -238.5t-93 -168.5
t-135 -105t-155 -56.5t-161 -15.5zM1100 1894l-326 -151l-317 151l55 115l262 -119l268 117z" />
    <glyph glyph-name="uni01DA" unicode="&#x1da;" horiz-adv-x="1226" 
d="M461 1309h-158v190h158v-190zM909 1309h-159v190h159v-190zM494 -25q-64 0 -115 14.5t-85 37.5t-58.5 59t-38 71t-21.5 82t-10 83.5t-2 83.5v712h160v-680q0 -62 3 -101.5t15 -84.5t34.5 -70t63 -42t99.5 -17q164 0 360 139v856h156v-1118h-156v131q-54 -38 -84.5 -58
t-84 -47t-111.5 -39t-125 -12zM602 1544l-317 199l65 96l256 -143l262 151l68 -96z" />
    <glyph glyph-name="uni01DB" unicode="&#x1db;" horiz-adv-x="1552" 
d="M829 1731l-458 133l43 139l452 -164zM653 1518h-157v190h157v-190zM1053 1518h-160v190h160v-190zM776 -25q-90 0 -168.5 14t-156 51.5t-132 95.5t-88.5 152t-34 216v944h170v-930q0 -92 23.5 -162.5t61.5 -114.5t92 -71.5t110 -38t122 -10.5q414 0 414 444v883h166v-889
q0 -134 -36 -238.5t-93 -168.5t-135 -105t-155 -56.5t-161 -15.5z" />
    <glyph glyph-name="uni01DC" unicode="&#x1dc;" horiz-adv-x="1226" 
d="M461 1309h-158v190h158v-190zM909 1309h-159v190h159v-190zM494 -25q-64 0 -115 14.5t-85 37.5t-58.5 59t-38 71t-21.5 82t-10 83.5t-2 83.5v712h160v-680q0 -62 3 -101.5t15 -84.5t34.5 -70t63 -42t99.5 -17q164 0 360 139v856h156v-1118h-156v131q-54 -38 -84.5 -58
t-84 -47t-111.5 -39t-125 -12zM651 1516l-395 245l72 123l387 -266z" />
    <glyph glyph-name="uni01DD" unicode="&#x1dd;" horiz-adv-x="1118" 
d="M479 1147q127 0 221 -28.5t165 -92.5t107 -175t36 -269q0 -164 -37.5 -284t-107 -189.5t-157.5 -101.5t-198 -32q-205 0 -303.5 139.5t-98.5 420.5v57h738q-2 105 -24 180.5t-56.5 120.5t-89.5 71.5t-111.5 35t-132.5 8.5q-53 0 -137.5 -16t-138.5 -31l-29 131
q153 55 354 55zM842 473h-568q0 -176 65 -276.5t193 -100.5q131 0 214 97t96 280z" />
    <glyph glyph-name="uni01E2" unicode="&#x1e2;" horiz-adv-x="1869" 
d="M911 1608v133h547v-133h-547zM-29 0l770 1448h965v-137h-643v-514h598v-140h-598v-518h692v-139h-860v637h-403l-330 -637h-191zM559 774h336v537h-57z" />
    <glyph glyph-name="uni01E3" unicode="&#x1e3;" horiz-adv-x="1779" 
d="M608 1370v133h547v-133h-547zM1305 -18q-324 0 -451 194q-103 -76 -163 -109q-151 -83 -285 -83q-151 0 -234.5 81.5t-83.5 233.5q0 78 27.5 138.5t70 96t102 58.5t113.5 31.5t115 9.5q252 6 264 6v154q0 69 -15.5 111.5t-53 65t-86 29.5t-129.5 7q-35 0 -81 -7t-78 -14
t-71 -17t-47 -12l-35 123q168 66 359 66q134 0 225 -34.5t135 -125.5q127 160 373 160q197 0 297 -135.5t100 -399.5v-59l-737 -29q2 -102 24 -175.5t56.5 -117t90 -68t112 -32.5t135.5 -8q91 0 274 39l27 -129q-123 -49 -350 -49zM444 117q64 0 178 50.5t191 98.5
q-30 100 -37 254l-258 -8q-139 -3 -207.5 -58t-68.5 -139q0 -112 52.5 -155t149.5 -43zM942 647l563 27q0 160 -66.5 255t-187.5 95q-125 0 -212 -93.5t-97 -283.5z" />
    <glyph glyph-name="uni01E6" unicode="&#x1e6;" horiz-adv-x="1456" 
d="M1149 1679l-326 -151l-317 151l55 115l262 -119l269 117zM885 -25q-356 0 -559 199t-203 541q0 347 195 550t546 203q151 0 244 -20t174 -57l-47 -138q-61 22 -99.5 33.5t-112 23t-155.5 11.5q-117 0 -216.5 -33t-180 -101t-126.5 -183.5t-46 -268.5q0 -157 48 -276.5
t133 -191t192.5 -107t234.5 -35.5q131 0 234 31v557h168v-666q-209 -72 -424 -72z" />
    <glyph glyph-name="uni01E7" unicode="&#x1e7;" horiz-adv-x="1200" 
d="M543 399q-117 0 -201 37q-41 -60 -41 -112q0 -38 23 -62t59 -24h254q214 0 317 -79.5t103 -211.5q0 -79 -38 -153.5t-107 -133.5t-177.5 -95t-238.5 -36q-205 0 -315.5 84t-110.5 225q0 175 166 297q-72 48 -72 144q0 114 94 204q-129 98 -129 277q0 78 26 146t76 122
t131.5 85.5t184.5 31.5q73 0 137 -17t89 -31t42 -28l318 6v-135h-203q41 -66 41 -172q0 -166 -120.5 -267.5t-307.5 -101.5zM629 98h-254q-27 0 -37 2q-127 -100 -127 -225q0 -100 80 -156.5t227 -56.5q175 0 281 80.5t106 187.5q0 74 -63.5 121t-212.5 47zM547 516
q121 0 193.5 69t72.5 185q0 112 -71 186t-193 74t-193 -71t-71 -189q0 -120 72.5 -187t189.5 -67zM553 1276l-330 227l66 96l266 -174l270 177l66 -97z" />
    <glyph glyph-name="uni01E8" unicode="&#x1e8;" horiz-adv-x="1286" 
d="M1044 0l-606 758v30l574 660h213l-600 -670l641 -778h-222zM217 0v1448h168v-1448h-168zM997 1679l-325 -151l-318 151l56 115l262 -119l268 117z" />
    <glyph glyph-name="uni01E9" unicode="&#x1e9;" horiz-adv-x="1099" 
d="M840 0l-461 592l471 526h186l-475 -522l479 -596h-200zM172 0v1544h162v-1544h-162zM928 1679l-326 -151l-317 151l55 115l262 -119l268 117z" />
    <glyph glyph-name="uni01EA" unicode="&#x1ea;" horiz-adv-x="1695" 
d="M1026 -430q-66 -41 -168 -41q-120 0 -178.5 61.5t-58.5 157.5q0 119 133 232q-198 16 -341.5 114.5t-216.5 261t-73 371.5q0 339 201.5 540t535.5 201q171 0 307.5 -57t224.5 -157.5t134.5 -236t46.5 -294.5q0 -309 -169 -509t-466 -232q-168 -105 -168 -213
q0 -56 33.5 -84.5t89.5 -28.5q46 0 98 25zM838 115q141 0 250 46.5t177.5 130t103 193t34.5 240.5q0 174 -63 309t-189 215t-299 80q-137 0 -244.5 -45.5t-176 -127t-104.5 -190t-36 -237.5q0 -100 21.5 -190.5t66 -168t108.5 -134.5t154 -89t197 -32z" />
    <glyph glyph-name="uni01EB" unicode="&#x1eb;" horiz-adv-x="1224" 
d="M836 -430q-66 -41 -168 -41q-120 0 -179 62t-59 157q0 115 131 229q-213 14 -332.5 162.5t-119.5 407.5q0 285 141 442.5t379 157.5q236 0 361.5 -151.5t125.5 -430.5q0 -230 -88.5 -372t-243.5 -191q-87 -47 -145.5 -108t-58.5 -125q0 -56 33 -84.5t89 -28.5q47 0 99 25
zM616 109q78 0 138 26t97 67.5t60.5 101t32 120.5t8.5 131q0 69 -8.5 129.5t-31.5 122.5t-59 106.5t-97 72.5t-140 28t-140.5 -27.5t-99 -72t-62 -106.5t-33.5 -123.5t-9 -129.5q0 -72 10.5 -134.5t35.5 -121t63.5 -100t98.5 -66t136 -24.5z" />
    <glyph glyph-name="uni01EC" unicode="&#x1ec;" horiz-adv-x="1695" 
d="M1026 -430q-66 -41 -168 -41q-120 0 -178.5 61.5t-58.5 157.5q0 119 133 232q-198 16 -341.5 114.5t-216.5 261t-73 371.5q0 339 201.5 540t535.5 201q171 0 307.5 -57t224.5 -157.5t134.5 -236t46.5 -294.5q0 -309 -169 -509t-466 -232q-168 -105 -168 -213
q0 -56 33.5 -84.5t89.5 -28.5q46 0 98 25zM838 115q141 0 250 46.5t177.5 130t103 193t34.5 240.5q0 174 -63 309t-189 215t-299 80q-137 0 -244.5 -45.5t-176 -127t-104.5 -190t-36 -237.5q0 -100 21.5 -190.5t66 -168t108.5 -134.5t154 -89t197 -32zM565 1608v133h547
v-133h-547z" />
    <glyph glyph-name="uni01ED" unicode="&#x1ed;" horiz-adv-x="1224" 
d="M836 -430q-66 -41 -168 -41q-120 0 -179 62t-59 157q0 115 131 229q-213 14 -332.5 162.5t-119.5 407.5q0 285 141 442.5t379 157.5q236 0 361.5 -151.5t125.5 -430.5q0 -230 -88.5 -372t-243.5 -191q-87 -47 -145.5 -108t-58.5 -125q0 -56 33 -84.5t89 -28.5q47 0 99 25
zM616 109q78 0 138 26t97 67.5t60.5 101t32 120.5t8.5 131q0 69 -8.5 129.5t-31.5 122.5t-59 106.5t-97 72.5t-140 28t-140.5 -27.5t-99 -72t-62 -106.5t-33.5 -123.5t-9 -129.5q0 -72 10.5 -134.5t35.5 -121t63.5 -100t98.5 -66t136 -24.5zM336 1368v133h547v-133h-547z
" />
    <glyph glyph-name="uni01EE" unicode="&#x1ee;" horiz-adv-x="1103" 
d="M844 1679l-326 -151l-317 151l55 115l262 -119l268 117zM336 815l426 488h-647v145h829v-133l-434 -492q128 -15 233.5 -65.5t172.5 -138.5t67 -197q0 -104 -41 -190t-110 -141.5t-158.5 -85.5t-188.5 -30q-129 0 -233.5 27.5t-163.5 67.5l49 133q64 -36 157 -62t175 -26
q65 0 123 15.5t108.5 48.5t80.5 92.5t30 138.5q0 66 -33.5 120.5t-89 89t-122.5 54t-138 22.5q-36 3 -72 0z" />
    <glyph glyph-name="uni01EF" unicode="&#x1ef;" horiz-adv-x="968" 
d="M256 371v127l422 479h-608v141h792v-131l-446 -502q190 -25 323 -136t133 -275q0 -97 -40.5 -181.5t-109.5 -145.5t-162 -107.5t-196.5 -72.5t-213.5 -36l-27 131q118 14 219 44t184 77.5t131 119.5t48 160q0 59 -27.5 109t-72.5 84t-104.5 59t-120.5 38.5t-124 17.5z
M449 1276l-330 227l65 96l267 -174l270 177l65 -97z" />
    <glyph glyph-name="uni01F1" unicode="&#x1f1;" horiz-adv-x="2670" 
d="M1587 0v145l766 1158h-713v145h902v-133l-777 -1170h820v-145h-998zM217 0v1448h391q142 0 263.5 -26.5t223 -83t172.5 -140t110.5 -203t39.5 -266.5q0 -187 -56 -327.5t-161.5 -228t-250 -130.5t-328.5 -43h-404zM385 139h258q286 0 443 144.5t157 423.5
q0 151 -45.5 266.5t-130.5 188.5t-202 110t-263 37h-217v-1170z" />
    <glyph glyph-name="uni01F2" unicode="&#x1f2;" horiz-adv-x="2555" 
d="M1606 0v139l661 838h-608v141h792v-131l-665 -846h674v-141h-854zM217 0v1448h391q142 0 263.5 -26.5t223 -83t172.5 -140t110.5 -203t39.5 -266.5q0 -187 -56 -327.5t-161.5 -228t-250 -130.5t-328.5 -43h-404zM385 139h258q286 0 443 144.5t157 423.5
q0 151 -45.5 266.5t-130.5 188.5t-202 110t-263 37h-217v-1170z" />
    <glyph glyph-name="uni01F3" unicode="&#x1f3;" horiz-adv-x="2240" 
d="M1292 0v139l662 838h-608v141h792v-131l-665 -846h673v-141h-854zM557 -20q-59 0 -115 12.5t-118.5 50t-108 96.5t-76 161t-30.5 235q0 156 41 274.5t115.5 191.5t174.5 109.5t224 36.5q89 0 196 -29v426h162v-1544h-162v106q-69 -62 -137.5 -94t-165.5 -32zM578 117
q140 0 282 125v737q-90 35 -207 35q-85 0 -152 -26t-109 -69.5t-70 -105t-39 -127t-11 -141.5q0 -212 85 -320t221 -108z" />
    <glyph glyph-name="uni01F4" unicode="&#x1f4;" horiz-adv-x="1456" 
d="M680 1530l-33 106l449 172l43 -137zM885 -25q-356 0 -559 199t-203 541q0 347 195 550t546 203q151 0 244 -20t174 -57l-47 -138q-61 22 -99.5 33.5t-112 23t-155.5 11.5q-117 0 -216.5 -33t-180 -101t-126.5 -183.5t-46 -268.5q0 -157 48 -276.5t133 -191t192.5 -107
t234.5 -35.5q131 0 234 31v557h168v-666q-209 -72 -424 -72z" />
    <glyph glyph-name="uni01F5" unicode="&#x1f5;" horiz-adv-x="1200" 
d="M543 399q-117 0 -201 37q-41 -60 -41 -112q0 -38 23 -62t59 -24h254q214 0 317 -79.5t103 -211.5q0 -79 -38 -153.5t-107 -133.5t-177.5 -95t-238.5 -36q-205 0 -315.5 84t-110.5 225q0 175 166 297q-72 48 -72 144q0 114 94 204q-129 98 -129 277q0 78 26 146t76 122
t131.5 85.5t184.5 31.5q73 0 137 -17t89 -31t42 -28l318 6v-135h-203q41 -66 41 -172q0 -166 -120.5 -267.5t-307.5 -101.5zM629 98h-254q-27 0 -37 2q-127 -100 -127 -225q0 -100 80 -156.5t227 -56.5q175 0 281 80.5t106 187.5q0 74 -63.5 121t-212.5 47zM547 516
q121 0 193.5 69t72.5 185q0 112 -71 186t-193 74t-193 -71t-71 -189q0 -120 72.5 -187t189.5 -67zM516 1266l-57 100l385 262l71 -115z" />
    <glyph glyph-name="uni01F8" unicode="&#x1f8;" horiz-adv-x="1576" 
d="M977 1530l-459 133l43 139l453 -164zM217 0v1448h215l762 -1258h4l-8 183v1075h170v-1448h-225l-752 1239h-6l8 -149v-1090h-168z" />
    <glyph glyph-name="uni01F9" unicode="&#x1f9;" horiz-adv-x="1232" 
d="M737 1266l-395 245l72 123l387 -266zM172 0v1118h162v-127q70 52 118.5 81t123.5 52t157 23q66 0 118.5 -14.5t87.5 -36.5t60 -58t39 -70t21.5 -81t9.5 -83t2 -83v-721h-158v690q0 79 -8 131.5t-31 96.5t-68 65t-114 21q-97 0 -181.5 -37t-176.5 -101v-866h-162z" />
    <glyph glyph-name="uni01FA" unicode="&#x1fa;" horiz-adv-x="1374" 
d="M0 0l594 1448h219l526 -1448h-182l-192 541h-572l-215 -541h-178zM444 676h476l-226 653zM500 1839l-33 107l448 172l43 -138zM709 1481q-86 0 -144.5 44.5t-58.5 135.5q0 88 58.5 137t140.5 49q78 0 139 -45t61 -137q0 -86 -55.5 -135t-140.5 -49zM707 1556
q51 0 79.5 28.5t28.5 78.5q0 46 -32.5 76t-77.5 30q-51 0 -81 -26.5t-30 -75.5t31.5 -80t81.5 -31z" />
    <glyph glyph-name="uni01FB" unicode="&#x1fb;" horiz-adv-x="1130" 
d="M422 -18q-155 0 -244.5 82.5t-89.5 232.5q0 80 27.5 141.5t70 97.5t102 59.5t113.5 32t115 9.5l266 4v143q0 128 -60.5 175t-199.5 47q-156 0 -303 -56l-37 127q163 70 363 70q395 0 395 -309v-619q0 -30 11 -51t30 -31.5t38.5 -15t41.5 -4.5l-6 -125q-20 -4 -45 -4
q-81 0 -143 35.5t-72 105.5q-37 -29 -58 -43.5t-73.5 -44t-113.5 -44.5t-128 -15zM459 113q151 0 323 125v290l-268 -10q-130 -4 -200 -60t-70 -155q0 -93 59 -141.5t156 -48.5zM391 1632l-33 107l449 172l43 -137zM582 1237q-90 0 -150.5 46t-60.5 138q0 91 61 142t146 51
q36 0 70.5 -10.5t66 -31.5t50.5 -59t19 -88q0 -88 -57 -138t-145 -50zM580 1315q51 0 80.5 28.5t29.5 79.5q0 48 -33 79.5t-79 31.5q-53 0 -84 -28.5t-31 -78.5t32.5 -81t84.5 -31z" />
    <glyph glyph-name="AEacute" unicode="&#x1fc;" horiz-adv-x="1869" 
d="M1022 1530l-33 106l449 172l43 -137zM-29 0l770 1448h965v-137h-643v-514h598v-140h-598v-518h692v-139h-860v637h-403l-330 -637h-191zM559 774h336v537h-57z" />
    <glyph glyph-name="aeacute" unicode="&#x1fd;" horiz-adv-x="1779" 
d="M782 1266l-57 100l385 262l72 -115zM1305 -18q-324 0 -451 194q-103 -76 -163 -109q-151 -83 -285 -83q-151 0 -234.5 81.5t-83.5 233.5q0 78 27.5 138.5t70 96t102 58.5t113.5 31.5t115 9.5q252 6 264 6v154q0 69 -15.5 111.5t-53 65t-86 29.5t-129.5 7q-35 0 -81 -7
t-78 -14t-71 -17t-47 -12l-35 123q168 66 359 66q134 0 225 -34.5t135 -125.5q127 160 373 160q197 0 297 -135.5t100 -399.5v-59l-737 -29q2 -102 24 -175.5t56.5 -117t90 -68t112 -32.5t135.5 -8q91 0 274 39l27 -129q-123 -49 -350 -49zM444 117q64 0 178 50.5t191 98.5
q-30 100 -37 254l-258 -8q-139 -3 -207.5 -58t-68.5 -139q0 -112 52.5 -155t149.5 -43zM942 647l563 27q0 160 -66.5 255t-187.5 95q-125 0 -212 -93.5t-97 -283.5z" />
    <glyph glyph-name="Oslashacute" unicode="&#x1fe;" horiz-adv-x="1759" 
d="M186 -61l-77 79l196 205q-151 195 -151 504q0 339 201.5 540t535.5 201q284 0 469 -155l194 200l84 -75l-198 -205q164 -200 164 -510q0 -221 -88 -389.5t-257 -263.5t-397 -95q-293 0 -479 166zM868 115q141 0 250.5 46.5t177.5 129.5t103 193t35 241q0 230 -111 387
l-827 -854q143 -143 372 -143zM322 729q0 -231 102 -385l825 854q-140 131 -366 131q-137 0 -244.5 -45.5t-176 -127t-104.5 -190t-36 -237.5zM713 1530l-33 106l448 172l43 -137z" />
    <glyph glyph-name="oslashacute" unicode="&#x1ff;" horiz-adv-x="1273" 
d="M629 -25q-205 0 -334 117l-135 -155l-72 69l141 162q-98 146 -98 379q0 285 141 442.5t379 157.5q204 0 328 -115l121 139l74 -67l-132 -150q97 -151 97 -389q0 -148 -38 -262t-107 -185t-161 -107t-204 -36zM639 109q78 0 138 26t97 67.5t60.5 101t32 120.5t8.5 131
q0 156 -45 268l-535 -614q90 -100 244 -100zM295 555q0 -154 45 -258l534 616q-84 101 -235 101q-79 0 -140.5 -27.5t-99 -72t-62 -106.5t-33.5 -123.5t-9 -129.5zM504 1266l-58 100l385 262l72 -115z" />
    <glyph glyph-name="Scommaaccent" unicode="&#x218;" horiz-adv-x="1110" 
d="M618 -119l-79 -416h-121l43 416h157zM504 -25q-238 0 -404 101l54 139q184 -92 352 -92q64 0 121.5 13t108 40.5t80.5 77.5t30 117q0 58 -24.5 105t-65.5 80t-94.5 61.5t-112.5 54.5t-117.5 53.5t-112 63t-94.5 78.5t-65.5 105t-24.5 138q0 112 60.5 195t157 123
t214.5 40q209 0 357 -79l-52 -132q-153 70 -301 70q-120 0 -197 -54t-77 -159q0 -58 31 -106t81.5 -81t115 -66.5t132 -62t132 -68.5t115 -85t81.5 -112.5t31 -149.5q0 -101 -40.5 -180t-111 -128t-162.5 -74.5t-198 -25.5z" />
    <glyph glyph-name="scommaaccent" unicode="&#x219;" horiz-adv-x="917" 
d="M541 -119l-80 -416h-121l43 416h158zM399 -25q-161 0 -313 50l27 137q166 -49 299 -49q124 0 196 46t72 128q0 45 -24 80.5t-64 58.5t-90.5 46.5t-103 43t-103 49t-90.5 63.5t-64 87t-24 119q0 148 107.5 230.5t271.5 82.5q159 0 280 -53l-37 -129q-117 47 -245 47
q-110 0 -165 -45.5t-55 -118.5q0 -52 31 -91.5t80.5 -65.5t109 -50t119 -52.5t109 -64.5t80.5 -94t31 -133q0 -69 -26.5 -125t-69 -92t-100.5 -60.5t-117 -34.5t-122 -10z" />
    <glyph glyph-name="uni021A" unicode="&#x21a;" horiz-adv-x="1196" 
d="M688 -119l-80 -416h-121l43 416h158zM514 0v1305h-496v143h1160v-143h-496v-1305h-168z" />
    <glyph glyph-name="uni021B" unicode="&#x21b;" horiz-adv-x="815" 
d="M606 -119l-80 -416h-120l43 416h157zM553 -25q-82 0 -142 15.5t-106 53t-69 104t-23 163.5v670h-164v137h164v230h158v-230h350v-137h-348v-664q0 -113 48.5 -156.5t151.5 -43.5q92 0 189 33l29 -134q-46 -16 -115 -28.5t-123 -12.5z" />
    <glyph glyph-name="uni021C" unicode="&#x21c;" horiz-adv-x="1103" 
d="M336 815l426 488h-647v145h829v-133l-434 -492q128 -15 233.5 -65.5t172.5 -138.5t67 -197q0 -104 -41 -190t-110 -141.5t-158.5 -85.5t-188.5 -30q-129 0 -233.5 27.5t-163.5 67.5l49 133q64 -36 157 -62t175 -26q65 0 123 15.5t108.5 48.5t80.5 92.5t30 138.5
q0 66 -33.5 120.5t-89 89t-122.5 54t-138 22.5q-36 3 -72 0z" />
    <glyph glyph-name="uni021D" unicode="&#x21d;" horiz-adv-x="968" 
d="M256 371v127l422 479h-608v141h792v-131l-446 -502q190 -25 323 -136t133 -275q0 -97 -40.5 -181.5t-109.5 -145.5t-162 -107.5t-196.5 -72.5t-213.5 -36l-27 131q118 14 219 44t184 77.5t131 119.5t48 160q0 59 -27.5 109t-72.5 84t-104.5 59t-120.5 38.5t-124 17.5z
" />
    <glyph glyph-name="uni021E" unicode="&#x21e;" horiz-adv-x="1564" 
d="M217 0v1448h168v-651h795v651h168v-1448h-168v657h-795v-657h-168zM1102 1679l-326 -151l-317 151l55 115l262 -119l268 117z" />
    <glyph glyph-name="uni021F" unicode="&#x21f;" horiz-adv-x="1230" 
d="M172 0v1544h162v-555q44 33 78 54.5t86 48t111 40t122 13.5q66 0 119 -14.5t88 -36.5t60 -58t38.5 -69.5t21 -80.5t9.5 -82.5t2 -82.5v-721h-156v688q0 79 -8.5 132t-31 96.5t-67 64t-112.5 20.5q-51 0 -100.5 -11.5t-99.5 -35.5t-80.5 -41.5t-79.5 -48.5v-864h-162z
M977 1679l-326 -151l-317 151l55 115l262 -119l269 117z" />
    <glyph glyph-name="uni0226" unicode="&#x226;" horiz-adv-x="1374" 
d="M0 0l594 1448h219l526 -1448h-182l-192 541h-572l-215 -541h-178zM444 676h476l-226 653zM774 1593h-158v191h158v-191z" />
    <glyph glyph-name="uni0227" unicode="&#x227;" horiz-adv-x="1130" 
d="M422 -18q-155 0 -244.5 82.5t-89.5 232.5q0 80 27.5 141.5t70 97.5t102 59.5t113.5 32t115 9.5l266 4v143q0 128 -60.5 175t-199.5 47q-156 0 -303 -56l-37 127q163 70 363 70q395 0 395 -309v-619q0 -30 11 -51t30 -31.5t38.5 -15t41.5 -4.5l-6 -125q-20 -4 -45 -4
q-81 0 -143 35.5t-72 105.5q-37 -29 -58 -43.5t-73.5 -44t-113.5 -44.5t-128 -15zM459 113q151 0 323 125v290l-268 -10q-130 -4 -200 -60t-70 -155q0 -93 59 -141.5t156 -48.5zM651 1370h-157v191h157v-191z" />
    <glyph glyph-name="uni0228" unicode="&#x228;" horiz-adv-x="1191" 
d="M217 0v1448h811v-137h-643v-514h598v-140h-598v-518h690v-139h-858zM551 -492l-53 93q120 74 120 157q0 49 -49 138h158q41 -73 41 -138q3 -156 -217 -250z" />
    <glyph glyph-name="uni0229" unicode="&#x229;" horiz-adv-x="1118" 
d="M641 -25q-127 0 -221 28.5t-165.5 92.5t-107.5 174t-36 267q0 159 37.5 278.5t104.5 190.5t153.5 106t191.5 35q212 0 313 -138.5t101 -420.5v-60h-738q1 -125 32 -209.5t88 -127.5t121.5 -59.5t152.5 -16.5q136 0 297 51l28 -131q-144 -60 -352 -60zM276 649h568
q0 176 -64.5 273.5t-197.5 97.5q-126 0 -209.5 -95t-96.5 -276zM487 -492l-53 93q121 75 121 157q0 49 -49 138h158q41 -73 41 -138q3 -156 -218 -250z" />
    <glyph glyph-name="uni022E" unicode="&#x22e;" horiz-adv-x="1695" 
d="M928 1593h-158v191h158v-191zM831 -25q-221 0 -382.5 96t-243.5 265t-82 391q0 339 201.5 540t535.5 201q171 0 307.5 -57t224.5 -157.5t134.5 -236t46.5 -294.5q0 -221 -88 -389.5t-257 -263.5t-397 -95zM838 115q141 0 250 46.5t177.5 130t103 193t34.5 240.5
q0 174 -63 309t-189 215t-299 80q-137 0 -244.5 -45.5t-176 -127t-104.5 -190t-36 -237.5q0 -100 21.5 -190.5t66 -168t108.5 -134.5t154 -89t197 -32z" />
    <glyph glyph-name="uni022F" unicode="&#x22f;" horiz-adv-x="1224" 
d="M606 -25q-232 0 -364.5 149.5t-132.5 422.5q0 285 141 442.5t379 157.5q236 0 361.5 -151.5t125.5 -430.5q0 -148 -38 -262t-107 -185t-161 -107t-204 -36zM616 109q78 0 138 26t97 67.5t60.5 101t32 120.5t8.5 131q0 69 -8.5 129.5t-31.5 122.5t-59 106.5t-97 72.5
t-140 28t-140.5 -27.5t-99 -72t-62 -106.5t-33.5 -123.5t-9 -129.5q0 -72 10.5 -134.5t35.5 -121t63.5 -100t98.5 -66t136 -24.5zM688 1370h-158v191h158v-191z" />
    <glyph glyph-name="uni0232" unicode="&#x232;" horiz-adv-x="1232" 
d="M528 0v549l-473 899h191l372 -750l402 750h180l-504 -899v-549h-168zM346 1608v133h547v-133h-547z" />
    <glyph glyph-name="uni0233" unicode="&#x233;" horiz-adv-x="1046" 
d="M319 -451l152 451h-76l-360 1118h176l242 -799l63 -200l66 196l274 803h166l-547 -1569h-156zM250 1370v133h547v-133h-547z" />
    <glyph glyph-name="uni0237" unicode="&#x237;" horiz-adv-x="509" 
d="M-41 -459q-78 0 -143 25l28 131q58 -16 117 -16q118 0 164.5 72t46.5 210v1155h164v-1157q0 -119 -28.5 -203.5t-81.5 -130.5t-118 -66t-149 -20z" />
    <glyph glyph-name="uni0259" unicode="&#x259;" horiz-adv-x="1118" 
d="M479 1147q127 0 221 -28.5t165 -92.5t107 -175t36 -269q0 -164 -37.5 -284t-107 -189.5t-157.5 -101.5t-198 -32q-205 0 -303.5 139.5t-98.5 420.5v57h738q-2 105 -24 180.5t-56.5 120.5t-89.5 71.5t-111.5 35t-132.5 8.5q-53 0 -137.5 -16t-138.5 -31l-29 131
q153 55 354 55zM842 473h-568q0 -176 65 -276.5t193 -100.5q131 0 214 97t96 280z" />
    <glyph glyph-name="uni02BC" unicode="&#x2bc;" horiz-adv-x="1333" 
d="M-10 1135q23 50 40 122t17 129v160h154v-82q0 -193 -82 -329h-129z" />
    <glyph glyph-name="circumflex" unicode="&#x2c6;" horiz-adv-x="1105" 
d="M727 1288l-246 170l-264 -172l-70 94l340 232l312 -228z" />
    <glyph glyph-name="caron" unicode="&#x2c7;" horiz-adv-x="1105" 
d="M547 1276l-330 227l66 96l266 -174l270 177l66 -97z" />
    <glyph glyph-name="breve" unicode="&#x2d8;" horiz-adv-x="1024" 
d="M549 1319q-111 0 -189.5 51t-117.5 123l90 78q96 -121 223 -121q140 0 221 119l84 -72q-41 -71 -119 -124.5t-192 -53.5z" />
    <glyph glyph-name="dotaccent" unicode="&#x2d9;" horiz-adv-x="567" 
d="M360 1370h-157v191h157v-191z" />
    <glyph glyph-name="ring" unicode="&#x2da;" horiz-adv-x="1097" 
d="M553 1257q-95 0 -161 50.5t-66 150.5q0 98 65.5 153.5t157.5 55.5q39 0 76.5 -11t72 -33.5t55.5 -64t21 -96.5q0 -96 -62.5 -150.5t-158.5 -54.5zM551 1341q57 0 89 31.5t34 87.5q0 54 -36 86.5t-89 32.5q-58 0 -90.5 -30t-32.5 -85t34.5 -89t90.5 -34z" />
    <glyph glyph-name="ogonek" unicode="&#x2db;" horiz-adv-x="1157" 
d="M987 -430q-66 -41 -168 -41q-120 0 -178.5 61.5t-58.5 157.5q0 72 53 144t125.5 123t154.5 87l62 -79q-100 -46 -173 -114t-73 -140q0 -56 33.5 -84.5t89.5 -28.5q46 0 98 25z" />
    <glyph glyph-name="tilde" unicode="&#x2dc;" horiz-adv-x="1105" 
d="M674 1321q-49 0 -130 38t-124 38q-46 0 -75 -11t-66 -40l-64 94q92 92 215 92q46 0 92 -19t86.5 -38t73.5 -19q32 0 64 12t44 20t35 25l64 -90q-89 -102 -215 -102z" />
    <glyph glyph-name="hungarumlaut" unicode="&#x2dd;" horiz-adv-x="1169" 
d="M182 1255l-69 99l374 288l88 -122zM643 1264l-63 100l389 270l84 -125z" />
    <glyph glyph-name="gravecmb" unicode="&#x300;" horiz-adv-x="0" 
d="M-520 1266l-398 245l74 123l387 -264z" />
    <glyph glyph-name="acutecmb" unicode="&#x301;" horiz-adv-x="0" 
d="M-725 1266l-63 106l387 262l73 -121z" />
    <glyph glyph-name="uni0302" unicode="&#x302;" horiz-adv-x="0" 
d="M-344 1305l-260 153l-273 -155l-67 100l340 209l323 -207z" />
    <glyph glyph-name="tildecmb" unicode="&#x303;" horiz-adv-x="0" 
d="M-485 1321q-49 0 -129.5 38t-124.5 38q-46 0 -75.5 -11t-64.5 -40l-65 94q1 1 10.5 9.5t15.5 13.5t19 15t24 16t28.5 14t34.5 12.5t38.5 8t44.5 3.5q46 0 92 -19t86.5 -38t73.5 -19q68 0 145 57l62 -90q-14 -18 -36.5 -37.5t-73 -42t-105.5 -22.5z" />
    <glyph glyph-name="uni0304" unicode="&#x304;" horiz-adv-x="0" 
d="M-924 1368v133h613v-133h-613z" />
    <glyph glyph-name="uni0306" unicode="&#x306;" horiz-adv-x="0" 
d="M-608 1309q-107 0 -192 50t-142 130l88 84q111 -127 248 -127t248 127l84 -84q-56 -79 -141.5 -129.5t-192.5 -50.5z" />
    <glyph glyph-name="uni0307" unicode="&#x307;" horiz-adv-x="0" 
d="M-549 1370h-158v191h158v-191z" />
    <glyph glyph-name="uni0308" unicode="&#x308;" horiz-adv-x="0" 
d="M-741 1366h-158v190h158v-190zM-336 1366h-158v190h158v-190z" />
    <glyph glyph-name="hookcmb" unicode="&#x309;" horiz-adv-x="0" 
d="M-463 1548q0 -47 -17 -90t-44.5 -73.5t-54 -51.5t-52.5 -33l-82 80q14 6 30.5 17t38.5 30.5t36 48.5t14 62q0 43 -27.5 62.5t-60.5 19.5q-52 0 -94 -18l-6 108q59 27 131 27q81 0 135 -51q53 -53 53 -138z" />
    <glyph glyph-name="uni030A" unicode="&#x30a;" horiz-adv-x="0" 
d="M-612 1274q-90 0 -150.5 46t-60.5 138q0 91 61 142t146 51q36 0 70.5 -10.5t66 -31.5t50.5 -59t19 -88q0 -88 -57 -138t-145 -50zM-614 1352q51 0 80.5 28.5t29.5 79.5q0 48 -33 79.5t-79 31.5q-53 0 -84 -28.5t-31 -78.5t32.5 -81t84.5 -31z" />
    <glyph glyph-name="uni030B" unicode="&#x30b;" horiz-adv-x="0" 
d="M-903 1255l-70 99l375 288l88 -122zM-442 1264l-64 100l391 270l82 -125z" />
    <glyph glyph-name="uni030C" unicode="&#x30c;" horiz-adv-x="0" 
d="M-631 1270l-317 198l65 97l256 -144l262 152l68 -96z" />
    <glyph glyph-name="uni0310" unicode="&#x310;" horiz-adv-x="0" 
d="M-600 1317q-111 0 -198 56t-126 132l93 80q101 -131 235 -131q145 0 244 133l90 -76q-43 -74 -132.5 -134t-205.5 -60zM-516 1569h-158v190h158v-190z" />
    <glyph glyph-name="dotbelowcmb" unicode="&#x323;" horiz-adv-x="0" 
d="M-514 -420h-158v191h158v-191z" />
    <glyph glyph-name="uni0324" unicode="&#x324;" horiz-adv-x="0" 
d="M-737 -420h-158v191h158v-191zM-305 -420h-158v191h158v-191z" />
    <glyph glyph-name="uni0325" unicode="&#x325;" horiz-adv-x="0" 
d="M-592 -500q-89 0 -150 47.5t-61 139.5q0 90 61 141t146 51q35 0 69.5 -10.5t66.5 -31t51.5 -58.5t19.5 -88q0 -88 -57.5 -139.5t-145.5 -51.5zM-594 -420q51 0 81 29t30 80q0 48 -33.5 78t-79.5 30q-53 0 -84 -27.5t-31 -76.5q0 -51 33 -82t84 -31z" />
    <glyph glyph-name="uni0327" unicode="&#x327;" horiz-adv-x="0" 
d="M-688 -492l-53 93q118 73 118 157q0 53 -47 138h156q43 -71 43 -138q3 -156 -217 -250z" />
    <glyph glyph-name="uni0328" unicode="&#x328;" horiz-adv-x="0" 
d="M-553 -473q-240 0 -240 223q0 48 27.5 98t64.5 87.5t88.5 75t85 57.5t68.5 38l66 -86q-23 -12 -60.5 -38t-81.5 -63.5t-75 -82t-31 -80.5q0 -55 32.5 -75.5t94.5 -20.5q48 0 94 12l35 -112q-64 -33 -168 -33z" />
    <glyph glyph-name="uni032E" unicode="&#x32e;" horiz-adv-x="0" 
d="M-608 -434q-107 0 -193 50t-141 130l88 84q111 -127 248 -127q138 0 246 127l86 -84q-58 -79 -143.5 -129.5t-190.5 -50.5z" />
    <glyph glyph-name="uni0331" unicode="&#x331;" horiz-adv-x="0" 
d="M-881 -406v134h547v-134h-547z" />
    <glyph glyph-name="uni0374" unicode="&#x374;" horiz-adv-x="356" 
d="M61 1135q56 122 56 219v192h164v-82q0 -110 -21.5 -185.5t-60.5 -143.5h-138z" />
    <glyph glyph-name="uni0375" unicode="&#x375;" horiz-adv-x="434" 
d="M150 -250q53 140 53 219v195h166v-84q0 -107 -22.5 -183t-61.5 -147h-135z" />
    <glyph glyph-name="uni037E" unicode="&#x37e;" horiz-adv-x="1544" 
d="M864 934h-192v184h192v-184zM862 82q0 -188 -88 -338h-139q53 144 53 225v201h174v-88z" />
    <glyph glyph-name="tonos" unicode="&#x384;" horiz-adv-x="970" 
d="M700 1292l156 324h164l-182 -324h-138z" />
    <glyph glyph-name="dieresistonos" unicode="&#x385;" horiz-adv-x="940" 
d="M346 1276l137 323h164l-170 -323h-131zM270 1280h-157v190h157v-190zM811 1280h-158v190h158v-190z" />
    <glyph glyph-name="Alphatonos" unicode="&#x386;" horiz-adv-x="1366" 
d="M-2 0l594 1448h219l526 -1448h-182l-192 541h-572l-215 -541h-178zM442 676h476l-226 653zM49 1122l123 326h164l-148 -326h-139z" />
    <glyph glyph-name="anoteleia" unicode="&#x387;" horiz-adv-x="493" 
d="M141 637v192h195v-192h-195z" />
    <glyph glyph-name="Epsilontonos" unicode="&#x388;" horiz-adv-x="1189" 
d="M-205 1122l123 326h164l-148 -326h-139zM217 0v1448h811v-137h-643v-514h598v-140h-598v-518h690v-139h-858z" />
    <glyph glyph-name="Etatonos" unicode="&#x389;" horiz-adv-x="1564" 
d="M217 0v1448h168v-651h795v651h168v-1448h-168v657h-795v-657h-168zM-205 1122l123 326h164l-148 -326h-139z" />
    <glyph glyph-name="Iotatonos" unicode="&#x38a;" horiz-adv-x="602" 
d="M217 0v1448h168v-1448h-168zM-203 1122l123 326h164l-147 -326h-140z" />
    <glyph glyph-name="Omicrontonos" unicode="&#x38c;" horiz-adv-x="1695" 
d="M-150 1122l123 326h164l-147 -326h-140zM831 -25q-221 0 -382.5 96t-243.5 265t-82 391q0 339 201.5 540t535.5 201q171 0 307.5 -57t224.5 -157.5t134.5 -236t46.5 -294.5q0 -221 -88 -389.5t-257 -263.5t-397 -95zM838 115q141 0 250 46.5t177.5 130t103 193
t34.5 240.5q0 174 -63 309t-189 215t-299 80q-137 0 -244.5 -45.5t-176 -127t-104.5 -190t-36 -237.5q0 -100 21.5 -190.5t66 -168t108.5 -134.5t154 -89t197 -32z" />
    <glyph glyph-name="Upsilontonos" unicode="&#x38e;" horiz-adv-x="1239" 
d="M530 0v549l-473 899h191l373 -750l401 750h180l-504 -899v-549h-168zM-317 1122l122 326h164l-147 -326h-139z" />
    <glyph glyph-name="Omegatonos" unicode="&#x38f;" horiz-adv-x="1746" 
d="M-127 1122l123 326h164l-148 -326h-139zM98 0v147h437q-73 35 -136.5 90t-116.5 131t-83.5 180t-30.5 224q0 313 194.5 504.5t520.5 191.5q137 0 252 -36.5t196 -100t137.5 -150.5t83.5 -187.5t27 -211.5q0 -118 -31 -221.5t-86 -180.5t-118.5 -134t-139.5 -99h445v-147
h-623v145q127 96 207 185t126 200t46 240q0 115 -34.5 214t-100.5 175t-170.5 119t-235.5 43q-130 0 -231 -42.5t-164 -118.5t-95 -177t-32 -223q0 -48 6 -92.5t13 -79.5t24.5 -73t29 -62.5t39.5 -58.5t41.5 -51.5t50.5 -51.5t51.5 -47t57.5 -49.5t58 -49.5v-145h-615z" />
    <glyph glyph-name="iotadieresistonos" unicode="&#x390;" horiz-adv-x="538" 
d="M135 1276l137 323h164l-170 -323h-131zM59 1280h-157v190h157v-190zM600 1280h-158v190h158v-190zM367 -20q-95 0 -148 56.5t-53 166.5v915h160v-872q0 -129 110 -129q13 0 49 4l7 -129q-58 -12 -125 -12z" />
    <glyph glyph-name="Alpha" unicode="&#x391;" horiz-adv-x="1366" 
d="M-2 0l594 1448h219l526 -1448h-182l-192 541h-572l-215 -541h-178zM442 676h476l-226 653z" />
    <glyph glyph-name="Beta" unicode="&#x392;" horiz-adv-x="1300" 
d="M217 0v1448h395q236 0 352.5 -99t116.5 -266q0 -115 -54 -198.5t-146 -116.5v-6q60 -11 112.5 -36.5t96.5 -67t70 -105.5t26 -141q0 -93 -28 -166t-87.5 -129.5t-160 -86.5t-236.5 -30h-457zM385 139h258q65 0 116.5 6.5t100.5 24t81.5 46.5t52.5 77.5t20 112.5
q0 270 -402 270h-227v-537zM385 811h250q137 0 205.5 63t68.5 183q0 142 -84.5 201t-255.5 59h-184v-506z" />
    <glyph glyph-name="Gamma" unicode="&#x393;" horiz-adv-x="1046" 
d="M217 0v1448h823v-137h-655v-1311h-168z" />
    <glyph glyph-name="uni0394" unicode="&#x394;" horiz-adv-x="1406" 
d="M227 145h924l-334 893l-104 291l-121 -303zM-2 0l606 1448h227l555 -1448h-1388z" />
    <glyph glyph-name="Epsilon" unicode="&#x395;" horiz-adv-x="1189" 
d="M217 0v1448h811v-137h-643v-514h598v-140h-598v-518h690v-139h-858z" />
    <glyph glyph-name="Zeta" unicode="&#x396;" horiz-adv-x="1163" 
d="M86 0v145l766 1158h-713v145h901v-133l-776 -1170h819v-145h-997z" />
    <glyph glyph-name="Eta" unicode="&#x397;" horiz-adv-x="1564" 
d="M217 0v1448h168v-651h795v651h168v-1448h-168v657h-795v-657h-168z" />
    <glyph glyph-name="Theta" unicode="&#x398;" horiz-adv-x="1695" 
d="M528 637l-36 108q81 58 221 58q62 0 149.5 -16.5t126.5 -16.5q108 0 180 35l33 -109q-30 -20 -87.5 -37.5t-135.5 -17.5q-55 0 -142 16.5t-132 16.5q-105 0 -177 -37zM831 -25q-221 0 -382.5 96t-243.5 265t-82 391q0 339 201.5 540t535.5 201q171 0 307.5 -57
t224.5 -157.5t134.5 -236t46.5 -294.5q0 -221 -88 -389.5t-257 -263.5t-397 -95zM838 115q141 0 250 46.5t177.5 130t103 193t34.5 240.5q0 174 -63 309t-189 215t-299 80q-137 0 -244.5 -45.5t-176 -127t-104.5 -190t-36 -237.5q0 -100 21.5 -190.5t66 -168t108.5 -134.5
t154 -89t197 -32z" />
    <glyph glyph-name="Iota" unicode="&#x399;" horiz-adv-x="602" 
d="M217 0v1448h168v-1448h-168z" />
    <glyph glyph-name="Kappa" unicode="&#x39a;" horiz-adv-x="1284" 
d="M1044 0l-606 758v30l574 660h213l-600 -670l641 -778h-222zM217 0v1448h168v-1448h-168z" />
    <glyph glyph-name="Lambda" unicode="&#x39b;" horiz-adv-x="1310" 
d="M6 0l549 1448h227l494 -1448h-178l-330 991l-106 330l-121 -334l-367 -987h-168z" />
    <glyph glyph-name="Mu" unicode="&#x39c;" horiz-adv-x="1929" 
d="M217 0v1448h227l496 -1348l557 1348h215v-1448h-170v973l8 223h-6l-487 -1196h-244l-432 1200h-6l10 -201v-999h-168z" />
    <glyph glyph-name="Nu" unicode="&#x39d;" horiz-adv-x="1576" 
d="M217 0v1448h215l762 -1258h4l-8 183v1075h170v-1448h-225l-752 1239h-6l8 -149v-1090h-168z" />
    <glyph glyph-name="Xi" unicode="&#x39e;" horiz-adv-x="1193" 
d="M115 0v150h964v-150h-964zM180 653v148h834v-148h-834zM135 1298v150h924v-150h-924z" />
    <glyph glyph-name="Omicron" unicode="&#x39f;" horiz-adv-x="1695" 
d="M831 -25q-221 0 -382.5 96t-243.5 265t-82 391q0 339 201.5 540t535.5 201q171 0 307.5 -57t224.5 -157.5t134.5 -236t46.5 -294.5q0 -221 -88 -389.5t-257 -263.5t-397 -95zM838 115q141 0 250 46.5t177.5 130t103 193t34.5 240.5q0 174 -63 309t-189 215t-299 80
q-137 0 -244.5 -45.5t-176 -127t-104.5 -190t-36 -237.5q0 -100 21.5 -190.5t66 -168t108.5 -134.5t154 -89t197 -32z" />
    <glyph glyph-name="Pi" unicode="&#x3a0;" horiz-adv-x="1536" 
d="M217 0v1448h1102v-1448h-168v1303h-766v-1303h-168z" />
    <glyph glyph-name="Rho" unicode="&#x3a1;" horiz-adv-x="1232" 
d="M217 0v1448h471q219 0 344 -118t125 -335q0 -99 -34.5 -183t-103 -149.5t-180.5 -103t-257 -37.5h-197v-522h-168zM385 1311v-647h209q180 0 282.5 78t102.5 243q0 166 -83 246t-253 80h-258z" />
    <glyph glyph-name="Sigma" unicode="&#x3a3;" horiz-adv-x="1177" 
d="M102 0v145l437 588l-428 567v148h960v-137h-778l428 -572l-438 -596h796v-143h-977z" />
    <glyph glyph-name="Tau" unicode="&#x3a4;" horiz-adv-x="1185" 
d="M510 0v1305h-496v143h1160v-143h-496v-1305h-168z" />
    <glyph glyph-name="Upsilon" unicode="&#x3a5;" horiz-adv-x="1239" 
d="M530 0v549l-473 899h191l373 -750l401 750h180l-504 -899v-549h-168z" />
    <glyph glyph-name="Phi" unicode="&#x3a6;" horiz-adv-x="1642" 
d="M737 0v174q-143 0 -260.5 36.5t-204 108t-134.5 185.5t-48 260t48 260t134.5 185.5t204 108t260.5 36.5v155h168v-155q143 0 260.5 -36.5t204 -108t134.5 -185.5t48 -260t-48 -260t-134.5 -185.5t-204 -108t-260.5 -36.5v-174h-168zM905 309q225 0 352 118.5t127 336.5
q0 219 -127 337t-352 118v-910zM737 309v910q-225 0 -352 -118t-127 -337q0 -218 127 -336.5t352 -118.5z" />
    <glyph glyph-name="Chi" unicode="&#x3a7;" horiz-adv-x="1241" 
d="M18 0l510 766l-422 682h193l330 -547l352 547h182l-446 -678l479 -770h-197l-381 635l-407 -635h-193z" />
    <glyph glyph-name="Psi" unicode="&#x3a8;" horiz-adv-x="1544" 
d="M694 0v332q-87 6 -163 23t-153 55t-131.5 93.5t-89 144.5t-34.5 202v598h172v-588q0 -82 24.5 -146.5t63 -105.5t93 -70t106.5 -42.5t112 -20.5v973h168v-973q63 8 117.5 24.5t108 49.5t91 79.5t60.5 117.5t23 161v541h161v-545q0 -123 -34.5 -220t-89 -158t-131 -103.5
t-150 -62t-156.5 -27.5v-332h-168z" />
    <glyph glyph-name="uni03A9" unicode="&#x3a9;" horiz-adv-x="1746" 
d="M98 0v147h437q-73 35 -136.5 90t-116.5 131t-83.5 180t-30.5 224q0 313 194.5 504.5t520.5 191.5q137 0 252 -36.5t196 -100t137.5 -150.5t83.5 -187.5t27 -211.5q0 -118 -31 -221.5t-86 -180.5t-118.5 -134t-139.5 -99h445v-147h-623v145q127 96 207 185t126 200t46 240
q0 115 -34.5 214t-100.5 175t-170.5 119t-235.5 43q-130 0 -231 -42.5t-164 -118.5t-95 -177t-32 -223q0 -48 6 -92.5t13 -79.5t24.5 -73t29 -62.5t39.5 -58.5t41.5 -51.5t50.5 -51.5t51.5 -47t57.5 -49.5t58 -49.5v-145h-615z" />
    <glyph glyph-name="Iotadieresis" unicode="&#x3aa;" horiz-adv-x="602" 
d="M217 0v1448h168v-1448h-168zM182 1552h-157v191h157v-191zM582 1552h-160v191h160v-191z" />
    <glyph glyph-name="Upsilondieresis" unicode="&#x3ab;" horiz-adv-x="1239" 
d="M530 0v549l-473 899h191l373 -750l401 750h180l-504 -899v-549h-168zM496 1552h-158v191h158v-191zM895 1552h-160v191h160v-191z" />
    <glyph glyph-name="alphatonos" unicode="&#x3ac;" horiz-adv-x="1226" 
d="M567 1292l156 324h164l-182 -324h-138zM510 -18q-36 0 -70.5 5t-75.5 20t-75.5 39t-67.5 65t-56.5 95t-37.5 132.5t-14 173.5q0 287 123.5 455t318.5 168q212 0 309 -160v143h160v-887q0 -61 26 -87.5t80 -28.5l-10 -127q-66 4 -92 12q-83 23 -117 79.5t-34 170.5
q-55 -120 -154 -194t-213 -74zM526 121q55 0 113.5 32t108 85.5t82.5 133.5t34 167v206q-44 115 -122.5 185.5t-170.5 70.5q-148 0 -222.5 -129.5t-74.5 -355.5q0 -194 66 -294.5t186 -100.5z" />
    <glyph glyph-name="epsilontonos" unicode="&#x3ad;" horiz-adv-x="1036" 
d="M465 1292l156 324h163l-182 -324h-137zM559 -23q-457 0 -457 326q0 104 59.5 183.5t172.5 115.5q-182 59 -182 244q0 126 111.5 213.5t322.5 87.5q217 0 362 -74l-49 -127q-1 0 -17.5 6t-25 9t-28 9.5t-34.5 10.5t-37 10t-42 9.5t-43 7t-47 5t-47 1.5q-129 0 -197 -47
t-68 -131q0 -52 18 -88.5t48 -54t59 -24.5t62 -7h248v-125h-261q-33 0 -68.5 -12t-70 -36t-56.5 -68.5t-22 -101.5q0 -90 77 -147t231 -57q163 0 335 69l50 -118q-178 -89 -404 -89z" />
    <glyph glyph-name="etatonos" unicode="&#x3ae;" horiz-adv-x="1263" 
d="M604 1292l156 324h164l-183 -324h-137zM944 -451v1141q0 64 -4.5 107t-18 85t-39 66t-68 38.5t-103.5 14.5q-149 0 -349 -137v-864h-159v909q0 57 -29.5 80t-75.5 29l11 127q52 0 88 -10q144 -29 163 -146q40 30 74 51.5t86.5 48.5t112.5 41.5t121 14.5q69 0 123 -14
t90 -35.5t61.5 -57t39 -68.5t21.5 -81t9.5 -83t1.5 -85v-1172h-156z" />
    <glyph glyph-name="iotatonos" unicode="&#x3af;" horiz-adv-x="538" 
d="M154 1292l155 324h164l-182 -324h-137zM367 -20q-95 0 -148 56.5t-53 166.5v915h160v-872q0 -129 110 -129q13 0 49 4l7 -129q-58 -12 -125 -12z" />
    <glyph glyph-name="upsilondieresistonos" unicode="&#x3b0;" horiz-adv-x="1218" 
d="M479 1276l137 323h164l-170 -323h-131zM403 1280h-157v190h157v-190zM944 1280h-158v190h158v-190zM627 -18q-91 0 -166.5 21t-139 66.5t-99.5 127.5t-36 194v504q-3 54 -32.5 80t-71.5 29l14 131q113 -2 180.5 -58t67.5 -172l-2 -499q0 -67 16 -118.5t42.5 -83.5
t64.5 -52.5t77 -28.5t85 -8q157 0 231 120.5t74 362.5q0 166 -31.5 282t-89.5 238h164q31 -62 51.5 -115.5t40.5 -165.5t20 -245q0 -289 -125 -449.5t-335 -160.5z" />
    <glyph glyph-name="alpha" unicode="&#x3b1;" horiz-adv-x="1226" 
d="M510 -18q-36 0 -70.5 5t-75.5 20t-75.5 39t-67.5 65t-56.5 95t-37.5 132.5t-14 173.5q0 287 123.5 455t318.5 168q212 0 309 -160v143h160v-887q0 -61 26 -87.5t80 -28.5l-10 -127q-66 4 -92 12q-83 23 -117 79.5t-34 170.5q-55 -120 -154 -194t-213 -74zM526 121
q55 0 113.5 32t108 85.5t82.5 133.5t34 167v206q-44 115 -122.5 185.5t-170.5 70.5q-148 0 -222.5 -129.5t-74.5 -355.5q0 -194 66 -294.5t186 -100.5z" />
    <glyph glyph-name="beta" unicode="&#x3b2;" horiz-adv-x="1193" 
d="M170 -451v1538q0 211 121 345.5t330 134.5q180 0 296.5 -110t116.5 -273q0 -113 -80.5 -219.5t-195.5 -143.5q165 -39 250.5 -127t85.5 -250q0 -230 -132 -349.5t-354 -119.5q-150 0 -276 48v-474h-162zM604 113q160 0 243 76.5t83 242.5q0 288 -402 307v123
q145 9 247 100.5t102 206.5q0 113 -77 189t-190 76q-134 0 -206 -92.5t-72 -237.5v-940q171 -51 272 -51z" />
    <glyph glyph-name="gamma" unicode="&#x3b3;" horiz-adv-x="1013" 
d="M377 -451q-23 168 -23 322q0 58 8 172q-80 480 -344 1075h179q39 -91 80 -201t100.5 -312.5t95.5 -391.5q22 46 82 167.5t91.5 192.5t73 175t61.5 195t22 175h164q-4 -129 -59 -293.5t-119 -291t-150.5 -291.5t-122.5 -248q21 -153 21 -309q0 -23 -5 -136h-155z" />
    <glyph glyph-name="delta" unicode="&#x3b4;" horiz-adv-x="1193" 
d="M596 -23q-110 0 -198.5 29t-157 89t-105.5 160t-37 234q0 189 98.5 323t256.5 206q-103 53 -158 117t-55 161q0 86 58.5 149t147 92.5t191.5 29.5q206 0 383 -56l-29 -131q-155 47 -350 47q-108 0 -178 -33.5t-70 -97.5q0 -31 16 -58.5t41 -48t65.5 -43.5t78.5 -40.5
t91 -43.5t93 -48q326 -175 326 -514q0 -114 -28 -204.5t-74.5 -149.5t-112.5 -97.5t-138.5 -55t-154.5 -16.5zM608 111q90 0 156.5 30.5t104 85t55.5 123t18 152.5q0 57 -12 107t-29.5 87t-49 72.5t-58 58t-70.5 48.5t-72 40t-76 37q-83 -29 -146 -80.5t-98 -114.5t-52 -127
t-17 -128q0 -183 84 -287t262 -104z" />
    <glyph glyph-name="epsilon" unicode="&#x3b5;" horiz-adv-x="1036" 
d="M559 -23q-457 0 -457 326q0 104 59.5 183.5t172.5 115.5q-182 59 -182 244q0 126 111.5 213.5t322.5 87.5q217 0 362 -74l-49 -127q-1 0 -17.5 6t-25 9t-28 9.5t-34.5 10.5t-37 10t-42 9.5t-43 7t-47 5t-47 1.5q-129 0 -197 -47t-68 -131q0 -52 18 -88.5t48 -54t59 -24.5
t62 -7h248v-125h-261q-33 0 -68.5 -12t-70 -36t-56.5 -68.5t-22 -101.5q0 -90 77 -147t231 -57q163 0 335 69l50 -118q-178 -89 -404 -89z" />
    <glyph glyph-name="zeta" unicode="&#x3b6;" horiz-adv-x="937" 
d="M793 -414l-97 68q103 122 103 176q0 21 -8 37.5t-27.5 29.5t-37 21.5t-53 17t-57.5 13.5t-68 13t-69 13q-64 13 -113.5 28.5t-102 44.5t-87 67t-56.5 97t-22 134q0 142 59.5 300t156 298t214 261t238.5 206h-584v133h776v-135q-94 -67 -189 -153.5t-186.5 -195
t-162 -220.5t-113.5 -235t-43 -234q0 -57 17 -101t41.5 -71t66 -47.5t77.5 -31t87 -20.5q22 -4 61 -11t62 -11t57.5 -12t56 -16t48.5 -20t43 -27.5t31 -35.5t21.5 -46.5t6.5 -57.5q0 -120 -147 -277z" />
    <glyph glyph-name="eta" unicode="&#x3b7;" horiz-adv-x="1263" 
d="M944 -451v1141q0 64 -4.5 107t-18 85t-39 66t-68 38.5t-103.5 14.5q-149 0 -349 -137v-864h-159v909q0 57 -29.5 80t-75.5 29l11 127q52 0 88 -10q144 -29 163 -146q40 30 74 51.5t86.5 48.5t112.5 41.5t121 14.5q69 0 123 -14t90 -35.5t61.5 -57t39 -68.5t21.5 -81
t9.5 -83t1.5 -85v-1172h-156z" />
    <glyph glyph-name="theta" unicode="&#x3b8;" horiz-adv-x="1214" 
d="M606 -25q-93 0 -166.5 25.5t-124.5 75t-86.5 116t-56 156.5t-29 187t-8.5 217q0 151 15 272.5t50 225t90 173t138 108t190 38.5q83 0 150.5 -22t115.5 -59.5t83.5 -96t57.5 -124t35 -151t18 -169t5 -185.5q0 -145 -14 -261t-48 -216.5t-88 -167t-136.5 -104.5t-190.5 -38
zM297 852h627q-2 111 -10.5 193.5t-29 159.5t-54.5 125.5t-89 77t-129 28.5q-73 0 -127 -28.5t-88.5 -77t-56.5 -124.5t-31 -159.5t-12 -194.5zM616 109q73 0 126.5 28t88 77.5t55 129t29 171t9.5 214.5h-627q1 -158 15 -266.5t49 -191.5t98 -122.5t157 -39.5z" />
    <glyph glyph-name="iota" unicode="&#x3b9;" horiz-adv-x="538" 
d="M367 -20q-95 0 -148 56.5t-53 166.5v915h160v-872q0 -129 110 -129q13 0 49 4l7 -129q-58 -12 -125 -12z" />
    <glyph glyph-name="kappa" unicode="&#x3ba;" horiz-adv-x="1079" 
d="M1085 0h-200l-498 582l447 536h186l-457 -526zM170 0v1118h162v-1118h-162z" />
    <glyph glyph-name="lambda" unicode="&#x3bb;" horiz-adv-x="1046" 
d="M999 -20q-51 4 -89 16.5t-63.5 30.5t-45.5 48t-33 61t-27 79l-163 578l-56 190l-61 -197l-256 -786h-178l391 1116h67l-24 103q-27 107 -69 162t-126 55q-103 0 -172 -31l-31 121q93 41 211 41q144 0 214 -70t116 -225l281 -991q28 -90 60 -126.5t75 -48.5z" />
    <glyph glyph-name="uni03BC" unicode="&#x3bc;" horiz-adv-x="1251" 
d="M170 -451v1569h160v-688q0 -42 1 -71t6 -64t13.5 -58t24.5 -46.5t38.5 -37t55.5 -22t76 -8.5q34 0 71.5 9t66.5 19.5t65.5 30t53.5 30t47.5 30.5t31.5 20v856h159v-891q0 -70 36.5 -94t117.5 -16l-2 -129q-52 -6 -98 -6q-191 0 -209 153q-47 -37 -73.5 -55.5t-78 -48
t-107.5 -43t-120 -13.5q-112 0 -176 54v-480h-160z" />
    <glyph glyph-name="nu" unicode="&#x3bd;" horiz-adv-x="1028" 
d="M381 0l-348 1118h170l282 -971q167 295 237.5 496.5t70.5 349.5q0 53 -11 125h164q10 -46 10 -112q0 -167 -92.5 -403t-310.5 -603h-172z" />
    <glyph glyph-name="xi" unicode="&#x3be;" horiz-adv-x="966" 
d="M784 -412l-94 66q34 42 65 96.5t31 89.5q0 27 -16.5 47.5t-50.5 35t-66.5 24t-83.5 20.5q-59 13 -96 22.5t-93.5 28.5t-92.5 38t-78 51t-66 68.5t-40.5 88.5t-16.5 113q0 89 44 170t116 139t159.5 98t180.5 56q-54 5 -107 19t-108 40.5t-96.5 62.5t-68 89.5t-26.5 117.5
q0 189 139.5 294.5t385.5 105.5q91 0 227 -25l-19 -131q-118 23 -219 23q-360 0 -360 -258q0 -253 489 -277v-127q-73 -8 -146.5 -24.5t-152 -47.5t-138 -71t-98 -100.5t-38.5 -131.5q0 -43 10.5 -79.5t26.5 -62.5t44.5 -48.5t53.5 -36.5t65 -28t67.5 -21.5t72.5 -18.5
q150 -34 197 -53q118 -47 137 -142q4 -21 4 -44q0 -116 -144 -277z" />
    <glyph glyph-name="omicron" unicode="&#x3bf;" horiz-adv-x="1183" 
d="M586 -25q-220 0 -350 150.5t-130 421.5q0 142 38 256.5t104.5 189t156.5 114.5t195 40q233 0 354 -151.5t121 -436.5q0 -144 -38 -256.5t-105 -183.5t-155 -107.5t-191 -36.5zM598 109q72 0 127.5 26t90 68.5t56.5 102t30.5 121t8.5 132.5q0 67 -8.5 127.5t-30.5 122
t-56.5 105.5t-91.5 72t-130 28t-130 -27.5t-92.5 -72t-58.5 -106t-32 -123t-9 -128.5q0 -92 17 -169t53.5 -141.5t101.5 -101t154 -36.5z" />
    <glyph glyph-name="pi" unicode="&#x3c0;" horiz-adv-x="1284" 
d="M1071 -20q-95 0 -149 56.5t-54 166.5v776h-487v-979h-162v979h-139v139h1106v-139h-156v-733q0 -129 111 -129q15 0 47 4l8 -129q-58 -12 -125 -12z" />
    <glyph glyph-name="rho" unicode="&#x3c1;" horiz-adv-x="1185" 
d="M145 -451v1014q0 289 121.5 434.5t347.5 145.5q242 0 350.5 -151.5t108.5 -444.5q0 -286 -133.5 -425.5t-370.5 -139.5q-119 0 -262 47v-480h-162zM307 573v-405q141 -55 271 -55q78 0 137 23t95 61t58 95t30.5 118t8.5 137q0 71 -5.5 129t-24 123.5t-50 109.5
t-87.5 73.5t-132 29.5q-74 0 -129.5 -26t-87.5 -67t-51.5 -101t-26 -117.5t-6.5 -127.5z" />
    <glyph glyph-name="uni03C2" unicode="&#x3c2;" horiz-adv-x="1015" 
d="M758 -412l-96 68q94 122 94 182q0 26 -11.5 46.5t-27 33.5t-44.5 24.5t-51.5 17.5t-60.5 15q-57 13 -89 22t-86.5 31t-87 47t-73 70t-62.5 100.5t-38 136.5t-16 181q0 123 33 227.5t96.5 185t165 126t229.5 45.5q183 0 305 -64l-49 -127q-133 56 -260 56
q-118 0 -199.5 -60.5t-118.5 -158t-37 -224.5q0 -75 10 -136t26 -104.5t42.5 -78t51.5 -55.5t61.5 -38.5t64.5 -26.5t68 -19l57 -15l57 -15t50 -16.5t48 -21.5t38 -28t31.5 -38t18 -49.5t7.5 -64.5q0 -113 -147 -275z" />
    <glyph glyph-name="sigma" unicode="&#x3c3;" horiz-adv-x="1251" 
d="M592 -18q-234 0 -358.5 142t-124.5 415q0 132 34 239.5t101 186.5t174.5 122t247.5 43q122 0 544 -14v-139l-252 4q123 -146 123 -422q0 -279 -133.5 -428t-355.5 -149zM604 115q75 0 132 25.5t91 66t55 100.5t28.5 120t7.5 132q0 298 -150 428l-96 4q-200 0 -300 -106.5
t-100 -327.5q0 -95 15 -169.5t50.5 -138.5t103 -99t163.5 -35z" />
    <glyph glyph-name="tau" unicode="&#x3c4;" horiz-adv-x="894" 
d="M598 -27q-64 0 -109.5 12.5t-84 46t-57.5 97.5t-19 160v690h-301v139h825v-139h-363v-674q0 -100 34.5 -145t103.5 -45q80 0 153 26l29 -121q-85 -47 -211 -47z" />
    <glyph glyph-name="upsilon" unicode="&#x3c5;" horiz-adv-x="1218" 
d="M627 -18q-91 0 -166.5 21t-139 66.5t-99.5 127.5t-36 194v504q-3 54 -32.5 80t-71.5 29l14 131q113 -2 180.5 -58t67.5 -172l-2 -499q0 -67 16 -118.5t42.5 -83.5t64.5 -52.5t77 -28.5t85 -8q157 0 231 120.5t74 362.5q0 166 -31.5 282t-89.5 238h164q31 -62 51.5 -115.5
t40.5 -165.5t20 -245q0 -289 -125 -449.5t-335 -160.5z" />
    <glyph glyph-name="phi" unicode="&#x3c6;" horiz-adv-x="1490" 
d="M664 -451v435q-272 14 -416 157.5t-144 405.5q0 269 148.5 421.5t411.5 174.5v217h159v-215q561 -26 561 -586q0 -271 -148.5 -415.5t-412.5 -159.5v-435h-159zM664 113v901q-111 -10 -190.5 -51.5t-123 -106t-63 -138t-19.5 -161.5t20.5 -161t65.5 -134t123.5 -99.5
t186.5 -49.5zM823 113q92 7 161.5 33t114 65.5t72.5 95.5t39 117t11 135q0 421 -398 455v-901z" />
    <glyph glyph-name="chi" unicode="&#x3c7;" horiz-adv-x="997" 
d="M995 -461q-104 4 -161 53.5t-115 174.5l-211 458l-305 -676h-183l412 828l-244 489q-64 125 -161 150l32 133q58 -7 99 -23.5t73 -49.5t53 -67t50 -94l188 -389l262 592h185l-373 -745l262 -543q41 -85 73 -118t81 -42z" />
    <glyph glyph-name="psi" unicode="&#x3c8;" horiz-adv-x="1499" 
d="M676 -451v437q-234 18 -365 145t-131 367v389q0 60 -30.5 87.5t-75.5 31.5l16 131q111 -3 178.5 -59t67.5 -171v-395q0 -355 340 -389v1237h160v-1235q181 18 283 140.5t102 336.5q0 269 -117 516h168q104 -217 104 -518q0 -137 -41 -249t-113.5 -187.5t-170.5 -120.5
t-215 -55v-439h-160z" />
    <glyph glyph-name="omega" unicode="&#x3c9;" horiz-adv-x="1642" 
d="M508 -18q-183 0 -290 141t-107 362q0 189 55.5 334t212.5 299h186q-293 -256 -293 -616q0 -56 12.5 -115.5t40 -121t81.5 -101t126 -39.5q92 0 150.5 81t58.5 222v309h160v-303q0 -149 58 -229t151 -80q73 0 127 39.5t81 101t39.5 121t12.5 115.5q0 174 -78 334t-221 282
h203q143 -141 201.5 -291t58.5 -331q0 -135 -49 -251t-146.5 -189.5t-224.5 -73.5q-59 0 -120.5 24.5t-111.5 77.5t-63 123q-37 -110 -126.5 -167.5t-184.5 -57.5z" />
    <glyph glyph-name="iotadieresis" unicode="&#x3ca;" horiz-adv-x="538" 
d="M94 1370h-157v191h157v-191zM543 1370h-160v191h160v-191zM367 -20q-95 0 -148 56.5t-53 166.5v915h160v-872q0 -129 110 -129q13 0 49 4l7 -129q-58 -12 -125 -12z" />
    <glyph glyph-name="upsilondieresis" unicode="&#x3cb;" horiz-adv-x="1218" 
d="M432 1370h-158v191h158v-191zM881 1370h-160v191h160v-191zM627 -18q-91 0 -166.5 21t-139 66.5t-99.5 127.5t-36 194v504q-3 54 -32.5 80t-71.5 29l14 131q113 -2 180.5 -58t67.5 -172l-2 -499q0 -67 16 -118.5t42.5 -83.5t64.5 -52.5t77 -28.5t85 -8q157 0 231 120.5
t74 362.5q0 166 -31.5 282t-89.5 238h164q31 -62 51.5 -115.5t40.5 -165.5t20 -245q0 -289 -125 -449.5t-335 -160.5z" />
    <glyph glyph-name="omicrontonos" unicode="&#x3cc;" horiz-adv-x="1183" 
d="M518 1292l156 324h164l-183 -324h-137zM586 -25q-220 0 -350 150.5t-130 421.5q0 142 38 256.5t104.5 189t156.5 114.5t195 40q233 0 354 -151.5t121 -436.5q0 -144 -38 -256.5t-105 -183.5t-155 -107.5t-191 -36.5zM598 109q72 0 127.5 26t90 68.5t56.5 102t30.5 121
t8.5 132.5q0 67 -8.5 127.5t-30.5 122t-56.5 105.5t-91.5 72t-130 28t-130 -27.5t-92.5 -72t-58.5 -106t-32 -123t-9 -128.5q0 -92 17 -169t53.5 -141.5t101.5 -101t154 -36.5z" />
    <glyph glyph-name="upsilontonos" unicode="&#x3cd;" horiz-adv-x="1218" 
d="M510 1292l156 324h163l-182 -324h-137zM627 -18q-91 0 -166.5 21t-139 66.5t-99.5 127.5t-36 194v504q-3 54 -32.5 80t-71.5 29l14 131q113 -2 180.5 -58t67.5 -172l-2 -499q0 -67 16 -118.5t42.5 -83.5t64.5 -52.5t77 -28.5t85 -8q157 0 231 120.5t74 362.5
q0 166 -31.5 282t-89.5 238h164q31 -62 51.5 -115.5t40.5 -165.5t20 -245q0 -289 -125 -449.5t-335 -160.5z" />
    <glyph glyph-name="omegatonos" unicode="&#x3ce;" horiz-adv-x="1642" 
d="M729 1292l156 324h164l-183 -324h-137zM508 -18q-183 0 -290 141t-107 362q0 189 55.5 334t212.5 299h186q-293 -256 -293 -616q0 -56 12.5 -115.5t40 -121t81.5 -101t126 -39.5q92 0 150.5 81t58.5 222v309h160v-303q0 -149 58 -229t151 -80q73 0 127 39.5t81 101
t39.5 121t12.5 115.5q0 174 -78 334t-221 282h203q143 -141 201.5 -291t58.5 -331q0 -135 -49 -251t-146.5 -189.5t-224.5 -73.5q-59 0 -120.5 24.5t-111.5 77.5t-63 123q-37 -110 -126.5 -167.5t-184.5 -57.5z" />
    <glyph glyph-name="uni03D0" unicode="&#x3d0;" horiz-adv-x="1218" 
d="M608 -23q-81 0 -149.5 20.5t-128 68.5t-101 121t-65 184.5t-23.5 253.5v180q0 123 19 234t60 208t100.5 168t145.5 111.5t191 40.5q101 0 178 -28.5t120.5 -75t65 -99.5t21.5 -109q0 -102 -69 -189t-197 -151q159 -25 252.5 -138t93.5 -318t-145.5 -343.5t-368.5 -138.5z
M621 106q145 0 238 92t93 273q0 159 -77.5 252.5t-204.5 93.5q-166 0 -361 -119v-118q0 -233 83.5 -353.5t228.5 -120.5zM309 815q38 21 75.5 38.5t88 39t68.5 29.5q331 143 331 307q0 89 -67 148t-164 59q-152 0 -242 -151.5t-90 -416.5v-53z" />
    <glyph glyph-name="uni03D8" unicode="&#x3d8;" horiz-adv-x="1542" 
d="M684 -340v322q-92 12 -170.5 40t-153.5 84t-127.5 136t-84 201.5t-31.5 273.5q0 160 34.5 288.5t94.5 214.5t143.5 144t179 83.5t203.5 25.5q141 0 258.5 -46t207 -136.5t139.5 -236t50 -333.5q0 -154 -32 -276.5t-84 -202.5t-127.5 -136t-154 -83.5t-171.5 -38.5v-324
h-174zM774 117q79 0 147 16.5t133 59.5t110.5 109.5t73.5 173t28 243.5q0 288 -125 452t-369 164q-245 0 -369 -163t-124 -449q0 -137 28 -244t74.5 -174t111.5 -110.5t133.5 -60.5t147.5 -17z" />
    <glyph glyph-name="uni03D9" unicode="&#x3d9;" horiz-adv-x="1239" 
d="M539 -389v440q-203 20 -323 163t-120 374q0 134 40.5 241t112 176t167 105.5t207.5 36.5q240 0 381 -145t141 -400q0 -236 -121.5 -378t-318.5 -169v-444h-166zM623 174q173 0 268.5 119t95.5 301q0 85 -20.5 158t-63 133t-115.5 94.5t-170 34.5q-99 0 -173 -36t-115 -97
t-60.5 -131.5t-19.5 -149.5q0 -87 20.5 -161t63 -135t116.5 -95.5t173 -34.5z" />
    <glyph glyph-name="uni03DA" unicode="&#x3da;" horiz-adv-x="1173" 
d="M1096 1362l-56 -131q-103 47 -192.5 68.5t-202.5 21.5q-199 0 -286 -118.5t-87 -334.5q0 -105 24.5 -184.5t65.5 -126.5t94 -79.5t111.5 -51t117.5 -34t112 -34.5t94 -46.5t65.5 -76.5t24.5 -118q0 -64 -27.5 -120.5t-76.5 -98.5t-105.5 -76t-124 -58.5t-123.5 -40
t-112 -26.5l-35 121q199 59 269 90q173 85 179 196q0 41 -24.5 70.5t-66.5 47t-96.5 32t-114.5 32.5t-119.5 42t-114 66.5t-96.5 99.5t-66.5 147t-24.5 205q0 293 137.5 456.5t399.5 163.5q280 0 457 -104z" />
    <glyph glyph-name="uni03DB" unicode="&#x3db;" horiz-adv-x="1009" 
d="M938 1044l-55 -126q-84 46 -151.5 63.5t-162.5 17.5q-66 0 -119.5 -24t-88.5 -65t-58.5 -97t-34 -118t-10.5 -130q0 -342 279 -383q145 -16 221 -70.5t76 -170.5q0 -132 -123 -201t-342 -72v125q319 3 319 139q0 54 -47 79.5t-156 39.5q-85 10 -150.5 40t-119 88
t-82.5 156.5t-29 233.5q0 164 51.5 290.5t156.5 201t251 74.5q220 0 375 -91z" />
    <glyph glyph-name="uni03DC" unicode="&#x3dc;" horiz-adv-x="1163" 
d="M1069 1311h-684v-555h639v-140h-639v-616h-168v1448h852v-137z" />
    <glyph glyph-name="uni03DD" unicode="&#x3dd;" horiz-adv-x="892" 
d="M907 1534l-30 -133q-92 24 -205 24q-133 0 -196.5 -50.5t-63.5 -178.5v-430h239v-135h-239v-1082h-160v1082h-164v135h164v432q0 371 418 371q56 0 128 -11t109 -24z" />
    <glyph glyph-name="uni03DE" unicode="&#x3de;" horiz-adv-x="1013" 
d="M633 -223l-170 -41l293 788h-711l326 906l170 20l-271 -774h709z" />
    <glyph glyph-name="uni03DF" unicode="&#x3df;" horiz-adv-x="976" 
d="M584 -94l-174 -37l303 711h-686l360 800l176 19l-305 -672h682z" />
    <glyph glyph-name="uni03E0" unicode="&#x3e0;" horiz-adv-x="1536" 
d="M1073 -131l-86 108q140 109 206 242.5t69 272.5q0 46 -7 86l-813 -527l-65 105l848 551q-46 121 -125 200q-37 -25 -464 -303t-446 -291l-65 107l862 557q-61 46 -149.5 71t-175.5 25q-192 0 -365 -106l-68 116q179 129 445 129q161 0 299.5 -57t232.5 -152t147.5 -220.5
t53.5 -260.5q0 -205 -97 -378t-237 -275z" />
    <glyph glyph-name="uni03E1" unicode="&#x3e1;" horiz-adv-x="1417" 
d="M979 -152l-84 101q139 106 205 236.5t69 263.5q0 63 -2 81l-794 -516l-70 109l827 543q-56 130 -118 192l-891 -584l-70 111l840 545q-61 36 -146 59t-159 23q-169 0 -359 -101l-65 105q198 135 436 135q159 0 294 -54.5t226 -146.5t142 -214t51 -257q0 -90 -22 -176.5
t-56 -153.5t-79.5 -127.5t-88 -101.5t-86.5 -72z" />
    <glyph glyph-name="uni0400" unicode="&#x400;" horiz-adv-x="1191" 
d="M780 1530l-458 133l43 139l452 -164zM217 0v1448h811v-137h-643v-514h598v-140h-598v-518h690v-139h-858z" />
    <glyph glyph-name="uni0401" unicode="&#x401;" horiz-adv-x="1191" 
d="M504 1552h-158v191h158v-191zM903 1552h-160v191h160v-191zM217 0v1448h811v-137h-643v-514h598v-140h-598v-518h690v-139h-858z" />
    <glyph glyph-name="uni0402" unicode="&#x402;" horiz-adv-x="1546" 
d="M1012 -451l-103 119q29 23 62 53.5t93 104.5t104.5 154.5t79 202t34.5 249.5q0 150 -76.5 234t-214.5 84q-83 0 -185 -25.5t-185 -69.5v-655h-168v1305h-430v143h1126v-143h-528v-502q232 86 409 86q111 0 194 -35.5t132 -98.5t72.5 -142t23.5 -173q0 -484 -440 -891z
" />
    <glyph glyph-name="uni0403" unicode="&#x403;" horiz-adv-x="1081" 
d="M453 1530l-33 106l448 172l43 -137zM217 0v1448h852v-137h-684v-1311h-168z" />
    <glyph glyph-name="uni0404" unicode="&#x404;" horiz-adv-x="1386" 
d="M872 -20q-176 0 -318 54t-236 151.5t-144.5 232.5t-50.5 297q0 347 195 548t546 201q265 0 418 -69l-45 -135q-2 1 -21 6.5t-26.5 8t-28.5 8t-36 8.5t-38.5 8t-46 7.5t-50.5 5.5t-58.5 4t-63.5 1q-111 1 -206.5 -28.5t-174.5 -89.5t-128 -163t-58 -239h766v-138h-764
q11 -138 63 -242.5t135 -167t185.5 -93.5t222.5 -31q187 0 340 49l41 -135q-141 -59 -418 -59z" />
    <glyph glyph-name="uni0405" unicode="&#x405;" horiz-adv-x="1110" 
d="M504 -25q-238 0 -404 101l54 139q184 -92 352 -92q64 0 121.5 13t108 40.5t80.5 77.5t30 117q0 58 -24.5 105t-65.5 80t-94.5 61.5t-112.5 54.5t-117.5 53.5t-112 63t-94.5 78.5t-65.5 105t-24.5 138q0 112 60.5 195t157 123t214.5 40q209 0 357 -79l-52 -132
q-153 70 -301 70q-120 0 -197 -54t-77 -159q0 -58 31 -106t81.5 -81t115 -66.5t132 -62t132 -68.5t115 -85t81.5 -112.5t31 -149.5q0 -101 -40.5 -180t-111 -128t-162.5 -74.5t-198 -25.5z" />
    <glyph glyph-name="uni0406" unicode="&#x406;" horiz-adv-x="602" 
d="M217 0v1448h168v-1448h-168z" />
    <glyph glyph-name="uni0407" unicode="&#x407;" horiz-adv-x="602" 
d="M217 0v1448h168v-1448h-168zM178 1552h-158v191h158v-191zM578 1552h-160v191h160v-191z" />
    <glyph glyph-name="uni0408" unicode="&#x408;" horiz-adv-x="604" 
d="M-4 -383l-72 123q92 51 151 108t90.5 129t43.5 148.5t12 183.5v1139h170v-1135q0 -84 -6 -149.5t-21 -134.5t-43 -124.5t-71 -108t-106.5 -97.5t-147.5 -82z" />
    <glyph glyph-name="uni0409" unicode="&#x409;" horiz-adv-x="2033" 
d="M84 -45l-76 154q84 38 154.5 97t101.5 122q100 201 150 1120h774v-563h207q276 0 419.5 -113.5t143.5 -337.5q0 -196 -126.5 -315t-352.5 -119h-459v1311h-453q-46 -523 -70 -688q-37 -256 -98 -385q-85 -177 -315 -283zM1397 743h-209v-606h258q164 0 250 80.5t86 224.5
q0 301 -385 301z" />
    <glyph glyph-name="uni040A" unicode="&#x40a;" horiz-adv-x="2097" 
d="M217 0v1448h168v-610h705v610h170v-610h204q275 0 419.5 -107.5t144.5 -320.5q0 -182 -142 -296t-370 -114h-426v698h-705v-698h-168zM1466 698h-206v-561h239q167 0 258.5 74.5t91.5 208.5q0 78 -27.5 133t-80 86t-120 45t-155.5 14z" />
    <glyph glyph-name="uni040B" unicode="&#x40b;" horiz-adv-x="1564" 
d="M453 0v1305h-430v143h1126v-143h-528v-502q229 92 395 92q228 0 332 -103t104 -284v-508h-170v510q0 64 -22 110.5t-53 70.5t-77.5 38t-81.5 17.5t-79 3.5q-71 0 -166.5 -25t-181.5 -72v-653h-168z" />
    <glyph glyph-name="uni040C" unicode="&#x40c;" horiz-adv-x="1286" 
d="M1044 0l-606 758v30l574 660h213l-600 -670l641 -778h-222zM217 0v1448h168v-1448h-168zM522 1552l-33 107l449 172l43 -137z" />
    <glyph glyph-name="uni040D" unicode="&#x40d;" horiz-adv-x="1597" 
d="M958 1530l-458 133l43 139l452 -164zM217 0v1448h168v-1016l-6 -217l129 215l704 1018h168v-1448h-168v1016l7 217l-86 -143l-748 -1090h-168z" />
    <glyph glyph-name="uni040E" unicode="&#x40e;" horiz-adv-x="1173" 
d="M328 -18l-60 147q108 35 173.5 87t115.5 169l29 66h-76l-498 997h187l436 -881l348 881h184l-462 -1079q-44 -102 -83.5 -167t-87.5 -107t-90.5 -64t-115.5 -49zM602 1554q-215 0 -344 172l86 84q104 -118 258 -118q152 0 258 118l84 -84q-61 -83 -148.5 -127.5
t-193.5 -44.5z" />
    <glyph glyph-name="uni040F" unicode="&#x40f;" horiz-adv-x="1542" 
d="M688 -313v313h-471v1448h168v-1309h772v1309h168v-1448h-469v-313h-168z" />
    <glyph glyph-name="uni0410" unicode="&#x410;" horiz-adv-x="1374" 
d="M0 0l594 1448h219l526 -1448h-182l-192 541h-572l-215 -541h-178zM444 676h476l-226 653z" />
    <glyph glyph-name="uni0411" unicode="&#x411;" horiz-adv-x="1282" 
d="M217 0v1448h868v-137h-700v-441h225q568 0 568 -444q0 -193 -128.5 -309.5t-355.5 -116.5h-477zM610 731h-225v-594h277q166 0 251.5 78t85.5 219q0 297 -389 297z" />
    <glyph glyph-name="uni0412" unicode="&#x412;" horiz-adv-x="1302" 
d="M217 0v1448h395q236 0 352.5 -99t116.5 -266q0 -115 -54 -198.5t-146 -116.5v-6q60 -11 112.5 -36.5t96.5 -67t70 -105.5t26 -141q0 -93 -28 -166t-87.5 -129.5t-160 -86.5t-236.5 -30h-457zM385 139h258q65 0 116.5 6.5t100.5 24t81.5 46.5t52.5 77.5t20 112.5
q0 270 -402 270h-227v-537zM385 811h250q137 0 205.5 63t68.5 183q0 142 -84.5 201t-255.5 59h-184v-506z" />
    <glyph glyph-name="uni0413" unicode="&#x413;" horiz-adv-x="1081" 
d="M217 0v1448h852v-137h-684v-1311h-168z" />
    <glyph glyph-name="uni0414" unicode="&#x414;" horiz-adv-x="1484" 
d="M25 -313v452h125q100 178 172 387q34 99 72 350.5t55 571.5h759v-1309h191v-452h-166v313h-1045v-313h-163zM338 139h700v1172h-440q-23 -291 -56 -501t-57 -296q-51 -172 -147 -375z" />
    <glyph glyph-name="uni0415" unicode="&#x415;" horiz-adv-x="1191" 
d="M217 0v1448h811v-137h-643v-514h598v-140h-598v-518h690v-139h-858z" />
    <glyph glyph-name="uni0416" unicode="&#x416;" horiz-adv-x="1878" 
d="M27 0l583 768l-532 680h209l516 -674v-31l-557 -743h-219zM1632 0l-557 743v31l518 674h207l-532 -680l583 -768h-219zM854 0v1448h170v-1448h-170z" />
    <glyph glyph-name="uni0417" unicode="&#x417;" horiz-adv-x="1132" 
d="M498 -16q-235 0 -424 90l59 135q171 -80 354 -80q74 0 135 14.5t110 45.5t76.5 85t27.5 127q0 258 -371 258h-152v138h152q142 0 225.5 71t83.5 197q0 122 -74.5 187t-207.5 65q-59 0 -123 -13t-93.5 -23t-89.5 -32l-53 121q189 86 375 86q206 0 322 -99.5t116 -256.5
q0 -66 -18 -124t-42.5 -95t-58.5 -68.5t-56.5 -46t-47.5 -27.5v-4q29 -7 56 -16.5t72.5 -35t77.5 -59t56.5 -92t24.5 -129.5q0 -61 -15.5 -118.5t-53.5 -113t-95 -96.5t-146.5 -66t-201.5 -25z" />
    <glyph glyph-name="uni0418" unicode="&#x418;" horiz-adv-x="1597" 
d="M217 0v1448h168v-1016l-6 -217l129 215l704 1018h168v-1448h-168v1016l7 217l-86 -143l-748 -1090h-168z" />
    <glyph glyph-name="uni0419" unicode="&#x419;" horiz-adv-x="1597" 
d="M801 1554q-215 0 -344 172l86 84q104 -118 258 -118q152 0 258 118l84 -84q-61 -83 -148.5 -127.5t-193.5 -44.5zM217 0v1448h168v-1016l-6 -217l129 215l704 1018h168v-1448h-168v1016l7 217l-86 -143l-748 -1090h-168z" />
    <glyph glyph-name="uni041A" unicode="&#x41a;" horiz-adv-x="1286" 
d="M1044 0l-606 758v30l574 660h213l-600 -670l641 -778h-222zM217 0v1448h168v-1448h-168z" />
    <glyph glyph-name="uni041B" unicode="&#x41b;" horiz-adv-x="1404" 
d="M84 -45l-76 154q84 38 154.5 97t101.5 122q100 201 150 1120h774v-1448h-168v1311h-453q-47 -517 -66 -653q-38 -285 -102 -420q-85 -177 -315 -283z" />
    <glyph glyph-name="uni041C" unicode="&#x41c;" horiz-adv-x="1929" 
d="M217 0v1448h227l496 -1348l557 1348h215v-1448h-170v973l8 223h-6l-487 -1196h-244l-432 1200h-6l10 -201v-999h-168z" />
    <glyph glyph-name="uni041D" unicode="&#x41d;" horiz-adv-x="1564" 
d="M217 0v1448h168v-651h795v651h168v-1448h-168v657h-795v-657h-168z" />
    <glyph glyph-name="uni041E" unicode="&#x41e;" horiz-adv-x="1695" 
d="M831 -25q-221 0 -382.5 96t-243.5 265t-82 391q0 339 201.5 540t535.5 201q171 0 307.5 -57t224.5 -157.5t134.5 -236t46.5 -294.5q0 -221 -88 -389.5t-257 -263.5t-397 -95zM838 115q141 0 250 46.5t177.5 130t103 193t34.5 240.5q0 174 -63 309t-189 215t-299 80
q-137 0 -244.5 -45.5t-176 -127t-104.5 -190t-36 -237.5q0 -100 21.5 -190.5t66 -168t108.5 -134.5t154 -89t197 -32z" />
    <glyph glyph-name="uni041F" unicode="&#x41f;" horiz-adv-x="1544" 
d="M217 0v1448h1110v-1448h-168v1309h-774v-1309h-168z" />
    <glyph glyph-name="uni0420" unicode="&#x420;" horiz-adv-x="1234" 
d="M217 0v1448h471q219 0 344 -118t125 -335q0 -99 -34.5 -183t-103 -149.5t-180.5 -103t-257 -37.5h-197v-522h-168zM385 1311v-647h209q180 0 282.5 78t102.5 243q0 166 -83 246t-253 80h-258z" />
    <glyph glyph-name="uni0421" unicode="&#x421;" horiz-adv-x="1386" 
d="M874 -25q-176 0 -318.5 55t-237 153t-145 234t-50.5 298q0 342 198.5 547.5t544.5 205.5q248 0 420 -82l-51 -135q-67 24 -107 36t-110 23t-148 11q-93 0 -176 -20t-156.5 -65t-126.5 -112t-83.5 -166.5t-30.5 -222.5q0 -126 31.5 -228.5t87 -172.5t133.5 -117t167 -68.5
t191 -21.5q195 0 340 53l41 -135q-89 -33 -181.5 -51.5t-232.5 -18.5z" />
    <glyph glyph-name="uni0422" unicode="&#x422;" horiz-adv-x="1196" 
d="M514 0v1305h-496v143h1160v-143h-496v-1305h-168z" />
    <glyph glyph-name="uni0423" unicode="&#x423;" horiz-adv-x="1173" 
d="M328 -18l-60 147q108 35 173.5 87t115.5 169l29 66h-76l-498 997h187l436 -881l348 881h184l-462 -1079q-44 -102 -83.5 -167t-87.5 -107t-90.5 -64t-115.5 -49z" />
    <glyph glyph-name="uni0424" unicode="&#x424;" horiz-adv-x="1646" 
d="M739 0v174q-143 0 -260.5 36.5t-204 108t-134.5 185.5t-48 260t48 260t134.5 185.5t204 108t260.5 36.5v155h168v-155q142 0 259.5 -36.5t204.5 -108t135 -185.5t48 -260t-48 -260t-135 -185.5t-204.5 -108t-259.5 -36.5v-174h-168zM907 309q223 0 350 118.5t127 336.5
q0 219 -126.5 337t-350.5 118v-910zM739 309v910q-225 0 -353 -118t-128 -337q0 -218 128 -336.5t353 -118.5z" />
    <glyph glyph-name="uni0425" unicode="&#x425;" horiz-adv-x="1247" 
d="M20 0l510 766l-421 682h192l330 -547l352 547h182l-446 -678l479 -770h-197l-380 635l-408 -635h-193z" />
    <glyph glyph-name="uni0426" unicode="&#x426;" horiz-adv-x="1587" 
d="M1335 -313v313h-1118v1448h168v-1309h756v1309h168v-1309h190v-452h-164z" />
    <glyph glyph-name="uni0427" unicode="&#x427;" horiz-adv-x="1337" 
d="M952 0v662q-217 -87 -415 -87q-431 0 -431 381v492h168v-494q0 -46 12 -83.5t31 -62t47.5 -42.5t55.5 -27.5t62 -15t60.5 -7t55.5 -1.5q73 0 171 25t183 71v637h168v-1448h-168z" />
    <glyph glyph-name="uni0428" unicode="&#x428;" horiz-adv-x="2068" 
d="M217 0v1448h168v-1309h565v1309h168v-1309h563v1309h170v-1448h-1634z" />
    <glyph glyph-name="uni0429" unicode="&#x429;" horiz-adv-x="2127" 
d="M1876 -313v313h-1659v1448h168v-1309h565v1309h168v-1309h563v1309h170v-1309h191v-452h-166z" />
    <glyph glyph-name="uni042A" unicode="&#x42a;" horiz-adv-x="1439" 
d="M424 0v1307h-399v141h569v-563h207q276 0 419.5 -113.5t143.5 -337.5q0 -196 -126.5 -315t-352.5 -119h-461zM803 743h-209v-606h258q164 0 250 80.5t86 224.5q0 301 -385 301z" />
    <glyph glyph-name="uni042B" unicode="&#x42b;" horiz-adv-x="1767" 
d="M217 0v1448h170v-563h207q274 0 418.5 -113t144.5 -336q0 -195 -127.5 -315.5t-351.5 -120.5h-461zM594 743h-207v-606h258q164 0 249 81.5t85 225.5q0 160 -101 229.5t-284 69.5zM1382 0v1448h168v-1448h-168z" />
    <glyph glyph-name="uni042C" unicode="&#x42c;" horiz-adv-x="1232" 
d="M217 0v1448h170v-563h207q274 0 418.5 -113t144.5 -336q0 -195 -127.5 -315.5t-351.5 -120.5h-461zM594 743h-207v-606h258q164 0 249 81.5t85 225.5q0 160 -101 229.5t-284 69.5z" />
    <glyph glyph-name="uni042D" unicode="&#x42d;" horiz-adv-x="1386" 
d="M514 -20q-277 0 -418 59l43 135q153 -49 338 -49q121 0 224.5 31t187 94t135 167.5t61.5 241.5h-763v138h763q-11 138 -60.5 240.5t-128 162.5t-173 88.5t-205.5 28.5q-91 0 -175.5 -12.5t-110.5 -20t-80 -24.5l-48 135q163 69 418 69q354 0 548 -194t194 -539
q0 -162 -50.5 -299.5t-144.5 -238t-236.5 -157t-318.5 -56.5z" />
    <glyph glyph-name="uni042E" unicode="&#x42e;" horiz-adv-x="2246" 
d="M1380 -25q-314 0 -500.5 186t-205.5 496h-289v-657h-168v1448h168v-651h291q22 311 223 491t520 180q171 0 306 -56t221 -157t131 -236t45 -296q0 -223 -88 -391.5t-257 -262.5t-397 -94zM1386 115q141 0 250.5 46.5t177.5 129.5t103 193t35 241q0 174 -62.5 309
t-189 215t-299.5 80q-137 0 -244.5 -45.5t-176 -127t-104.5 -190t-36 -237.5q0 -126 34.5 -235.5t101 -195t172 -134.5t238.5 -49z" />
    <glyph glyph-name="uni042F" unicode="&#x42f;" horiz-adv-x="1353" 
d="M289 0h-193l389 618q-136 34 -213 136.5t-77 249.5q0 208 131 326t338 118h473v-1448h-172v575h-195q-62 0 -127 7zM758 711h207v600h-252q-162 0 -251 -78t-89 -229q0 -293 385 -293z" />
    <glyph glyph-name="uni0430" unicode="&#x430;" horiz-adv-x="1130" 
d="M422 -18q-155 0 -244.5 82.5t-89.5 232.5q0 80 27.5 141.5t70 97.5t102 59.5t113.5 32t115 9.5l266 4v143q0 128 -60.5 175t-199.5 47q-156 0 -303 -56l-37 127q163 70 363 70q395 0 395 -309v-619q0 -30 11 -51t30 -31.5t38.5 -15t41.5 -4.5l-6 -125q-20 -4 -45 -4
q-81 0 -143 35.5t-72 105.5q-37 -29 -58 -43.5t-73.5 -44t-113.5 -44.5t-128 -15zM459 113q151 0 323 125v290l-268 -10q-130 -4 -200 -60t-70 -155q0 -93 59 -141.5t156 -48.5z" />
    <glyph glyph-name="uni0431" unicode="&#x431;" horiz-adv-x="1245" 
d="M616 -18q-477 0 -477 653q0 122 14 253t51 261.5t91 185.5q32 32 89 61.5t116 51t160.5 47t174 41.5t203.5 43l29 -149q-294 -54 -453.5 -94.5t-205.5 -90.5q-65 -70 -99 -315q196 108 387 108q206 0 321.5 -114.5t115.5 -364.5q0 -145 -39 -257t-109.5 -181t-163.5 -104
t-205 -35zM629 115q96 0 165.5 38t106.5 103.5t53.5 139t16.5 159.5q0 159 -74 256.5t-231 97.5q-98 0 -177.5 -27.5t-185.5 -82.5q-4 -82 -4 -131q0 -282 80.5 -417.5t249.5 -135.5z" />
    <glyph glyph-name="uni0432" unicode="&#x432;" horiz-adv-x="1118" 
d="M172 0v1118h406q183 0 279.5 -74t96.5 -206q0 -88 -45 -154.5t-116 -93.5q91 -13 156 -85t65 -183q0 -147 -108 -234.5t-308 -87.5h-426zM334 133h227q48 0 86.5 4t77.5 16.5t65 32.5t42 54t16 79q0 109 -80 153t-240 44h-194v-383zM334 635h227q118 0 176 48t58 134
q0 93 -67 130.5t-198 37.5h-196v-350z" />
    <glyph glyph-name="uni0433" unicode="&#x433;" horiz-adv-x="892" 
d="M172 0v1118h696v-137h-534v-981h-162z" />
    <glyph glyph-name="uni0434" unicode="&#x434;" horiz-adv-x="1265" 
d="M35 -301v436h110q51 81 81 155.5t65 194.5q20 71 41.5 259.5t27.5 373.5h674v-983h160v-436h-152v301h-856v-301h-151zM322 135h552v848h-370q-41 -436 -74 -563q-35 -136 -108 -285z" />
    <glyph glyph-name="uni0435" unicode="&#x435;" horiz-adv-x="1118" 
d="M641 -25q-127 0 -221 28.5t-165.5 92.5t-107.5 174t-36 267q0 159 37.5 278.5t104.5 190.5t153.5 106t191.5 35q212 0 313 -138.5t101 -420.5v-60h-738q1 -125 32 -209.5t88 -127.5t121.5 -59.5t152.5 -16.5q136 0 297 51l28 -131q-144 -60 -352 -60zM276 649h568
q0 176 -64.5 273.5t-197.5 97.5q-126 0 -209.5 -95t-96.5 -276z" />
    <glyph glyph-name="uni0436" unicode="&#x436;" horiz-adv-x="1579" 
d="M1552 0h-184l-459 578l414 540h186l-422 -532zM211 0h-178l465 586l-424 532h186l414 -540zM711 0v1118h161v-1118h-161z" />
    <glyph glyph-name="uni0437" unicode="&#x437;" horiz-adv-x="942" 
d="M428 -18q-202 0 -365 81l54 130q146 -76 305 -76q108 0 177 52t69 153q0 188 -277 188h-121v127h119q119 0 176.5 59t57.5 138q0 78 -53.5 126t-155.5 48q-116 0 -260 -58l-41 121q141 72 323 72q90 0 159.5 -24.5t110 -65.5t60.5 -90t20 -103q0 -97 -50 -167t-128 -103
q41 -9 79.5 -29t73.5 -52t56 -83t21 -113t-23 -118.5t-69.5 -105t-128.5 -78t-189 -29.5z" />
    <glyph glyph-name="uni0438" unicode="&#x438;" horiz-adv-x="1288" 
d="M172 0v1118h162v-764l-4 -141l86 143l538 762h162v-1118h-162v762l7 141l-89 -143l-538 -760h-162z" />
    <glyph glyph-name="uni0439" unicode="&#x439;" horiz-adv-x="1288" 
d="M647 1333q-99 0 -183 48t-140 130l77 84q104 -125 246 -125q139 0 246 125l78 -84q-56 -82 -140.5 -130t-183.5 -48zM172 0v1118h162v-764l-4 -141l86 143l538 762h162v-1118h-162v762l7 141l-89 -143l-538 -760h-162z" />
    <glyph glyph-name="uni043A" unicode="&#x43a;" horiz-adv-x="1099" 
d="M1087 0h-200l-498 582l447 536h186l-457 -526zM172 0v1118h162v-1118h-162z" />
    <glyph glyph-name="uni043B" unicode="&#x43b;" horiz-adv-x="1189" 
d="M72 -35l-54 139q72 31 123 69t84 103q51 97 82.5 320t40.5 522h670v-1118h-162v983h-360q-23 -316 -54 -500t-86 -290q-45 -86 -114 -140.5t-170 -87.5z" />
    <glyph glyph-name="uni043C" unicode="&#x43c;" horiz-adv-x="1529" 
d="M172 0v1118h225l351 -1009l391 1009h217v-1118h-156v748l8 182l-354 -930h-217l-318 932l9 -184v-748h-156z" />
    <glyph glyph-name="uni043D" unicode="&#x43d;" horiz-adv-x="1247" 
d="M172 0v1118h162v-489h579v489h162v-1118h-162v492h-579v-492h-162z" />
    <glyph glyph-name="uni043E" unicode="&#x43e;" horiz-adv-x="1224" 
d="M606 -25q-232 0 -364.5 149.5t-132.5 422.5q0 285 141 442.5t379 157.5q236 0 361.5 -151.5t125.5 -430.5q0 -148 -38 -262t-107 -185t-161 -107t-204 -36zM616 109q78 0 138 26t97 67.5t60.5 101t32 120.5t8.5 131q0 69 -8.5 129.5t-31.5 122.5t-59 106.5t-97 72.5
t-140 28t-140.5 -27.5t-99 -72t-62 -106.5t-33.5 -123.5t-9 -129.5q0 -72 10.5 -134.5t35.5 -121t63.5 -100t98.5 -66t136 -24.5z" />
    <glyph glyph-name="uni043F" unicode="&#x43f;" horiz-adv-x="1226" 
d="M172 0v1118h883v-1118h-162v983h-559v-983h-162z" />
    <glyph glyph-name="uni0440" unicode="&#x440;" horiz-adv-x="1208" 
d="M172 -451v1569h162v-92q84 58 158.5 87.5t169.5 29.5q204 0 320 -147t116 -418q0 -132 -29.5 -235.5t-79.5 -171.5t-121 -112t-150 -63t-171 -19t-213 19v-447h-162zM545 113q104 0 180.5 33.5t121.5 95.5t66 142.5t21 182.5q0 66 -8.5 125.5t-30 117.5t-55 100t-88 68
t-123.5 26q-61 0 -124.5 -21t-95 -39t-75.5 -47v-762q3 0 45 -7t84.5 -11t81.5 -4z" />
    <glyph glyph-name="uni0441" unicode="&#x441;" horiz-adv-x="1017" 
d="M666 -25q-284 0 -420.5 138t-136.5 424q0 296 140.5 453t389.5 157q176 0 297 -68l-49 -129q-140 56 -248 56q-177 0 -271 -115.5t-94 -345.5q0 -216 93.5 -323t314.5 -107q46 0 91 6t64.5 11t71.5 18l25 -132q-127 -43 -268 -43z" />
    <glyph glyph-name="uni0442" unicode="&#x442;" horiz-adv-x="980" 
d="M412 0v981h-381v137h921v-137h-381v-981h-159z" />
    <glyph glyph-name="uni0443" unicode="&#x443;" horiz-adv-x="1046" 
d="M319 -451l152 451h-76l-360 1118h176l242 -799l63 -200l66 196l274 803h166l-547 -1569h-156z" />
    <glyph glyph-name="uni0444" unicode="&#x444;" horiz-adv-x="1556" 
d="M698 -451v435q-131 0 -236 32.5t-185.5 100t-124 180.5t-43.5 264t44.5 264.5t125.5 181.5t185.5 101.5t233.5 34.5v401h160v-401q131 0 236.5 -33t185.5 -101t124 -181.5t44 -264.5q0 -153 -45.5 -266.5t-128 -180.5t-186 -99t-230.5 -33v-435h-160zM858 115
q215 0 320.5 118t105.5 330q0 210 -105.5 328t-320.5 119v-895zM698 113v897q-217 0 -321.5 -118t-104.5 -331t105 -330.5t321 -117.5z" />
    <glyph glyph-name="uni0445" unicode="&#x445;" horiz-adv-x="1026" 
d="M33 0l389 571l-367 547h189l270 -432l272 432h181l-361 -543l389 -575h-194l-287 459l-291 -459h-190z" />
    <glyph glyph-name="uni0446" unicode="&#x446;" horiz-adv-x="1282" 
d="M1059 -301v301h-887v1118h162v-983h557v983h160v-983h159v-436h-151z" />
    <glyph glyph-name="uni0447" unicode="&#x447;" horiz-adv-x="1105" 
d="M772 0v489q-64 -18 -104 -28.5t-104.5 -19.5t-127.5 -9q-100 0 -168.5 22.5t-106.5 67t-53.5 101.5t-15.5 137v358h162v-340q0 -52 8 -86t32 -64.5t73 -44.5t125 -14q118 0 280 56v493h160v-1118h-160z" />
    <glyph glyph-name="uni0448" unicode="&#x448;" horiz-adv-x="1726" 
d="M172 0v1118h162v-983h448v983h162v-983h449v983h161v-1118h-1382z" />
    <glyph glyph-name="uni0449" unicode="&#x449;" horiz-adv-x="1785" 
d="M1563 -301v301h-1391v1118h162v-983h448v983h162v-983h449v983h161v-983h160v-436h-151z" />
    <glyph glyph-name="uni044A" unicode="&#x44a;" horiz-adv-x="1245" 
d="M360 0v981h-327v137h487v-409h217q210 0 325.5 -92t115.5 -267q0 -153 -97.5 -251.5t-259.5 -98.5h-461zM723 571h-203v-434h246q115 0 180.5 56t65.5 159q0 114 -78.5 166.5t-210.5 52.5z" />
    <glyph glyph-name="uni044B" unicode="&#x44b;" horiz-adv-x="1495" 
d="M172 0v1118h162v-409h215q211 0 323.5 -91.5t112.5 -267.5q0 -154 -95 -252t-255 -98h-463zM535 571h-201v-434h246q114 0 176.5 55.5t62.5 159.5q0 219 -284 219zM1157 0v1118h164v-1118h-164z" />
    <glyph glyph-name="uni044C" unicode="&#x44c;" horiz-adv-x="1058" 
d="M172 0v1118h162v-409h215q211 0 325.5 -92t114.5 -267q0 -153 -97 -251.5t-257 -98.5h-463zM535 571h-201v-434h246q115 0 179 56t64 159q0 114 -77.5 166.5t-210.5 52.5z" />
    <glyph glyph-name="uni044D" unicode="&#x44d;" horiz-adv-x="1021" 
d="M391 -23q-167 0 -315 74l51 125q133 -65 258 -65q173 0 263 108.5t100 280.5h-467v135h467q-4 59 -17 111.5t-39 102t-63 85t-92.5 57t-124.5 21.5q-57 0 -118 -13t-82.5 -21t-68.5 -26l-51 127q143 66 324 66q246 0 371.5 -148.5t125.5 -435.5q0 -274 -145.5 -429
t-376.5 -155z" />
    <glyph glyph-name="uni044E" unicode="&#x44e;" horiz-adv-x="1685" 
d="M1067 -18q-224 0 -355 132t-143 378h-235v-492h-162v1118h162v-489h237q21 245 159 379.5t349 134.5q248 0 373 -150t125 -434q0 -144 -38.5 -255.5t-107.5 -181t-161 -105t-203 -35.5zM1077 115q96 0 164.5 37t104.5 102.5t51.5 140t15.5 164.5q0 67 -8.5 127t-32 121.5
t-60.5 105.5t-98 71.5t-141 27.5q-78 0 -139 -27.5t-98.5 -71.5t-61.5 -105t-33.5 -122t-9.5 -129q0 -92 17.5 -168t56 -139.5t108 -99t164.5 -35.5z" />
    <glyph glyph-name="uni044F" unicode="&#x44f;" horiz-adv-x="1128" 
d="M254 0h-188q3 1 156.5 216.5t160.5 225.5q-101 31 -160 112t-59 194q0 170 113.5 270t289.5 100h387v-1118h-161v403h-166q-65 0 -92 3zM610 528h183v453h-215q-121 0 -184.5 -61t-63.5 -175q0 -111 77 -164t203 -53z" />
    <glyph glyph-name="uni0450" unicode="&#x450;" horiz-adv-x="1118" 
d="M641 -25q-127 0 -221 28.5t-165.5 92.5t-107.5 174t-36 267q0 159 37.5 278.5t104.5 190.5t153.5 106t191.5 35q212 0 313 -138.5t101 -420.5v-60h-738q1 -125 32 -209.5t88 -127.5t121.5 -59.5t152.5 -16.5q136 0 297 51l28 -131q-144 -60 -352 -60zM276 649h568
q0 176 -64.5 273.5t-197.5 97.5q-126 0 -209.5 -95t-96.5 -276zM670 1268l-396 245l72 123l387 -266z" />
    <glyph glyph-name="uni0451" unicode="&#x451;" horiz-adv-x="1118" 
d="M412 1370h-158v191h158v-191zM860 1370h-160v191h160v-191zM641 -25q-127 0 -221 28.5t-165.5 92.5t-107.5 174t-36 267q0 159 37.5 278.5t104.5 190.5t153.5 106t191.5 35q212 0 313 -138.5t101 -420.5v-60h-738q1 -125 32 -209.5t88 -127.5t121.5 -59.5t152.5 -16.5
q136 0 297 51l28 -131q-144 -60 -352 -60zM276 649h568q0 176 -64.5 273.5t-197.5 97.5q-126 0 -209.5 -95t-96.5 -276z" />
    <glyph glyph-name="uni0452" unicode="&#x452;" horiz-adv-x="1236" 
d="M711 -451l-101 105q147 134 241.5 341t94.5 472q0 369 -256 369q-29 0 -60 -5t-56 -11.5t-54.5 -18.5t-48.5 -21t-45.5 -24t-37 -21.5t-32 -20t-22.5 -14.5v-700h-162v1176h-219v133h219v235h162v-235h391v-133h-391v-349q48 32 74 48.5t83 46.5t115 44.5t117 14.5
q85 0 152 -27t110.5 -73t72 -110.5t40.5 -134.5t12 -151q0 -135 -25.5 -264t-66 -229t-94.5 -188.5t-106.5 -149t-106.5 -105.5z" />
    <glyph glyph-name="uni0453" unicode="&#x453;" horiz-adv-x="892" 
d="M356 1266l-57 100l385 262l72 -115zM172 0v1118h696v-137h-534v-981h-162z" />
    <glyph glyph-name="uni0454" unicode="&#x454;" horiz-adv-x="1019" 
d="M678 -23q-298 0 -433.5 138t-135.5 444q0 271 141.5 429.5t380.5 158.5q187 0 305 -64l-49 -127q-132 56 -258 56q-145 0 -238 -97t-112 -268h473v-137h-476q8 -205 102.5 -298t315.5 -93q40 0 81 5t82.5 12.5t51.5 8.5l25 -131q-152 -37 -256 -37z" />
    <glyph glyph-name="uni0455" unicode="&#x455;" horiz-adv-x="917" 
d="M399 -25q-161 0 -313 50l27 137q166 -49 299 -49q124 0 196 46t72 128q0 45 -24 80.5t-64 58.5t-90.5 46.5t-103 43t-103 49t-90.5 63.5t-64 87t-24 119q0 148 107.5 230.5t271.5 82.5q159 0 280 -53l-37 -129q-117 47 -245 47q-110 0 -165 -45.5t-55 -118.5
q0 -52 31 -91.5t80.5 -65.5t109 -50t119 -52.5t109 -64.5t80.5 -94t31 -133q0 -69 -26.5 -125t-69 -92t-100.5 -60.5t-117 -34.5t-122 -10z" />
    <glyph glyph-name="uni0456" unicode="&#x456;" horiz-adv-x="509" 
d="M172 0v1118h164v-1118h-164zM332 1370h-158v191h158v-191z" />
    <glyph glyph-name="uni0457" unicode="&#x457;" horiz-adv-x="509" 
d="M102 1370h-157v191h157v-191zM551 1370h-160v191h160v-191zM172 0v1118h164v-1118h-164z" />
    <glyph glyph-name="uni0458" unicode="&#x458;" horiz-adv-x="509" 
d="M-41 -459q-78 0 -143 25l28 131q58 -16 117 -16q118 0 164.5 72t46.5 210v1155h164v-1157q0 -119 -28.5 -203.5t-81.5 -130.5t-118 -66t-149 -20zM332 1370h-158v191h158v-191z" />
    <glyph glyph-name="uni0459" unicode="&#x459;" horiz-adv-x="1742" 
d="M72 -35l-56 139q153 62 209 172q51 97 82.5 320t40.5 522h670v-409h215q209 0 324.5 -92t115.5 -267q0 -153 -97 -251.5t-259 -98.5h-461v983h-360q-25 -312 -55 -493.5t-81 -288.5q-45 -89 -115 -145.5t-173 -90.5zM1219 571h-201v-434h244q115 0 180 56t65 159
q0 114 -78 166.5t-210 52.5z" />
    <glyph glyph-name="uni045A" unicode="&#x45a;" horiz-adv-x="1769" 
d="M172 0v1118h162v-454h561v454h160v-454h215q208 0 321 -85t113 -249q0 -144 -95.5 -237t-254.5 -93h-459v526h-561v-526h-162zM1253 526h-198v-389h241q112 0 176 50t64 145q0 194 -283 194z" />
    <glyph glyph-name="uni045B" unicode="&#x45b;" horiz-adv-x="1214" 
d="M172 0v1176h-219v133h219v235h162v-235h391v-133h-391v-349q100 70 153 96q116 58 238 58q68 0 122 -14t89.5 -35.5t61.5 -57t39.5 -68.5t21 -81t9 -83t1.5 -85v-557h-156v547q0 81 -7.5 129t-31 88t-70 57t-122.5 17q-130 0 -348 -138v-700h-162z" />
    <glyph glyph-name="uni045C" unicode="&#x45c;" horiz-adv-x="1099" 
d="M420 1266l-58 100l386 262l71 -115zM1087 0h-200l-498 582l447 536h186l-457 -526zM172 0v1118h162v-1118h-162z" />
    <glyph glyph-name="uni045D" unicode="&#x45d;" horiz-adv-x="1288" 
d="M172 0v1118h162v-764l-4 -141l86 143l538 762h162v-1118h-162v762l7 141l-89 -143l-538 -760h-162zM743 1268l-395 245l72 123l387 -266z" />
    <glyph glyph-name="uni045E" unicode="&#x45e;" horiz-adv-x="1046" 
d="M319 -451l152 451h-76l-360 1118h176l242 -799l63 -200l66 196l274 803h166l-547 -1569h-156zM528 1348q-99 0 -183 48t-140 130l78 84q104 -125 245 -125q139 0 246 125l78 -84q-56 -82 -140.5 -130t-183.5 -48z" />
    <glyph glyph-name="uni045F" unicode="&#x45f;" horiz-adv-x="1228" 
d="M539 -301v301h-367v1118h162v-983h561v983h160v-1118h-365v-301h-151z" />
    <glyph glyph-name="uni0462" unicode="&#x462;" horiz-adv-x="1411" 
d="M395 0v1092h-391v139h391v217h168v-217h457v-137h-457v-263h211q278 0 419.5 -103.5t141.5 -319.5q0 -188 -126.5 -298t-354.5 -110h-459zM772 692h-209v-555h258q336 0 336 279q0 80 -27.5 135t-81 85.5t-120 43t-156.5 12.5z" />
    <glyph glyph-name="uni0463" unicode="&#x463;" horiz-adv-x="1226" 
d="M342 0v981h-352v137h352v330h160v-330h401v-137h-401v-287h215q213 0 326.5 -88t113.5 -262q0 -153 -96 -248.5t-258 -95.5h-461zM705 559h-203v-422h246q116 0 180.5 54t64.5 155q0 111 -78 162t-210 51z" />
    <glyph glyph-name="uni0472" unicode="&#x472;" horiz-adv-x="1695" 
d="M831 -25q-221 0 -382.5 96t-243.5 265t-82 391q0 339 201.5 540t535.5 201q171 0 307.5 -57t224.5 -157.5t134.5 -236t46.5 -294.5q0 -221 -88 -389.5t-257 -263.5t-397 -95zM838 115q132 0 237 42t173 117t106.5 174.5t46.5 219.5h-1108q8 -115 46.5 -214.5t105 -175.5
t167.5 -119.5t226 -43.5zM852 1329q-254 0 -398.5 -148.5t-160.5 -389.5h1108q-19 241 -163 389.5t-386 148.5z" />
    <glyph glyph-name="uni0473" unicode="&#x473;" horiz-adv-x="1224" 
d="M606 -25q-232 0 -364.5 149.5t-132.5 422.5q0 285 141 442.5t379 157.5q236 0 361.5 -151.5t125.5 -430.5q0 -148 -38 -262t-107 -185t-161 -107t-204 -36zM616 109q72 0 129 22t93.5 58t61 88t36 106.5t14.5 118.5h-678q5 -82 25.5 -150t59.5 -124t105 -87.5t154 -31.5z
M616 1014q-72 0 -129.5 -22.5t-94.5 -59.5t-63 -89t-38.5 -106t-16.5 -116h676q-5 78 -23.5 143.5t-55 124t-102 92t-153.5 33.5z" />
    <glyph glyph-name="uni0474" unicode="&#x474;" horiz-adv-x="1417" 
d="M541 0l-523 1448h185l461 -1315l368 942q69 178 134.5 275.5t138.5 146.5l120 -96q-63 -43 -117.5 -121t-111.5 -221l-422 -1059h-233z" />
    <glyph glyph-name="uni0475" unicode="&#x475;" horiz-adv-x="1112" 
d="M395 0l-364 1118h178l233 -768l72 -237l80 241l137 396q50 147 117 253t137 152l119 -94q-138 -97 -238 -381l-241 -680h-230z" />
    <glyph glyph-name="uni048A" unicode="&#x48a;" horiz-adv-x="1654" 
d="M217 0v1448h168v-1016l-6 -217l129 215l704 1018h168v-1309h236l-119 -516h-154l78 377h-209v1016l7 217l-86 -143l-748 -1090h-168zM819 1554q-215 0 -344 172l86 84q104 -118 258 -118q152 0 258 118l84 -84q-61 -83 -148.5 -127.5t-193.5 -44.5z" />
    <glyph glyph-name="uni048B" unicode="&#x48b;" horiz-adv-x="1347" 
d="M172 0v1118h162v-764l-4 -141l86 143l538 762h162v-979h207l-121 -516h-151l77 377h-174v762l7 141l-89 -143l-538 -760h-162zM659 1348q-99 0 -183 48t-140 130l78 84q104 -125 245 -125q139 0 246 125l78 -84q-56 -82 -140.5 -130t-183.5 -48z" />
    <glyph glyph-name="uni048C" unicode="&#x48c;" horiz-adv-x="1304" 
d="M80 1112v129h207v207h170v-207h239v-129h-239v-227h207q274 0 418.5 -113t144.5 -336q0 -195 -127.5 -315.5t-351.5 -120.5h-461v1112h-207zM664 743h-207v-606h258q164 0 249 81.5t85 225.5q0 160 -101 229.5t-284 69.5z" />
    <glyph glyph-name="uni048D" unicode="&#x48d;" horiz-adv-x="1124" 
d="M236 0v858h-168v113h168v147h161v-147h281v-113h-281v-149h215q211 0 326 -92t115 -267q0 -153 -97.5 -251.5t-257.5 -98.5h-462zM598 571h-201v-434h246q115 0 179.5 56t64.5 159q0 114 -78 166.5t-211 52.5z" />
    <glyph glyph-name="uni048E" unicode="&#x48e;" horiz-adv-x="1259" 
d="M217 0v1448h471q219 0 344 -118t125 -335q0 -110 -43 -202.5t-127 -155.5l123 -127l-88 -86l-148 149q-124 -51 -292 -51h-197v-522h-168zM666 786l92 88l123 -129q98 85 98 240q0 166 -83 246t-253 80h-258v-647h209q100 0 170 20z" />
    <glyph glyph-name="uni048F" unicode="&#x48f;" horiz-adv-x="1212" 
d="M172 -451v1569h162v-92q84 58 158.5 87.5t169.5 29.5q204 0 320 -147t116 -418q0 -319 -168 -474l92 -94l-86 -88l-113 113q-122 -58 -276 -58q-92 0 -213 19v-447h-162zM629 229l94 90l100 -104q111 114 111 352q0 66 -8.5 125.5t-30 117.5t-55 100t-88 68t-123.5 26
q-61 0 -124.5 -21t-95 -39t-75.5 -47v-762q3 0 45 -7t84.5 -11t81.5 -4q97 0 170 28z" />
    <glyph glyph-name="uni0490" unicode="&#x490;" horiz-adv-x="1064" 
d="M217 0v1448h672v330h164v-467h-668v-1311h-168z" />
    <glyph glyph-name="uni0491" unicode="&#x491;" horiz-adv-x="892" 
d="M172 0v1118h541v234h153l2 -371h-534v-981h-162z" />
    <glyph glyph-name="uni0492" unicode="&#x492;" horiz-adv-x="1146" 
d="M106 649v135h166v664h852v-137h-684v-527h359v-135h-359v-649h-168v649h-166z" />
    <glyph glyph-name="uni0493" unicode="&#x493;" horiz-adv-x="940" 
d="M74 483v131h133v504h696v-137h-534v-367h295v-131h-295v-483h-162v483h-133z" />
    <glyph glyph-name="uni0494" unicode="&#x494;" horiz-adv-x="1312" 
d="M774 -451l-100 119q28 21 66 58t94 108.5t100.5 151.5t77 192t32.5 225q0 150 -75.5 234t-212.5 84q-84 0 -186 -25.5t-185 -68.5v-627h-168v1448h791v-143h-623v-531q232 86 410 86q111 0 193.5 -35.5t131 -98.5t71.5 -141.5t23 -172.5q0 -172 -56.5 -328t-149.5 -280
t-234 -255z" />
    <glyph glyph-name="uni0495" unicode="&#x495;" horiz-adv-x="1128" 
d="M172 0v1118h768v-137h-606v-350q141 104 305 104q105 0 182 -37t120.5 -103.5t64 -148.5t20.5 -182q0 -473 -379 -735l-88 102q65 55 104.5 93t82 93.5t65 112t37 136t14.5 178.5q0 172 -62.5 260t-197.5 88q-57 0 -110.5 -15t-84 -31.5t-73.5 -45.5v-500h-162z" />
    <glyph glyph-name="uni0496" unicode="&#x496;" horiz-adv-x="1945" 
d="M1632 0l-557 743v31l518 674h207l-532 -680l477 -629h190v-452h-166v313h-137zM27 0l583 768l-532 680h209l516 -674v-31l-557 -743h-219zM854 0v1448h170v-1448h-170z" />
    <glyph glyph-name="uni0497" unicode="&#x497;" horiz-adv-x="1671" 
d="M709 0v1118h161v-1118h-161zM1667 -313h-164v311q-94 3 -155.5 38t-153.5 154l-295 388l422 540h186l-422 -532l213 -285q46 -61 74 -91t65.5 -49.5t75.5 -23.5t109 -4h45v-446zM211 0h-178l465 586l-424 532h186l414 -540z" />
    </font>
</defs>
</svg>
