<?xml version="1.0" standalone="no"?>
<!DOCTYPE svg PUBLIC "-//W3C//DTD SVG 1.1//EN" "http://www.w3.org/Graphics/SVG/1.1/DTD/svg11.dtd" >
<svg xmlns="http://www.w3.org/2000/svg" xmlns:xlink="http://www.w3.org/1999/xlink" version="1.1">
<metadata>
Created by FontForge 20201107 at Fri Jul 26 19:46:23 2024
 By 
Copyright (c) 2001-2009 Typotheque.com All rights reserved. Cyrillic designed by Alexei Kassian and Gayaneh Bagdasaryan.
</metadata>
<defs>
<font id="FedraSansAltPro-MedLF" horiz-adv-x="1228" >
  <font-face 
    font-family="Fedra Sans Alt Pro Med LF"
    font-weight="500"
    font-stretch="normal"
    units-per-em="2048"
    panose-1="2 0 6 3 0 0 0 2 0 4"
    ascent="1597"
    descent="-451"
    x-height="1118"
    cap-height="1448"
    bbox="-1204 -582 2976 2279"
    underline-thickness="102"
    underline-position="-204"
    unicode-range="U+0020-FB04"
  />
<missing-glyph horiz-adv-x="1458" 
d="M625 768v55h55v-55h-55zM778 1075v55h56v-55h-56zM625 1075v55h55v-55h-55zM471 1075v55h55v-55h-55zM164 0v55h55v-55h-55zM317 0v55h56v-55h-56zM471 0v55h55v-55h-55zM625 0v55h55v-55h-55zM778 0v55h56v-55h-56zM164 154v55h55v-55h-55zM164 307v55h55v-55h-55z
M164 461v55h55v-55h-55zM164 614v56h55v-56h-55zM164 768v55h55v-55h-55zM164 922v55h55v-55h-55zM164 1075v55h55v-55h-55zM164 1229v55h55v-55h-55zM164 1382v56h55v-56h-55zM317 1382v56h56v-56h-56zM471 1382v56h55v-56h-55zM625 1382v56h55v-56h-55zM778 1382v56h56
v-56h-56zM932 1382v56h55v-56h-55zM1085 1382v56h56v-56h-56zM1085 0v55h56v-55h-56zM932 0v55h55v-55h-55zM1239 0v55h55v-55h-55zM1239 1382v56h55v-56h-55zM625 614v56h55v-56h-55zM625 307v55h55v-55h-55zM778 768v55h56v-55h-56zM932 768v55h55v-55h-55zM932 922v55h55
v-55h-55zM932 1075v55h55v-55h-55zM1239 1229v55h55v-55h-55zM1239 1075v55h55v-55h-55zM1239 768v55h55v-55h-55zM1239 614v56h55v-56h-55zM1239 307v55h55v-55h-55zM1239 154v55h55v-55h-55zM1239 461v55h55v-55h-55zM1239 922v55h55v-55h-55z" />
    <glyph glyph-name="f_f" unicode="ff" horiz-adv-x="1476" 
d="M219 0v924h-164v194h164v74q0 405 453 405q214 0 399 -67q94 67 293 67q57 0 135.5 -12.5t126.5 -28.5l-53 -213q-105 21 -199 21q-87 0 -128.5 -42.5t-41.5 -129.5v-74h242v-194h-242v-924h-272v924h-440v-924h-273zM492 1118h440v88q0 74 16 123q-133 35 -282 35
q-174 0 -174 -172v-74z" />
    <glyph glyph-name="fi" unicode="fi" horiz-adv-x="1355" 
d="M219 0v922h-164v196h164v62q0 94 23 167.5t62 119.5t95.5 76t117.5 42t134 12q46 0 136.5 -5.5t132.5 -6.5q140 0 245 12l41 -206q-128 -43 -301 -43q-41 0 -123 5t-133 5q-86 0 -121.5 -40t-35.5 -140v-60h712v-1118h-274v922h-441v-922h-270z" />
    <glyph glyph-name="fl" unicode="fl" horiz-adv-x="1355" 
d="M219 0v922h-164v196h164v60q0 114 34.5 197.5t96 130t136 68t165.5 21.5q42 0 131.5 -6t137.5 -6q98 -2 284 19v-1602h-274v1348q-47 -1 -136 4.5t-145 5.5q-85 0 -121 -41.5t-36 -134.5v-64h239v-196h-242v-922h-270z" />
    <glyph glyph-name="f_f_i" unicode="ffi" horiz-adv-x="2068" 
d="M219 0v922h-164v196h164v74q0 405 443 405q120 0 236 -22.5t183 -48.5q112 76 283 76q46 0 135.5 -6t132.5 -7q133 0 244 13l43 -207q-130 -43 -299 -43q-42 0 -125 6t-135 6q-84 0 -119 -43.5t-35 -144.5v-58h713v-1118h-274v922h-439v-922h-274v922h-438v-922h-275z
M494 1118h440v60q0 96 18 151q-152 35 -286 35q-87 0 -129.5 -42t-42.5 -130v-74z" />
    <glyph glyph-name="f_f_l" unicode="ffl" horiz-adv-x="2060" 
d="M219 0v924h-164v194h164v74q0 405 453 405q113 0 224.5 -21.5t184.5 -49.5q109 76 281 76q45 0 135 -7t135 -8q96 -2 277 19v-1606h-273v1352q-42 0 -129.5 6t-146.5 6q-84 0 -120 -43.5t-36 -142.5v-60h238v-194h-238v-924h-272v924h-438v-924h-275zM494 1118h438v60
q0 88 18 149q-129 37 -284 37q-87 0 -129.5 -42t-42.5 -130v-74z" />
    <glyph glyph-name="aogonek_j" unicode="&#x105;j" horiz-adv-x="1812" 
d="M1018 -516q-161 0 -247.5 69t-86.5 177q0 159 178 274q-29 15 -55.5 48.5t-32.5 64.5q-36 -27 -64 -44.5t-74 -41t-99.5 -35.5t-110.5 -12q-173 0 -265.5 82t-92.5 243q0 80 28.5 142t73 98.5t107.5 60t123 32t128 9.5l222 2v99q0 92 -54.5 125.5t-181.5 33.5
q-110 0 -311 -49l-56 203q216 80 416 80q78 0 137.5 -6.5t121.5 -27.5t102.5 -56t66 -96.5t25.5 -145.5v-545q0 -35 25.5 -50.5t76.5 -18.5l-14 -207q-85 -54 -129.5 -100t-44.5 -101q0 -42 36.5 -65t90.5 -23q144 0 238 86t94 229v1100h272v-1100q0 -166 -83 -288
t-227.5 -184t-332.5 -62zM475 197q33 0 76.5 9t73 18t73 24t52.5 18v221l-207 -8q-209 -5 -209 -153q0 -129 141 -129zM1386 1337v262h273v-262h-273z" />
    <glyph glyph-name="f_h" unicode="fh" horiz-adv-x="2084" 
d="M219 0v926h-164v192h164v60q0 94 23 168t62 121.5t95 78.5t118 43.5t134 12.5q45 0 134.5 -7t134.5 -8q98 -2 284 19v-602q34 24 52.5 36t62 36.5t78.5 37.5t84.5 24t97.5 11q72 0 128 -13t94.5 -33.5t65.5 -54.5t42 -68t23.5 -83t11 -89.5t2.5 -96.5v-711h-273v680
q0 127 -37 179t-143 52q-117 0 -289 -94v-817h-274v1352q-46 -1 -136 5.5t-147 6.5q-84 0 -119.5 -43.5t-35.5 -144.5v-58h237v-192h-240v-926h-270z" />
    <glyph glyph-name="f_b" unicode="fb" horiz-adv-x="2054" 
d="M1376 -20q-111 0 -202 11t-135 22.5t-107 31.5v1303q-47 -1 -137 4.5t-146 5.5q-85 0 -121 -41.5t-36 -134.5v-64h239v-196h-242v-922h-270v922h-164v196h164v60q0 114 34.5 197.5t96 130t136 68t165.5 21.5q42 0 131.5 -6t137.5 -6q98 -2 284 19v-517q41 27 118.5 42.5
t139.5 15.5q506 0 506 -529q0 -139 -32.5 -248.5t-87 -181t-131.5 -118.5t-161 -66.5t-180 -19.5zM1413 936q-99 0 -209 -45v-672q103 -24 178 -24q97 0 168 55t105.5 145.5t34.5 204.5q0 173 -61 254.5t-216 81.5z" />
    <glyph glyph-name="f_j" unicode="fj" horiz-adv-x="1355" 
d="M770 -465q-77 0 -190 37l51 219q50 -16 145 -16q86 0 120 46.5t34 158.5v946h-441v-926h-270v926h-164v192h164v56q0 95 23 169t62 121.5t95.5 78.5t118 43.5t133.5 12.5q42 0 131 -6t138 -6q141 0 243 12l43 -206q-123 -43 -301 -43q-43 0 -125 5t-133 5
q-84 0 -119.5 -43.5t-35.5 -142.5v-56h712v-1136q0 -107 -23 -187t-61 -129t-95 -79t-118 -41t-137 -11z" />
    <glyph glyph-name="f_k" unicode="fk" horiz-adv-x="1957" 
d="M1942 0h-336l-402 526v-526h-274v1352q-46 -1 -136 5.5t-147 6.5q-84 0 -119.5 -43.5t-35.5 -144.5v-58h237v-192h-240v-926h-270v926h-164v192h164v60q0 94 23 168t62 121.5t95 78.5t118 43.5t134 12.5q45 0 134.5 -7t134.5 -8q101 -2 284 19v-973l389 485h299
l-434 -518z" />
    <glyph glyph-name="f_f_j" unicode="ffj" horiz-adv-x="2068" 
d="M1493 -451q-103 0 -190 33l51 213q4 -1 25 -4.5t53 -6.5t55 -3q86 0 121 48t37 159v934h-439v-922h-274v922h-438v-922h-275v922h-164v196h164v74q0 405 443 405q120 0 236 -22.5t183 -48.5q112 76 283 76q46 0 135.5 -6t132.5 -7q133 0 244 13l43 -207
q-130 -43 -299 -43q-42 0 -125 6t-135 6q-84 0 -119 -43.5t-35 -144.5v-58h713l-2 -1130q-1 -106 -24 -185.5t-60.5 -127t-94 -76.5t-114.5 -39.5t-131 -10.5zM494 1118h440v60q0 96 18 151q-152 35 -286 35q-87 0 -129.5 -42t-42.5 -130v-74z" />
    <glyph glyph-name="f_idieresis" unicode="f&#xef;" horiz-adv-x="1370" 
d="M219 0v922h-164v196h164v84q0 371 367 371q87 0 172 -29l-43 -205q-47 19 -109 19q-114 0 -114 -144v-96h231v-196h-231v-922h-273zM946 0v1118h275v-1118h-275zM815 1327v221h225v-221h-225zM1206 1327v221h226v-221h-226z" />
    <glyph glyph-name="f_igrave" unicode="f&#xec;" horiz-adv-x="1370" 
d="M219 0v922h-164v196h164v84q0 103 26 176t75 115t112.5 61t145.5 19q112 0 198 -27l-43 -213q-61 25 -133 25q-108 0 -108 -144v-96h231v-196h-231v-922h-273zM1137 1223l-310 336l164 141l289 -359zM946 0v1118h275v-1118h-275z" />
    <glyph glyph-name=".notdef" horiz-adv-x="1458" 
d="M625 768v55h55v-55h-55zM778 1075v55h56v-55h-56zM625 1075v55h55v-55h-55zM471 1075v55h55v-55h-55zM164 0v55h55v-55h-55zM317 0v55h56v-55h-56zM471 0v55h55v-55h-55zM625 0v55h55v-55h-55zM778 0v55h56v-55h-56zM164 154v55h55v-55h-55zM164 307v55h55v-55h-55z
M164 461v55h55v-55h-55zM164 614v56h55v-56h-55zM164 768v55h55v-55h-55zM164 922v55h55v-55h-55zM164 1075v55h55v-55h-55zM164 1229v55h55v-55h-55zM164 1382v56h55v-56h-55zM317 1382v56h56v-56h-56zM471 1382v56h55v-56h-55zM625 1382v56h55v-56h-55zM778 1382v56h56
v-56h-56zM932 1382v56h55v-56h-55zM1085 1382v56h56v-56h-56zM1085 0v55h56v-55h-56zM932 0v55h55v-55h-55zM1239 0v55h55v-55h-55zM1239 1382v56h55v-56h-55zM625 614v56h55v-56h-55zM625 307v55h55v-55h-55zM778 768v55h56v-55h-56zM932 768v55h55v-55h-55zM932 922v55h55
v-55h-55zM932 1075v55h55v-55h-55zM1239 1229v55h55v-55h-55zM1239 1075v55h55v-55h-55zM1239 768v55h55v-55h-55zM1239 614v56h55v-56h-55zM1239 307v55h55v-55h-55zM1239 154v55h55v-55h-55zM1239 461v55h55v-55h-55zM1239 922v55h55v-55h-55z" />
    <glyph glyph-name=".null" horiz-adv-x="0" 
 />
    <glyph glyph-name="nonmarkingreturn" horiz-adv-x="682" 
 />
    <glyph glyph-name="space" unicode=" " horiz-adv-x="483" 
 />
    <glyph glyph-name="exclam" unicode="!" horiz-adv-x="649" 
d="M205 414l-17 354v680h273v-680l-15 -354h-241zM182 0v254h283v-254h-283z" />
    <glyph glyph-name="quotedbl" unicode="&#x22;" horiz-adv-x="811" 
d="M115 1055l-17 489h232l-19 -489h-196zM500 1055l-17 489h232l-19 -489h-196z" />
    <glyph glyph-name="numbersign" unicode="#" horiz-adv-x="1417" 
d="M1303 305h-226l-18 -305h-260l18 305h-266l-19 -305h-260l19 305h-176v221h190l23 371h-213v221h231l19 330h262l-21 -330h264l21 330h260l-21 -330h173v-221h-187l-26 -371h213v-221zM854 897h-264l-25 -371h266z" />
    <glyph glyph-name="dollar" unicode="$" horiz-adv-x="1161" 
d="M1087 403q0 -168 -104 -268t-276 -135v-205h-240v187q-237 5 -401 94l81 205q163 -63 320 -68v444q-62 27 -106.5 50.5t-95.5 62t-82.5 80.5t-52.5 102.5t-21 132.5q0 154 99 245t257 118v190h242v-184q147 -13 303 -82l-80 -196q-138 43 -223 51v-387q53 -24 92.5 -45
t87 -51t80.5 -63.5t62 -75t43.5 -92.5t14.5 -110zM805 391q0 89 -98 154v-299q98 47 98 145zM381 1090q0 -72 86 -129v251q-86 -36 -86 -122z" />
    <glyph glyph-name="percent" unicode="%" horiz-adv-x="1714" 
d="M432 748q-73 0 -135 19.5t-112 59.5t-78.5 108t-28.5 159q0 170 105 269t255 99q75 0 137.5 -18.5t114.5 -58t81.5 -110t29.5 -165.5q0 -168 -106.5 -265t-262.5 -97zM432 938q63 0 101 43.5t38 128.5q0 164 -133 164q-56 0 -92.5 -42.5t-36.5 -137.5q0 -83 30.5 -119.5
t92.5 -36.5zM1264 -20q-73 0 -135 19t-112.5 58.5t-79 107.5t-28.5 159q0 170 105.5 269t255.5 99q75 0 137.5 -18.5t114.5 -58t81 -110t29 -165.5q0 -168 -106 -264t-262 -96zM1264 170q63 0 101 43t38 127q0 164 -133 164q-56 0 -93.5 -42.5t-37.5 -137.5q0 -83 31 -118.5
t94 -35.5zM336 92l-143 150l1155 1089l143 -149z" />
    <glyph glyph-name="ampersand" unicode="&#x26;" horiz-adv-x="1445" 
d="M508 -23q-87 0 -162 20.5t-137 62.5t-97.5 116t-35.5 172q0 236 289 412q-99 181 -99 330q0 49 15 99.5t48 99.5t79.5 87.5t116 62t151.5 23.5q94 0 166 -27.5t113.5 -74.5t62 -103.5t20.5 -119.5q0 -73 -29.5 -135.5t-87 -113.5t-123 -91t-155.5 -82
q120 -202 339.5 -339.5t457.5 -172.5l-31 -215q-267 15 -508 147q-84 -75 -177 -116.5t-216 -41.5zM532 182q114 0 207 70q-173 131 -284 326q-57 -41 -90 -97t-33 -119q0 -88 56.5 -134t143.5 -46zM559 870q103 50 174.5 115.5t71.5 130.5q0 66 -40 106t-106 40
q-67 0 -112 -43t-45 -117q0 -115 57 -232z" />
    <glyph glyph-name="quotesingle" unicode="'" horiz-adv-x="440" 
d="M115 1055l-17 489h246l-18 -489h-211z" />
    <glyph glyph-name="parenleft" unicode="(" horiz-adv-x="743" 
d="M690 -307l-131 -144q-220 163 -353.5 422t-133.5 596q0 327 134 584t351 403l139 -137q-374 -322 -374 -848q0 -257 96.5 -485t271.5 -391z" />
    <glyph glyph-name="parenright" unicode=")" horiz-adv-x="743" 
d="M184 -451l-131 144q175 163 272 391t97 485q0 526 -375 848l139 137q217 -146 351.5 -403t134.5 -584q0 -172 -37 -328.5t-104.5 -283t-154 -227.5t-192.5 -179z" />
    <glyph glyph-name="asterisk" unicode="*" horiz-adv-x="876" 
d="M166 928l-96 172l249 76l41 -74zM322 1210l-252 84l98 172l194 -180zM336 829l61 252h82l56 -252h-199zM395 1307l-53 252h197l-56 -252h-88zM713 922l-197 178l43 76l250 -82zM557 1212l-41 74l195 176l96 -172z" />
    <glyph glyph-name="plus" unicode="+" horiz-adv-x="1179" 
d="M477 98l2 422l-420 -2v211l420 -6l-2 428h213l-8 -432l438 10v-211l-434 2l4 -422h-213z" />
    <glyph glyph-name="comma" unicode="," horiz-adv-x="530" 
d="M68 -266q27 59 42 155.5t15 178.5v204h285v-129q0 -244 -107 -409h-235z" />
    <glyph glyph-name="hyphen" unicode="-" horiz-adv-x="929" 
d="M160 475v223h610v-223h-610z" />
    <glyph glyph-name="hyphen" unicode="&#xad;" horiz-adv-x="929" 
d="M160 475v223h610v-223h-610z" />
    <glyph glyph-name="period" unicode="." horiz-adv-x="557" 
d="M125 0v279h309v-279h-309z" />
    <glyph glyph-name="slash" unicode="/" horiz-adv-x="909" 
d="M94 -127l477 1700h242l-475 -1700h-244z" />
    <glyph glyph-name="zero" unicode="0" horiz-adv-x="1396" 
d="M1274 743q0 -133 -19 -244.5t-62.5 -208.5t-110.5 -164.5t-167.5 -105.5t-228.5 -38q-563 0 -563 720q0 121 16.5 225.5t59 204.5t108 171t171.5 114t243 43q98 0 178 -22.5t136.5 -60.5t99.5 -94t69 -116.5t42 -135t22 -142.5t6 -146zM995 733q0 56 -1.5 95.5t-7.5 96
t-17 95.5t-32.5 82.5t-51 69.5t-74.5 43.5t-102 17.5q-61 0 -109 -18t-80 -45.5t-55 -72t-35 -86t-19 -100t-8.5 -101t-1.5 -101.5q0 -83 5.5 -147t24 -133.5t49.5 -115t86 -75t130 -29.5q59 0 106 17t78 43t53 69.5t34 84t18.5 100t8 103.5t1.5 107z" />
    <glyph glyph-name="one" unicode="1" horiz-adv-x="786" 
d="M592 0h-275v1221h-288v213l563 16v-1450z" />
    <glyph glyph-name="two" unicode="2" horiz-adv-x="1130" 
d="M1047 0h-984v195q7 6 60 55.5t90.5 85.5t103 101.5t113.5 118t104 121t91.5 124t59.5 112.5t24 101q0 120 -57.5 171.5t-166.5 51.5q-68 0 -130 -12.5t-87.5 -22.5t-72.5 -31l-89 191q55 32 97.5 50.5t124.5 35t184 16.5q82 0 150 -14t116 -37t85 -57t59.5 -71t36.5 -82
t19 -86t5 -87q0 -64 -19 -129.5t-46 -122t-76.5 -122t-91 -113t-109.5 -113t-112 -104.5t-117 -103h635v-223z" />
    <glyph glyph-name="three" unicode="3" horiz-adv-x="1062" 
d="M963 406q0 -426 -529 -426q-113 0 -208.5 12t-135.5 24l-39 13l53 221q137 -37 310 -37q134 0 204 42.5t70 152.5q0 124 -86.5 178.5t-290.5 66.5v195q162 11 238 63t76 162q0 82 -52 124t-145 42q-60 0 -124 -10.5t-98 -20.5l-34 -10l-76 193q150 75 346 75
q127 0 226 -37.5t161 -120t62 -200.5q0 -231 -217 -332q60 -21 110 -52.5t91 -76.5t64.5 -106.5t23.5 -134.5z" />
    <glyph glyph-name="four" unicode="4" horiz-adv-x="1232" 
d="M1163 330h-215v-330h-272v330h-629v217l518 901h383v-897h215v-221zM676 551v663l-365 -663h365z" />
    <glyph glyph-name="five" unicode="5" horiz-adv-x="1118" 
d="M1028 455q0 -150 -70.5 -258.5t-190.5 -162.5t-275 -54q-249 0 -394 49l66 223q147 -37 325 -37q122 0 194.5 59t72.5 158q0 238 -244 238q-15 0 -43 -1t-41 -1q-124 0 -278 -15v795h811v-221h-547v-342q47 2 129 2q225 0 355 -113.5t130 -318.5z" />
    <glyph glyph-name="six" unicode="6" horiz-adv-x="1249" 
d="M659 -25q-177 0 -294.5 64t-181.5 210t-64 378q0 409 180.5 622t493.5 213q166 0 274 -41l-59 -213q-105 25 -217 25q-141 0 -237 -83.5t-136 -258.5q131 39 262 39q238 0 364.5 -113.5t126.5 -337.5q0 -158 -69.5 -274t-184 -173t-258.5 -57zM653 717q-149 0 -262 -39
v-64q0 -227 61.5 -321t221.5 -94q102 0 162.5 72.5t60.5 187.5q0 133 -65 195.5t-179 62.5z" />
    <glyph glyph-name="seven" unicode="7" horiz-adv-x="1003" 
d="M983 1257l-641 -1280l-231 68l608 1174h-674v229h938v-191z" />
    <glyph glyph-name="eight" unicode="8" horiz-adv-x="1243" 
d="M614 -25q-150 0 -263.5 40t-182 127.5t-68.5 213.5q0 74 24 137t70 111.5t94 83t113 70.5q-55 35 -94.5 67t-77 74t-56.5 92t-19 107q0 180 133 276t348 96q105 0 193 -29t146 -78t90 -113t32 -134q0 -50 -16.5 -95t-40.5 -78.5t-64.5 -68.5t-75.5 -58.5t-86 -53.5
q58 -31 98 -55.5t87 -61.5t75.5 -73.5t48 -86t19.5 -104.5q0 -133 -68.5 -225.5t-185.5 -136.5t-273 -44zM627 182q109 0 174 53t65 154q0 73 -71 139t-195 134q-233 -132 -233 -281q0 -95 71 -147t189 -52zM614 850q209 105 209 235q0 82 -48 131.5t-142 49.5
q-108 0 -160.5 -51t-52.5 -132q0 -126 194 -233z" />
    <glyph glyph-name="nine" unicode="9" horiz-adv-x="1251" 
d="M449 -18q-157 0 -269 41l60 215q115 -27 213 -27q314 0 383 348q-157 -37 -269 -37q-487 0 -487 453q0 156 70 269.5t185 168.5t259 55q259 0 399 -162.5t140 -488.5q0 -426 -177 -630.5t-507 -204.5zM598 733q97 0 258 39v27q5 239 -58.5 341.5t-217.5 102.5
q-104 0 -165 -68t-61 -182q0 -143 63.5 -201.5t180.5 -58.5z" />
    <glyph glyph-name="colon" unicode=":" horiz-adv-x="632" 
d="M162 0v279h309v-279h-309zM162 840v278h309v-278h-309z" />
    <glyph glyph-name="semicolon" unicode=";" horiz-adv-x="630" 
d="M102 -266q64 123 64 289v249h301v-172q0 -207 -121 -366h-244zM160 840v278h309v-278h-309z" />
    <glyph glyph-name="less" unicode="&#x3c;" horiz-adv-x="1024" 
d="M918 111l-852 389v243l852 404v-234l-635 -292l635 -277v-233z" />
    <glyph glyph-name="equal" unicode="=" horiz-adv-x="1302" 
d="M172 272l-2 211h960l3 -211h-961zM172 756l-2 211h960l3 -211h-961z" />
    <glyph glyph-name="greater" unicode="&#x3e;" horiz-adv-x="1024" 
d="M106 111v233l635 277l-635 292v234l852 -404v-243z" />
    <glyph glyph-name="question" unicode="?" horiz-adv-x="833" 
d="M186 362q-45 96 -45 185q0 73 34.5 138.5t84 112t99 87t84 78.5t34.5 71q0 89 -95.5 136.5t-289.5 62.5l49 227q68 -5 129 -13.5t124.5 -24.5t116.5 -37.5t100.5 -54t80 -72.5t51.5 -94t19 -117q0 -52 -21 -101.5t-54.5 -88.5t-74.5 -75.5t-81.5 -69t-74 -62t-54.5 -60.5
t-21 -60q0 -67 29 -131zM174 0v254h281v-254h-281z" />
    <glyph glyph-name="at" unicode="@" horiz-adv-x="1654" 
d="M782 -150q-158 0 -283 41t-217 124.5t-141 218t-49 313.5q0 187 47 340.5t129.5 260t196.5 179.5t245.5 107t278.5 34q277 0 431.5 -149.5t154.5 -454.5q0 -137 -39 -248.5t-106.5 -184t-156.5 -111.5t-190 -39q-85 0 -136 38.5t-54 92.5q-31 -43 -90.5 -78t-104.5 -35
q-112 0 -171.5 62t-59.5 217q0 190 115 314t305 124q139 0 268 -51l-49 -412q-8 -82 41 -82q30 0 66.5 24.5t71.5 70t58 125t23 175.5q0 213 -104.5 317.5t-284.5 104.5q-112 0 -210 -25.5t-184 -82t-147 -140t-96 -206.5t-35 -275q0 -134 36 -234t103 -161t156 -91t201 -30
q149 0 338 37l26 -174q-111 -34 -190 -45t-193 -11zM760 496q16 0 30.5 3t24.5 6t22 10t17.5 11t16.5 12.5t14 10.5l39 299q-4 0 -16 1t-17 1q-87 0 -138 -68.5t-51 -181.5q0 -104 58 -104z" />
    <glyph glyph-name="A" unicode="A" horiz-adv-x="1433" 
d="M-18 0l571 1448h362l502 -1448h-293l-157 469h-523l-178 -469h-284zM522 676h375l-174 594z" />
    <glyph glyph-name="B" unicode="B" horiz-adv-x="1359" 
d="M188 0v1448h465q255 0 383.5 -98.5t128.5 -286.5q0 -97 -49.5 -172.5t-122.5 -108.5v-4q47 -12 93 -38.5t88.5 -67.5t69 -103.5t26.5 -134.5q0 -99 -30 -176.5t-94.5 -136t-173 -90t-257.5 -31.5h-527zM469 221h219q152 0 226.5 46.5t74.5 158.5q0 114 -80 163.5
t-247 49.5h-193v-418zM469 838h172q125 0 185.5 46.5t60.5 149.5q0 109 -69.5 154t-213.5 45h-135v-395z" />
    <glyph glyph-name="C" unicode="C" horiz-adv-x="1388" 
d="M881 -25q-379 0 -582 195.5t-203 544.5t207 552t569 203q247 0 439 -88l-78 -206q-76 23 -115 32.5t-101 17.5t-140 9q-107 1 -195.5 -29t-156 -89.5t-105 -157t-37.5 -224.5q0 -255 145.5 -387.5t386.5 -132.5q180 0 338 47l62 -215q-100 -37 -198.5 -54.5t-235.5 -17.5
z" />
    <glyph glyph-name="D" unicode="D" horiz-adv-x="1585" 
d="M188 0v1448h469q149 0 274.5 -26.5t229.5 -82.5t176.5 -139.5t112 -203t39.5 -267.5q0 -186 -56 -326t-163.5 -228t-257 -131.5t-342.5 -43.5h-482zM467 221h225q516 0 516 488q0 259 -141.5 388.5t-415.5 129.5h-184v-1006z" />
    <glyph glyph-name="E" unicode="E" 
d="M188 0v1448h897v-221h-618v-396h573v-208h-573v-402h666v-221h-945z" />
    <glyph glyph-name="F" unicode="F" horiz-adv-x="1218" 
d="M188 0v1448h951v-221h-672v-432h627v-209h-627v-586h-279z" />
    <glyph glyph-name="G" unicode="G" horiz-adv-x="1454" 
d="M879 -23q-365 0 -574 190.5t-209 547.5q0 371 201.5 562t583.5 191q144 0 239 -21.5t189 -62.5l-76 -208q-78 23 -113.5 32t-100.5 18t-140 9q-106 0 -193.5 -28.5t-156.5 -86.5t-107.5 -156.5t-38.5 -228.5q0 -132 41 -233.5t114 -163t166.5 -92.5t204.5 -31
q70 0 148 12v488h278v-658q-214 -80 -456 -80z" />
    <glyph glyph-name="H" unicode="H" horiz-adv-x="1617" 
d="M188 0v1448h279v-612h684v612h279v-1448h-279v618h-684v-618h-279z" />
    <glyph glyph-name="I" unicode="I" horiz-adv-x="655" 
d="M188 0v1448h279v-1448h-279z" />
    <glyph glyph-name="J" unicode="J" horiz-adv-x="659" 
d="M2 -397l-106 202q93 51 150.5 100t90.5 110t44.5 128t11.5 166v1139h282v-1135q0 -71 -3.5 -126t-15.5 -118t-33 -113t-56.5 -102.5t-84.5 -95t-120 -83t-160 -72.5z" />
    <glyph glyph-name="K" unicode="K" horiz-adv-x="1406" 
d="M188 0v1448h279v-662l547 662h356l-592 -674l627 -774h-358l-580 766v-766h-279z" />
    <glyph glyph-name="L" unicode="L" horiz-adv-x="1114" 
d="M188 0v1448h279v-1223h629v-225h-908z" />
    <glyph glyph-name="M" unicode="M" horiz-adv-x="1994" 
d="M188 0v1448h349l440 -1217l498 1217h331v-1448h-280v702l12 297h-8l-395 -999h-334l-342 1001h-8l16 -286v-715h-279z" />
    <glyph glyph-name="N" unicode="N" horiz-adv-x="1622" 
d="M188 0v1448h332l639 -1094h4l-8 170v924h281v-1448h-344l-625 1071h-8l8 -176v-895h-279z" />
    <glyph glyph-name="O" unicode="O" horiz-adv-x="1701" 
d="M834 -25q-357 0 -548.5 201.5t-191.5 550.5q0 341 209 542t565 201q185 0 327.5 -56t232 -157.5t135 -236t45.5 -297.5q0 -346 -202.5 -547t-571.5 -201zM840 199q101 0 182 26.5t137 73t93 113t54 144.5t17 169q0 234 -120 378t-349 144q-121 0 -214 -39t-149.5 -109.5
t-85 -163.5t-28.5 -206q0 -111 27.5 -205t82.5 -168t145.5 -115.5t207.5 -41.5z" />
    <glyph glyph-name="P" unicode="P" horiz-adv-x="1294" 
d="M188 0v1448h529q237 0 380.5 -130.5t143.5 -361.5q0 -104 -40.5 -194.5t-117.5 -159.5t-199 -109t-274 -40h-141v-453h-281zM469 1227v-555h154q161 0 244 73t83 203q0 136 -66 207.5t-212 71.5h-203z" />
    <glyph glyph-name="Q" unicode="Q" horiz-adv-x="1732" 
d="M834 -25q-357 0 -548.5 201.5t-191.5 550.5q0 341 209 542t565 201q185 0 327.5 -56t232 -157.5t135 -236t45.5 -297.5q0 -302 -158 -496l195 -194l-140 -121l-192 190q-191 -127 -479 -127zM840 199q176 0 295 82l-226 227l144 121l204 -207q66 123 66 303
q0 234 -120 378t-349 144q-121 0 -214 -39t-149.5 -109.5t-85 -163.5t-28.5 -206q0 -111 27.5 -205t82.5 -168t145.5 -115.5t207.5 -41.5z" />
    <glyph glyph-name="R" unicode="R" horiz-adv-x="1488" 
d="M188 0v1448h529q240 0 382 -115t142 -340q0 -127 -62 -230t-186 -163l457 -600h-354l-381 535q-51 -7 -105 -7h-141v-528h-281zM469 733h154q329 0 329 250q0 131 -65 187.5t-215 56.5h-203v-494z" />
    <glyph glyph-name="S" unicode="S" horiz-adv-x="1165" 
d="M524 -25q-254 0 -452 111l82 213q108 -46 187.5 -68t182.5 -22q130 0 208.5 49.5t78.5 140.5q0 45 -24 82t-64.5 63t-92.5 49t-110 46t-116 48t-110 60.5t-92.5 79t-64.5 107t-24 141.5q0 76 27 141t73.5 111t108.5 78.5t132.5 48.5t145.5 16q142 0 237 -25.5t179 -74.5
l-82 -207q-83 37 -157 55.5t-169 18.5q-98 0 -159.5 -44t-61.5 -120q0 -43 30.5 -80t80 -63t113 -54.5t130 -55t130 -65.5t113 -83.5t80 -111.5t30.5 -148q0 -109 -47.5 -194.5t-128 -137.5t-181 -78.5t-213.5 -26.5z" />
    <glyph glyph-name="T" unicode="T" horiz-adv-x="1259" 
d="M489 0v1225h-469v223h1219v-223h-469v-1225h-281z" />
    <glyph glyph-name="U" unicode="U" horiz-adv-x="1597" 
d="M803 -27q-99 0 -187 17t-172 59t-144.5 107t-97 167.5t-36.5 233.5v891h283v-879q0 -186 93 -274t261 -88q356 0 356 407v834h277v-840q0 -119 -26 -216.5t-72 -165.5t-106 -118.5t-132.5 -79t-145.5 -42t-151 -13.5z" />
    <glyph glyph-name="V" unicode="V" horiz-adv-x="1433" 
d="M518 0l-504 1448h297l398 -1237l458 1237h285l-567 -1448h-367z" />
    <glyph glyph-name="W" unicode="W" horiz-adv-x="2162" 
d="M2142 1448l-426 -1448h-377l-258 1065l-293 -1065h-380l-347 1448h289l264 -1274l355 1274h260l307 -1266l326 1264z" />
    <glyph glyph-name="X" unicode="X" horiz-adv-x="1347" 
d="M4 0l516 752l-446 696h319l289 -483l309 483h312l-474 -692l486 -756h-324l-325 543l-347 -543h-315z" />
    <glyph glyph-name="Y" unicode="Y" horiz-adv-x="1355" 
d="M535 0v498l-512 950h321l340 -713l363 713h311l-545 -944v-504h-278z" />
    <glyph glyph-name="Z" unicode="Z" horiz-adv-x="1236" 
d="M74 0v201l704 1013h-651v234h989v-186l-713 -1029h756v-233h-1085z" />
    <glyph glyph-name="bracketleft" unicode="[" horiz-adv-x="688" 
d="M150 -451v1995h479v-213h-219v-1569h219v-213h-479z" />
    <glyph glyph-name="backslash" unicode="\" horiz-adv-x="909" 
d="M571 -127l-477 1700h244l477 -1700h-244z" />
    <glyph glyph-name="bracketright" unicode="]" horiz-adv-x="688" 
d="M59 -451v213h220v1569h-220v213h480v-1995h-480z" />
    <glyph glyph-name="asciicircum" unicode="^" horiz-adv-x="1114" 
d="M70 602l344 846h313l322 -846h-267l-215 641l-237 -641h-260z" />
    <glyph glyph-name="underscore" unicode="_" horiz-adv-x="1220" 
d="M88 -381v223h1047v-223h-1047z" />
    <glyph glyph-name="grave" unicode="`" horiz-adv-x="1183" 
d="M788 1243l-458 227l94 195l450 -256z" />
    <glyph glyph-name="a" unicode="a" horiz-adv-x="1183" 
d="M420 -18q-160 0 -256 85t-96 240q0 340 460 344l222 2v97q0 93 -52.5 128t-171.5 35q-158 0 -323 -51l-56 201q206 82 428 82q225 0 333 -79t108 -255v-543q0 -38 28.5 -52.5t79.5 -16.5l-10 -207q-20 -2 -53 -2q-253 0 -287 127q-79 -62 -161 -98.5t-193 -36.5zM498 195
q114 0 252 71v221l-207 -8q-97 -2 -153 -40.5t-56 -110.5q0 -66 45.5 -99.5t118.5 -33.5z" />
    <glyph glyph-name="b" unicode="b" horiz-adv-x="1263" 
d="M551 -23q-208 0 -410 68v1499h273v-465q65 33 125.5 48.5t144.5 15.5q494 0 494 -539q0 -137 -32 -245t-87.5 -179t-136 -117t-171.5 -66t-200 -20zM629 936q-105 0 -215 -45v-670q107 -26 174 -26q151 0 231 115t80 308q0 156 -61.5 237t-208.5 81z" />
    <glyph glyph-name="c" unicode="c" horiz-adv-x="1060" 
d="M686 -25q-319 0 -460.5 137.5t-141.5 419.5q0 301 154 458t432 157q190 0 327 -74l-71 -203q-131 52 -242 52q-159 0 -240.5 -88t-81.5 -293q0 -86 16.5 -146.5t56 -106t110 -67.5t174.5 -22q16 0 31 0.5t26.5 1.5t28.5 3t25 3t28.5 4.5t26.5 5t32 6.5t33 6l39 -211
q-67 -16 -94.5 -22.5t-86.5 -13.5t-122 -7z" />
    <glyph glyph-name="d" unicode="d" horiz-adv-x="1263" 
d="M565 -18q-66 0 -129 15t-128.5 54.5t-113.5 100.5t-79 162t-31 229q0 156 44.5 273.5t124.5 189t184.5 106.5t232.5 35q67 0 170 -19v416h272v-1544h-272v90q-32 -26 -50.5 -39t-54 -32.5t-77.5 -28t-93 -8.5zM616 209q101 0 224 72v626q-4 1 -24 5.5t-38 8t-47 6.5
t-57 3q-85 0 -147.5 -27.5t-98.5 -78.5t-53 -116.5t-17 -148.5q0 -183 71.5 -266.5t186.5 -83.5z" />
    <glyph glyph-name="e" unicode="e" horiz-adv-x="1169" 
d="M657 -25q-135 0 -235.5 27.5t-178 91t-117.5 176t-40 273.5q0 131 27 234t74 171t114.5 113t144.5 64.5t168 19.5q250 0 363 -143.5t113 -419.5v-99h-730q-1 -69 17 -121t47.5 -83t74 -50t91 -25.5t104.5 -6.5q139 0 322 47l43 -207q-180 -62 -402 -62zM367 666h442
q2 131 -50 206.5t-155 75.5q-100 0 -165 -74t-72 -208z" />
    <glyph glyph-name="f" unicode="f" horiz-adv-x="763" 
d="M219 0v922h-164v196h164v56q0 399 412 399q105 0 190 -27l-43 -207q-79 17 -137 17q-149 0 -149 -185v-53h239v-196h-239v-922h-273z" />
    <glyph glyph-name="g" unicode="g" horiz-adv-x="1224" 
d="M539 395q-95 0 -177 23q-32 -46 -32 -86q0 -32 22.5 -52t61.5 -20h229q449 0 449 -311q0 -87 -36 -162t-105 -133t-180 -91.5t-251 -33.5q-218 0 -336 77.5t-118 211.5q0 76 36.5 146t104.5 116q-82 58 -82 158q0 60 31 120.5t90 108.5q-148 91 -148 276
q0 173 122.5 287.5t332.5 114.5q160 0 274 -66l344 19v-199h-182q23 -103 23 -147q0 -163 -134 -260t-339 -97zM657 37h-280q-37 0 -53 2q-58 -64 -58 -139q0 -76 67 -120t208 -44q146 0 234.5 51t88.5 129q0 57 -53 89t-154 32zM549 563q99 0 157 55.5t58 143.5
t-55.5 145.5t-153.5 57.5q-97 0 -154 -57t-57 -150q0 -90 55.5 -142.5t149.5 -52.5z" />
    <glyph glyph-name="h" unicode="h" horiz-adv-x="1302" 
d="M152 0v1544h272v-549q190 150 377 150q71 0 127 -13t93.5 -33.5t64 -55t41 -68t22.5 -83t10 -89t2 -96.5v-707h-268v676q0 130 -36.5 180.5t-139.5 50.5q-131 0 -293 -92v-815h-272z" />
    <glyph glyph-name="i" unicode="i" horiz-adv-x="575" 
d="M152 0v1118h274v-1118h-274zM152 1337v262h272v-262h-272z" />
    <glyph glyph-name="j" unicode="j" horiz-adv-x="575" 
d="M0 -461q-53 0 -114 13t-103 32l49 215q76 -26 160 -26q88 0 124 50.5t36 166.5v1128h272v-1130q0 -107 -23 -187.5t-60.5 -129.5t-93.5 -79.5t-115 -41.5t-132 -11zM150 1337v262h272v-262h-272z" />
    <glyph glyph-name="k" unicode="k" horiz-adv-x="1177" 
d="M154 0v1544h272v-909l387 483h299l-432 -518l475 -600h-338l-391 539v-539h-272z" />
    <glyph glyph-name="l" unicode="l" horiz-adv-x="575" 
d="M152 0v1544h272v-1544h-272z" />
    <glyph glyph-name="m" unicode="m" horiz-adv-x="1984" 
d="M152 0v1118h272v-121q192 150 367 150q115 0 194.5 -45.5t112.5 -122.5q194 168 393 168q57 0 104 -9.5t81 -23.5t61 -39t44 -48t29.5 -58.5t18.5 -62t9.5 -67t4 -65t0.5 -65.5v-709h-272v678q0 121 -36.5 176t-137.5 55q-128 0 -271 -92q7 -61 7 -106v-711h-271v678
q0 125 -35.5 177t-132.5 52q-136 0 -270 -90v-817h-272z" />
    <glyph glyph-name="n" unicode="n" horiz-adv-x="1302" 
d="M152 0v1118h272v-119q69 49 115.5 76t121.5 49.5t158 22.5q66 0 118 -13t88 -34.5t61.5 -56t40 -69t23 -82.5t11 -88.5t2.5 -94.5v-709h-270v678q0 131 -36 181t-138 50q-139 0 -295 -88v-821h-272z" />
    <glyph glyph-name="o" unicode="o" horiz-adv-x="1267" 
d="M623 -25q-258 0 -399.5 152.5t-141.5 421.5q0 280 152.5 439t408.5 159q270 0 406.5 -152.5t136.5 -433.5q0 -283 -155 -434.5t-408 -151.5zM637 195q79 0 133.5 27.5t83.5 79t41 113t12 142.5q0 373 -272 373q-277 0 -277 -373q0 -362 279 -362z" />
    <glyph glyph-name="p" unicode="p" horiz-adv-x="1271" 
d="M152 -451v1569h270v-84q78 56 149 83.5t166 27.5q99 0 180 -32t142 -97t95 -171t34 -245q0 -135 -32.5 -242t-87.5 -177t-132 -116t-161.5 -65.5t-180.5 -19.5q-60 0 -172 10v-441h-270zM590 190q159 0 240 109t81 291q0 325 -264 325q-45 0 -93 -11.5t-66.5 -19
t-65.5 -28.5v-649q3 0 35.5 -5t68.5 -8.5t64 -3.5z" />
    <glyph glyph-name="q" unicode="q" horiz-adv-x="1257" 
d="M840 -451v494q-104 -61 -244 -61q-72 0 -137.5 13t-136 51t-121.5 98.5t-84 163.5t-33 237q0 310 164 456t463 146q202 0 401 -62v-1536h-272zM625 211q108 0 215 41v653q-80 23 -166 23q-318 0 -318 -371q0 -346 269 -346z" />
    <glyph glyph-name="r" unicode="r" horiz-adv-x="874" 
d="M152 0v1118h272v-149q48 68 127 120t174 52q86 0 145 -19l-39 -225q-64 12 -143 12t-151 -38t-113 -89v-782h-272z" />
    <glyph glyph-name="s" unicode="s" horiz-adv-x="987" 
d="M428 -25q-81 0 -180.5 13t-169.5 35l33 213q208 -37 323 -37q113 0 167 29.5t54 78.5q0 32 -24 57t-64 41.5t-90.5 35.5t-103 37t-103 47t-90.5 64.5t-64 91t-24 124.5q0 111 61.5 190t159.5 115.5t222 36.5q176 0 333 -60l-49 -202q-141 43 -276 43q-92 0 -136.5 -27.5
t-44.5 -73.5q0 -37 31 -65.5t80.5 -48.5t109 -40.5t119 -49.5t109 -66t80.5 -98t31 -140q0 -78 -31 -139t-80 -99t-115.5 -62.5t-132 -34t-135.5 -9.5z" />
    <glyph glyph-name="t" unicode="t" horiz-adv-x="925" 
d="M584 -27q-184 0 -281.5 83t-97.5 278v575h-164v209h164v230h272v-230h346v-209h-346v-561q0 -81 35 -111t119 -30q96 0 221 33l31 -217q-60 -22 -144.5 -36t-154.5 -14z" />
    <glyph glyph-name="u" unicode="u" horiz-adv-x="1300" 
d="M481 -25q-65 0 -116.5 13.5t-87 35t-61 56t-40 69.5t-22.5 83.5t-10.5 89t-2.5 94.5v702h273v-672q0 -129 34 -180t138 -51q147 0 293 88v815h272v-1118h-272v121q-45 -33 -77 -53t-83.5 -44.5t-110.5 -36.5t-127 -12z" />
    <glyph glyph-name="v" unicode="v" horiz-adv-x="1161" 
d="M403 0l-389 1118h293l207 -667l64 -230l69 232l230 665h284l-422 -1118h-336z" />
    <glyph glyph-name="w" unicode="w" horiz-adv-x="1841" 
d="M348 0l-309 1118h287l198 -901l242 901h330l209 -901l239 901h279l-353 -1118h-344l-165 688l-37 174l-41 -172l-189 -690h-346z" />
    <glyph glyph-name="x" unicode="x" horiz-adv-x="1163" 
d="M23 0l403 571l-377 547h316l217 -375l219 375h309l-375 -545l408 -573h-328l-233 399l-238 -399h-321z" />
    <glyph glyph-name="y" unicode="y" horiz-adv-x="1155" 
d="M340 -451l154 451h-107l-375 1118h295l211 -715l53 -188l60 186l241 717h277l-547 -1569h-262z" />
    <glyph glyph-name="z" unicode="z" horiz-adv-x="1060" 
d="M72 0v190l575 705h-534v223h856v-184l-572 -713h580v-221h-905z" />
    <glyph glyph-name="braceleft" unicode="{" horiz-adv-x="710" 
d="M596 -455q-98 0 -171.5 15t-131.5 50t-87.5 97.5t-29.5 151.5q0 19 4 59l43 393q5 51 -36.5 95.5t-125.5 44.5v217q84 0 125.5 43.5t36.5 93.5l-43 401q-4 46 -4 64q3 165 111.5 236t308.5 71h90v-229h-82q-88 0 -129 -44.5t-33 -119.5l43 -361q24 -197 -139 -260v-4
q78 -35 115 -97t24 -165l-43 -360q-8 -73 32 -117.5t130 -44.5h82v-230h-90z" />
    <glyph glyph-name="bar" unicode="|" horiz-adv-x="544" 
d="M150 -451v1995h245v-1995h-245z" />
    <glyph glyph-name="braceright" unicode="}" horiz-adv-x="710" 
d="M115 -455h-92v230h83q90 0 130 44.5t32 117.5l-43 360q-13 103 24.5 165t115.5 97v4q-164 63 -140 260l43 361q8 75 -33 119.5t-129 44.5h-83v229h92q97 0 170.5 -16t130 -51t87 -95t32.5 -145q0 -6 -5 -64l-43 -401q-5 -50 36.5 -93.5t125.5 -43.5v-217
q-85 0 -126 -44.5t-36 -95.5l43 -393q5 -50 5 -59q0 -89 -29.5 -151.5t-87.5 -97.5t-131.5 -50t-171.5 -15z" />
    <glyph glyph-name="asciitilde" unicode="~" horiz-adv-x="1155" 
d="M770 526q-64 0 -125 19t-100 42.5t-87 42.5t-89 19q-86 0 -164 -65l-127 172q147 166 303 166q65 0 123 -19.5t93 -43t82 -43t93 -19.5q61 0 92 12q41 15 88 55l127 -159q-49 -72 -138.5 -125.5t-170.5 -53.5z" />
    <glyph glyph-name="uni00A0" unicode="&#xa0;" horiz-adv-x="483" 
 />
    <glyph glyph-name="exclamdown" unicode="&#xa1;" horiz-adv-x="589" 
d="M160 -330v680l14 355h242l16 -355v-680h-272zM154 864v254h284v-254h-284z" />
    <glyph glyph-name="cent" unicode="&#xa2;" horiz-adv-x="1091" 
d="M524 0v205q-225 33 -324.5 169t-99.5 400q0 229 111.5 378t312.5 189v201h238v-190q134 -12 237 -70l-71 -201q-91 35 -166 45v-712q26 1 52.5 3.5t44 5.5t47 7.5t46.5 7.5l39 -211q-145 -32 -229 -34v-193h-238zM379 774q0 -137 31.5 -216t113.5 -114v650
q-145 -77 -145 -320z" />
    <glyph glyph-name="sterling" unicode="&#xa3;" horiz-adv-x="1116" 
d="M1040 0h-907v221q62 29 95.5 103.5t45.5 156.5h-176v221h189v320q0 86 21 154t51.5 112.5t84 76t99 47.5t117 25t117.5 10.5t120 2.5l10 -225q-166 -13 -187 -17q-98 -15 -131 -68q-27 -43 -26 -124q2 -33 2 -101q0 -81 -8 -213h332v-221h-359q-28 -173 -98 -260h608
v-221z" />
    <glyph glyph-name="currency" unicode="&#xa4;" horiz-adv-x="1110" 
d="M205 264l-107 105l127 127q-84 94 -84 225q0 133 82 225l-125 127l107 105l139 -140q103 49 211 49q119 0 213 -49l137 142l109 -109l-125 -125q80 -93 80 -225q0 -135 -84 -225l129 -127l-107 -107l-141 141q-92 -47 -211 -47q-117 0 -209 47zM555 555q86 0 126 46.5
t40 119.5q0 72 -41 120t-125 48q-83 0 -125.5 -47.5t-42.5 -120.5q0 -70 43 -118t125 -48z" />
    <glyph glyph-name="yen" unicode="&#xa5;" horiz-adv-x="1468" 
d="M1403 1448l-430 -748h350v-223h-465v-186h465v-221h-463l-2 -70h-280l2 70h-435v221h435v186h-435v223h324l-401 748h321l340 -713l363 713h311z" />
    <glyph glyph-name="brokenbar" unicode="&#xa6;" horiz-adv-x="626" 
d="M190 -451v740h246v-740h-246zM190 803v741h246v-741h-246z" />
    <glyph glyph-name="section" unicode="&#xa7;" horiz-adv-x="1435" 
d="M362 -180q-67 0 -134.5 22t-112.5 60l73 200q11 -8 29 -19.5t63.5 -30.5t79.5 -19q25 0 42.5 16.5t25.5 43t11 50t3 47.5q0 67 -26 232l-23 115q-20 110 -20 200q0 124 52 230t141 176.5t207 110.5t249 40q207 0 332 -112q-99 -160 -115 -176q-38 33 -97 56t-116 23
q-94 0 -94 -118q0 -85 20 -160l25 -96q41 -180 41 -344q0 -153 -89.5 -279.5t-240 -197t-326.5 -70.5zM643 53q141 127 141 293q0 78 -22 203l-35 164q-14 96 -14 180q0 89 18 160q-65 -46 -93 -126t-28 -159q-3 -88 17 -182l32 -168q19 -78 19 -172q0 -20 -1 -37t-6 -41
t-6.5 -31.5t-10.5 -42.5t-11 -41z" />
    <glyph glyph-name="dieresis" unicode="&#xa8;" horiz-adv-x="866" 
d="M305 1337h-260v262h260v-262zM815 1337h-258v262h258v-262z" />
    <glyph glyph-name="copyright" unicode="&#xa9;" horiz-adv-x="1701" 
d="M891 301q-194 0 -306 116t-112 294q0 190 109.5 303.5t304.5 113.5q164 0 256 -57l-51 -139q-94 35 -203 35q-106 0 -173 -61t-67 -185q0 -123 72.5 -186.5t187.5 -63.5q62 0 101.5 5.5t89.5 23.5l47 -150q-65 -27 -120.5 -38t-135.5 -11zM834 -25q-221 0 -381.5 93
t-243 259.5t-82.5 387.5q0 169 54.5 307t152.5 230t235.5 142t302.5 50q171 0 305.5 -54.5t221 -153t131.5 -232t45 -293.5q0 -337 -198 -536.5t-543 -199.5zM842 106q141 0 251.5 46t180.5 128.5t106.5 192t36.5 240.5q0 130 -38 240t-109 190t-177.5 125t-238.5 45
q-182 0 -312 -78.5t-193.5 -211.5t-63.5 -306q0 -126 36 -235.5t103.5 -194t175 -133t242.5 -48.5z" />
    <glyph glyph-name="ordfeminine" unicode="&#xaa;" horiz-adv-x="860" 
d="M334 795q-103 0 -159 48.5t-56 143.5q0 193 272 193l117 2v55q0 46 -25.5 60t-97.5 14q-64 0 -186 -31l-37 133q133 49 252 49q46 0 79 -3t71 -14t62 -30.5t40 -56t16 -86.5v-305q0 -19 13 -24t46 -7l-8 -135q-177 -9 -207 63q-98 -69 -192 -69zM358 936q18 0 47 7
t61.5 17.5t41.5 12.5v94l-109 -4q-106 -4 -106 -64q0 -63 65 -63zM121 592v139h627v-139h-627z" />
    <glyph glyph-name="guillemotleft" unicode="&#xab;" horiz-adv-x="999" 
d="M317 94l-245 463l243 459l177 -70l-183 -389l180 -379zM735 94l-246 463l244 459l176 -70l-182 -389l180 -379z" />
    <glyph glyph-name="logicalnot" unicode="&#xac;" horiz-adv-x="1261" 
d="M893 197v321h-780v213h1009v-534h-229z" />
    <glyph glyph-name="registered" unicode="&#xae;" horiz-adv-x="1130" 
d="M1059 1087q0 -144 -66.5 -250t-176 -158t-247.5 -52q-69 0 -136 14t-133.5 48.5t-116 85.5t-80.5 131.5t-31 180.5q0 219 140.5 345.5t354.5 126.5q73 0 142 -15.5t133 -52t112 -89.5t76.5 -134t28.5 -181zM952 1087q0 95 -32.5 169t-88 118.5t-122 67t-140.5 22.5
q-81 0 -149.5 -21t-123.5 -64t-86.5 -115.5t-31.5 -167.5q0 -92 30 -162.5t73.5 -109.5t101 -63.5t104.5 -32t93 -7.5q163 0 267.5 96.5t104.5 269.5zM827 920l-14 -82q-103 3 -158 53q-19 17 -38 45t-26 42t-30 58h-63v-186h-127v516l202 2q90 0 143.5 -43t53.5 -125
q0 -95 -88 -141q2 -2 17 -25.5t28 -40.5t23 -26q19 -19 77 -47zM649 1200q0 43 -17.5 63.5t-64.5 20.5h-71v-174h63q49 0 69.5 23.5t20.5 66.5z" />
    <glyph glyph-name="macron" unicode="&#xaf;" horiz-adv-x="1126" 
d="M244 1339v215h624v-215h-624z" />
    <glyph glyph-name="degree" unicode="&#xb0;" horiz-adv-x="804" 
d="M399 825q-155 0 -239 83.5t-84 240.5q0 144 94 231.5t236 87.5q147 0 237 -86t90 -233q0 -148 -95 -236t-239 -88zM403 997q123 0 123 152q0 72 -32.5 109.5t-90.5 37.5q-124 0 -124 -147q0 -75 33 -113.5t91 -38.5z" />
    <glyph glyph-name="plusminus" unicode="&#xb1;" horiz-adv-x="1099" 
d="M442 252l2 346l-348 -2v213l348 -6l-2 348h215l-8 -352l355 10v-213l-351 2l4 -346h-215zM96 0v213h908v-213h-908z" />
    <glyph glyph-name="twosuperior" unicode="&#xb2;" horiz-adv-x="624" 
d="M25 850v135q163 116 256.5 205.5t93.5 159.5q0 40 -29.5 64t-73.5 24q-89 0 -159 -56q-9 19 -35 68t-35 68q110 92 266 92q124 0 197.5 -67t73.5 -171q0 -186 -310 -358h318v-164h-563z" />
    <glyph glyph-name="threesuperior" unicode="&#xb3;" horiz-adv-x="622" 
d="M272 840q-114 0 -235 32l35 152q104 -23 182 -23q63 0 96 24.5t33 66.5q0 56 -44 77.5t-146 24.5v96q87 7 121 32t34 73q-3 30 -26.5 47.5t-59.5 17.5q-83 0 -153 -33q-6 22 -23.5 71.5t-22.5 64.5q97 51 222 51q124 0 195 -50t71 -149q0 -49 -27 -93t-75 -65
q139 -44 139 -182q0 -64 -25 -110.5t-70 -73t-99.5 -39t-121.5 -12.5z" />
    <glyph glyph-name="acute" unicode="&#xb4;" horiz-adv-x="1183" 
d="M420 1245l-82 164l448 254l97 -193z" />
    <glyph glyph-name="mu" unicode="&#xb5;" horiz-adv-x="1343" 
d="M143 -451v1569h271v-696q0 -113 36.5 -161t139.5 -48q116 0 280 90v815h275v-848q0 -42 28.5 -57.5t90.5 -13.5l-9 -209q-62 -4 -98 -4q-114 0 -183.5 33t-88.5 114q-201 -162 -383 -162q-23 0 -50.5 6t-37.5 15v-443h-271z" />
    <glyph glyph-name="paragraph" unicode="&#xb6;" horiz-adv-x="1249" 
d="M674 -459q-111 0 -211 35l49 229q98 -24 166 -24q87 0 121.5 46.5t34.5 160.5v1460h272v-1462q0 -99 -22.5 -176.5t-61 -127.5t-94 -82t-118 -45.5t-136.5 -13.5zM469 498q-205 0 -310.5 124t-105.5 357q0 114 27.5 198t73.5 135t116 82t143.5 42t168.5 12h120v-950h-233
z" />
    <glyph glyph-name="periodcentered" unicode="&#xb7;" horiz-adv-x="514" 
d="M111 614v279h309v-279h-309z" />
    <glyph glyph-name="cedilla" unicode="&#xb8;" horiz-adv-x="948" 
d="M393 -547l-94 162q82 51 105 73q38 37 38 76q0 42 -32 132h223q43 -88 43 -156q0 -167 -283 -287z" />
    <glyph glyph-name="onesuperior" unicode="&#xb9;" horiz-adv-x="501" 
d="M195 850v588h-162v157q149 6 368 11v-756h-206z" />
    <glyph glyph-name="ordmasculine" unicode="&#xba;" horiz-adv-x="880" 
d="M434 784q-155 0 -239 89t-84 245q0 163 90.5 255.5t242.5 92.5q165 0 246.5 -88.5t81.5 -253.5q0 -161 -93.5 -250.5t-244.5 -89.5zM442 932q81 0 112.5 49.5t31.5 142.5q0 195 -146 195q-145 0 -145 -197q0 -91 33.5 -140.5t113.5 -49.5zM127 592v139h625v-139h-625z
" />
    <glyph glyph-name="guillemotright" unicode="&#xbb;" horiz-adv-x="997" 
d="M264 94l-172 84l180 379l-184 389l176 70l246 -459zM682 94l-172 84l180 379l-184 389l176 70l244 -459z" />
    <glyph glyph-name="onequarter" unicode="&#xbc;" horiz-adv-x="1634" 
d="M1255 0v170h-329v154l229 430h287v-437h112v-147h-112v-170h-187zM1065 317h190v328zM240 850v588h-162v157q149 6 368 11v-756h-206zM231 137l-102 111l1100 1106l102 -107z" />
    <glyph glyph-name="onehalf" unicode="&#xbd;" horiz-adv-x="1632" 
d="M952 0v135q77 55 131 97t108.5 92t83 94.5t28.5 81.5q0 40 -29.5 64t-73.5 24q-90 0 -160 -56q-9 20 -34.5 68t-34.5 68q110 92 266 92q123 0 196.5 -67t73.5 -171q0 -55 -24.5 -106.5t-70 -96.5t-97 -81.5t-117.5 -73.5h318v-164h-564zM238 850v588h-162v157
q149 6 368 11v-756h-206zM221 137l-102 111l1100 1106l102 -107z" />
    <glyph glyph-name="threequarters" unicode="&#xbe;" horiz-adv-x="1646" 
d="M1266 0v170h-330v154l229 430h287v-437h113v-147h-113v-170h-186zM315 840q-114 0 -235 32l35 152q104 -23 182 -23q63 0 96 24.5t33 66.5q0 56 -44 77.5t-146 24.5v96q87 7 121 32t34 73q-3 30 -26.5 47.5t-59.5 17.5q-83 0 -153 -33q-6 22 -23.5 71.5t-22.5 64.5
q97 51 222 51q124 0 195 -50t71 -149q0 -49 -27 -93t-75 -65q139 -44 139 -182q0 -64 -25 -110.5t-70 -73t-99.5 -39t-121.5 -12.5zM270 137l-102 111l1100 1106l102 -107zM1075 317h191v328z" />
    <glyph glyph-name="questiondown" unicode="&#xbf;" horiz-adv-x="800" 
d="M688 -336q-97 6 -180 21t-166 46t-141 75.5t-94.5 114.5t-36.5 159q0 60 28 116t70 97t91.5 82.5t91.5 74t70 69t28 69.5q0 66 -29 131l223 37q47 -97 47 -183q0 -73 -35 -138.5t-84.5 -111.5t-99 -86t-84.5 -78t-35 -71q0 -86 96.5 -134t290.5 -63zM377 864v254h282
v-254h-282z" />
    <glyph glyph-name="Agrave" unicode="&#xc0;" horiz-adv-x="1433" 
d="M909 1526l-524 112l51 220l516 -148zM-18 0l571 1448h362l502 -1448h-293l-157 469h-523l-178 -469h-284zM522 676h375l-174 594z" />
    <glyph glyph-name="Aacute" unicode="&#xc1;" horiz-adv-x="1433" 
d="M-18 0l571 1448h362l502 -1448h-293l-157 469h-523l-178 -469h-284zM522 676h375l-174 594zM541 1526l-43 184l514 150l51 -218z" />
    <glyph glyph-name="Acircumflex" unicode="&#xc2;" horiz-adv-x="1433" 
d="M-18 0l571 1448h362l502 -1448h-293l-157 469h-523l-178 -469h-284zM522 676h375l-174 594zM455 1526l-97 176l367 182l360 -180l-96 -178l-266 121z" />
    <glyph glyph-name="Atilde" unicode="&#xc3;" horiz-adv-x="1433" 
d="M-18 0l571 1448h362l502 -1448h-293l-157 469h-523l-178 -469h-284zM522 676h375l-174 594zM856 1546q-52 0 -136 38t-120 38q-78 0 -143 -53l-105 129q128 139 260 139q52 0 99.5 -19.5t85 -39t65.5 -19.5q47 0 79.5 12t80.5 41l94 -126q-122 -140 -260 -140z" />
    <glyph glyph-name="Adieresis" unicode="&#xc4;" horiz-adv-x="1433" 
d="M-18 0l571 1448h362l502 -1448h-293l-157 469h-523l-178 -469h-284zM522 676h375l-174 594zM604 1565h-260v260h260v-260zM1100 1565h-258v260h258v-260z" />
    <glyph glyph-name="Aring" unicode="&#xc5;" horiz-adv-x="1433" 
d="M-18 0l571 1448h362l502 -1448h-293l-157 469h-523l-178 -469h-284zM522 676h375l-174 594zM737 1524q-48 0 -89.5 11t-78.5 34.5t-58.5 66.5t-21.5 101q0 108 71 165.5t171 57.5q41 0 81.5 -11t79.5 -34.5t63 -68.5t24 -105q0 -105 -70 -161t-172 -56zM733 1634
q52 0 81 27.5t32 77.5q0 46 -33 75t-80 29q-112 0 -112 -100q0 -50 30.5 -79.5t81.5 -29.5z" />
    <glyph glyph-name="AE" unicode="&#xc6;" horiz-adv-x="1951" 
d="M-41 0l713 1448h1136v-221h-618v-396h573v-208h-573v-402h665v-221h-944v553h-381l-256 -553h-315zM621 762h290v465h-75z" />
    <glyph glyph-name="Ccedilla" unicode="&#xc7;" horiz-adv-x="1388" 
d="M881 -25q-379 0 -582 195.5t-203 544.5t207 552t569 203q247 0 439 -88l-78 -206q-76 23 -115 32.5t-101 17.5t-140 9q-107 1 -195.5 -29t-156 -89.5t-105 -157t-37.5 -224.5q0 -255 145.5 -387.5t386.5 -132.5q180 0 338 47l62 -215q-100 -37 -198.5 -54.5t-235.5 -17.5
zM711 -547l-95 162q3 2 22 13.5t23.5 14.5t20.5 14t21.5 16t17.5 15t16.5 17.5t11 17.5t9 20t2.5 21q0 39 -33 132h223q43 -88 43 -156q0 -167 -282 -287z" />
    <glyph glyph-name="Egrave" unicode="&#xc8;" 
d="M844 1526l-525 112l52 220l516 -148zM188 0v1448h897v-221h-618v-396h573v-208h-573v-402h666v-221h-945z" />
    <glyph glyph-name="Eacute" unicode="&#xc9;" 
d="M479 1526l-43 184l514 150l51 -218zM188 0v1448h897v-221h-618v-396h573v-208h-573v-402h666v-221h-945z" />
    <glyph glyph-name="Ecircumflex" unicode="&#xca;" 
d="M188 0v1448h897v-221h-618v-396h573v-208h-573v-402h666v-221h-945zM381 1526l-96 176l366 182l361 -180l-97 -178l-266 121z" />
    <glyph glyph-name="Edieresis" unicode="&#xcb;" 
d="M526 1565h-260v260h260v-260zM1022 1565h-258v260h258v-260zM188 0v1448h897v-221h-618v-396h573v-208h-573v-402h666v-221h-945z" />
    <glyph glyph-name="Igrave" unicode="&#xcc;" horiz-adv-x="655" 
d="M477 1526l-524 112l51 220l516 -148zM188 0v1448h279v-1448h-279z" />
    <glyph glyph-name="Iacute" unicode="&#xcd;" horiz-adv-x="655" 
d="M188 0v1448h279v-1448h-279zM186 1526l-43 184l514 150l52 -218z" />
    <glyph glyph-name="Icircumflex" unicode="&#xce;" horiz-adv-x="655" 
d="M188 0v1448h279v-1448h-279zM59 1526l-96 176l367 182l360 -180l-96 -178l-266 121z" />
    <glyph glyph-name="Idieresis" unicode="&#xcf;" horiz-adv-x="655" 
d="M188 0v1448h279v-1448h-279zM207 1565h-260v260h260v-260zM702 1565h-258v260h258v-260z" />
    <glyph glyph-name="Eth" unicode="&#xd0;" horiz-adv-x="1644" 
d="M90 629v176h156v643h469q149 0 274.5 -26.5t229 -82.5t176 -139.5t112 -203t39.5 -267.5q0 -186 -56 -326t-163.5 -228t-257 -131.5t-342.5 -43.5h-481v629h-156zM524 221h226q516 0 516 488q0 259 -141.5 388.5t-415.5 129.5h-185v-422h297v-176h-297v-408z" />
    <glyph glyph-name="Ntilde" unicode="&#xd1;" horiz-adv-x="1622" 
d="M948 1546q-52 0 -136 38t-120 38q-78 0 -143 -53l-105 129q128 139 261 139q52 0 99 -19.5t84.5 -39t65.5 -19.5q47 0 79.5 12t80.5 41l94 -126q-122 -140 -260 -140zM188 0v1448h332l639 -1094h4l-8 170v924h281v-1448h-344l-625 1071h-8l8 -176v-895h-279z" />
    <glyph glyph-name="Ograve" unicode="&#xd2;" horiz-adv-x="1701" 
d="M1044 1526l-524 112l51 220l516 -148zM834 -25q-357 0 -548.5 201.5t-191.5 550.5q0 341 209 542t565 201q185 0 327.5 -56t232 -157.5t135 -236t45.5 -297.5q0 -346 -202.5 -547t-571.5 -201zM840 199q101 0 182 26.5t137 73t93 113t54 144.5t17 169q0 234 -120 378
t-349 144q-121 0 -214 -39t-149.5 -109.5t-85 -163.5t-28.5 -206q0 -111 27.5 -205t82.5 -168t145.5 -115.5t207.5 -41.5z" />
    <glyph glyph-name="Oacute" unicode="&#xd3;" horiz-adv-x="1701" 
d="M664 1526l-43 184l514 150l51 -218zM834 -25q-357 0 -548.5 201.5t-191.5 550.5q0 341 209 542t565 201q185 0 327.5 -56t232 -157.5t135 -236t45.5 -297.5q0 -346 -202.5 -547t-571.5 -201zM840 199q101 0 182 26.5t137 73t93 113t54 144.5t17 169q0 234 -120 378
t-349 144q-121 0 -214 -39t-149.5 -109.5t-85 -163.5t-28.5 -206q0 -111 27.5 -205t82.5 -168t145.5 -115.5t207.5 -41.5z" />
    <glyph glyph-name="Ocircumflex" unicode="&#xd4;" horiz-adv-x="1701" 
d="M586 1526l-97 176l367 182l361 -180l-97 -178l-266 121zM834 -25q-357 0 -548.5 201.5t-191.5 550.5q0 341 209 542t565 201q185 0 327.5 -56t232 -157.5t135 -236t45.5 -297.5q0 -346 -202.5 -547t-571.5 -201zM840 199q101 0 182 26.5t137 73t93 113t54 144.5t17 169
q0 234 -120 378t-349 144q-121 0 -214 -39t-149.5 -109.5t-85 -163.5t-28.5 -206q0 -111 27.5 -205t82.5 -168t145.5 -115.5t207.5 -41.5z" />
    <glyph glyph-name="Otilde" unicode="&#xd5;" horiz-adv-x="1701" 
d="M985 1546q-51 0 -135 38t-121 38q-78 0 -143 -53l-105 129q128 139 260 139q52 0 99.5 -19.5t85 -39t65.5 -19.5q47 0 79.5 12t80.5 41l94 -126q-122 -140 -260 -140zM834 -25q-357 0 -548.5 201.5t-191.5 550.5q0 341 209 542t565 201q185 0 327.5 -56t232 -157.5
t135 -236t45.5 -297.5q0 -346 -202.5 -547t-571.5 -201zM840 199q101 0 182 26.5t137 73t93 113t54 144.5t17 169q0 234 -120 378t-349 144q-121 0 -214 -39t-149.5 -109.5t-85 -163.5t-28.5 -206q0 -111 27.5 -205t82.5 -168t145.5 -115.5t207.5 -41.5z" />
    <glyph glyph-name="Odieresis" unicode="&#xd6;" horiz-adv-x="1701" 
d="M721 1565h-260v260h260v-260zM1217 1565h-259v260h259v-260zM834 -25q-357 0 -548.5 201.5t-191.5 550.5q0 341 209 542t565 201q185 0 327.5 -56t232 -157.5t135 -236t45.5 -297.5q0 -346 -202.5 -547t-571.5 -201zM840 199q101 0 182 26.5t137 73t93 113t54 144.5
t17 169q0 234 -120 378t-349 144q-121 0 -214 -39t-149.5 -109.5t-85 -163.5t-28.5 -206q0 -111 27.5 -205t82.5 -168t145.5 -115.5t207.5 -41.5z" />
    <glyph glyph-name="multiply" unicode="&#xd7;" horiz-adv-x="1138" 
d="M905 139l-340 342l-327 -334l-152 152l334 330l-332 327l145 152l330 -336l334 338l152 -152l-347 -333l349 -334z" />
    <glyph glyph-name="Oslash" unicode="&#xd8;" horiz-adv-x="1761" 
d="M203 -80l-119 119l182 188q-145 192 -145 500q0 341 209 542t565 201q275 0 455 -122l178 184l125 -115l-178 -184q159 -196 159 -510q0 -346 -202.5 -547t-571.5 -201q-289 0 -473 136zM866 199q126 0 220.5 40t151 112t84.5 166t28 208q0 179 -70 307l-711 -735
q116 -98 297 -98zM403 729q0 -167 62 -297l704 727q-118 88 -288 88q-121 0 -214 -39t-150 -109.5t-85.5 -163.5t-28.5 -206z" />
    <glyph glyph-name="Ugrave" unicode="&#xd9;" horiz-adv-x="1597" 
d="M987 1526l-524 112l51 220l516 -148zM803 -27q-99 0 -187 17t-172 59t-144.5 107t-97 167.5t-36.5 233.5v891h283v-879q0 -186 93 -274t261 -88q356 0 356 407v834h277v-840q0 -119 -26 -216.5t-72 -165.5t-106 -118.5t-132.5 -79t-145.5 -42t-151 -13.5z" />
    <glyph glyph-name="Uacute" unicode="&#xda;" horiz-adv-x="1597" 
d="M645 1526l-43 184l514 150l51 -218zM803 -27q-99 0 -187 17t-172 59t-144.5 107t-97 167.5t-36.5 233.5v891h283v-879q0 -186 93 -274t261 -88q356 0 356 407v834h277v-840q0 -119 -26 -216.5t-72 -165.5t-106 -118.5t-132.5 -79t-145.5 -42t-151 -13.5z" />
    <glyph glyph-name="Ucircumflex" unicode="&#xdb;" horiz-adv-x="1597" 
d="M803 -27q-99 0 -187 17t-172 59t-144.5 107t-97 167.5t-36.5 233.5v891h283v-879q0 -186 93 -274t261 -88q356 0 356 407v834h277v-840q0 -119 -26 -216.5t-72 -165.5t-106 -118.5t-132.5 -79t-145.5 -42t-151 -13.5zM541 1526l-97 176l367 182l360 -180l-96 -178
l-266 121z" />
    <glyph glyph-name="Udieresis" unicode="&#xdc;" horiz-adv-x="1597" 
d="M684 1565h-260v260h260v-260zM1180 1565h-258v260h258v-260zM803 -27q-99 0 -187 17t-172 59t-144.5 107t-97 167.5t-36.5 233.5v891h283v-879q0 -186 93 -274t261 -88q356 0 356 407v834h277v-840q0 -119 -26 -216.5t-72 -165.5t-106 -118.5t-132.5 -79t-145.5 -42
t-151 -13.5z" />
    <glyph glyph-name="Yacute" unicode="&#xdd;" horiz-adv-x="1355" 
d="M535 0v498l-512 950h321l340 -713l363 713h311l-545 -944v-504h-278zM535 1526l-43 184l514 150l51 -218z" />
    <glyph glyph-name="Thorn" unicode="&#xde;" horiz-adv-x="1298" 
d="M188 0v1448h281v-225h248q239 0 381.5 -127.5t142.5 -360.5q0 -104 -40 -193.5t-117 -157.5t-199 -107t-275 -39h-141v-238h-281zM469 1001v-544h154q162 0 245.5 70.5t83.5 199.5q0 135 -66 204.5t-214 69.5h-203z" />
    <glyph glyph-name="germandbls" unicode="&#xdf;" horiz-adv-x="1306" 
d="M152 0v1118q0 123 36 213t102.5 142t152 76t194.5 24q48 0 99 -7.5t113.5 -31t110.5 -60.5t80.5 -102t32.5 -149q0 -58 -23 -112t-56 -94.5t-66.5 -76.5t-56.5 -73t-23 -70q0 -37 23 -68.5t59.5 -55t80.5 -47.5t88 -52.5t80.5 -62t59.5 -84t23 -112.5q0 -75 -26 -135
t-67.5 -97.5t-96.5 -62.5t-109 -35t-109 -10q-210 0 -326 43l35 213q146 -34 238 -34q86 0 140 23.5t54 76.5q0 33 -23 60.5t-59.5 48.5t-80.5 43.5t-88.5 51.5t-81 65t-59.5 92t-23 126q0 50 21 98.5t51 88t60 77.5t51 79.5t21 80.5q0 64 -50.5 103t-117.5 39
q-108 0 -151 -60t-43 -174v-1116h-270z" />
    <glyph glyph-name="agrave" unicode="&#xe0;" horiz-adv-x="1183" 
d="M420 -18q-160 0 -256 85t-96 240q0 340 460 344l222 2v97q0 93 -52.5 128t-171.5 35q-158 0 -323 -51l-56 201q206 82 428 82q225 0 333 -79t108 -255v-543q0 -38 28.5 -52.5t79.5 -16.5l-10 -207q-20 -2 -53 -2q-253 0 -287 127q-79 -62 -161 -98.5t-193 -36.5zM498 195
q114 0 252 71v221l-207 -8q-97 -2 -153 -40.5t-56 -110.5q0 -66 45.5 -99.5t118.5 -33.5zM719 1245l-459 228l94 194l451 -256z" />
    <glyph glyph-name="aacute" unicode="&#xe1;" horiz-adv-x="1183" 
d="M420 -18q-160 0 -256 85t-96 240q0 340 460 344l222 2v97q0 93 -52.5 128t-171.5 35q-158 0 -323 -51l-56 201q206 82 428 82q225 0 333 -79t108 -255v-543q0 -38 28.5 -52.5t79.5 -16.5l-10 -207q-20 -2 -53 -2q-253 0 -287 127q-79 -62 -161 -98.5t-193 -36.5zM498 195
q114 0 252 71v221l-207 -8q-97 -2 -153 -40.5t-56 -110.5q0 -66 45.5 -99.5t118.5 -33.5zM436 1245l-82 164l449 254l96 -193z" />
    <glyph glyph-name="acircumflex" unicode="&#xe2;" horiz-adv-x="1183" 
d="M825 1257l-256 181l-264 -181l-119 154l385 252l369 -252zM420 -18q-160 0 -256 85t-96 240q0 340 460 344l222 2v97q0 93 -52.5 128t-171.5 35q-158 0 -323 -51l-56 201q206 82 428 82q225 0 333 -79t108 -255v-543q0 -38 28.5 -52.5t79.5 -16.5l-10 -207q-20 -2 -53 -2
q-253 0 -287 127q-79 -62 -161 -98.5t-193 -36.5zM498 195q114 0 252 71v221l-207 -8q-97 -2 -153 -40.5t-56 -110.5q0 -66 45.5 -99.5t118.5 -33.5z" />
    <glyph glyph-name="atilde" unicode="&#xe3;" horiz-adv-x="1183" 
d="M420 -18q-160 0 -256 85t-96 240q0 340 460 344l222 2v97q0 93 -52.5 128t-171.5 35q-158 0 -323 -51l-56 201q206 82 428 82q225 0 333 -79t108 -255v-543q0 -38 28.5 -52.5t79.5 -16.5l-10 -207q-20 -2 -53 -2q-253 0 -287 127q-79 -62 -161 -98.5t-193 -36.5zM498 195
q114 0 252 71v221l-207 -8q-97 -2 -153 -40.5t-56 -110.5q0 -66 45.5 -99.5t118.5 -33.5zM686 1307q-52 0 -135.5 37.5t-122.5 37.5q-40 0 -71.5 -11t-71.5 -44l-105 131q126 139 266 139q52 0 98.5 -19.5t85 -38.5t68.5 -19q45 0 80.5 13t83.5 42l94 -129q-23 -25 -40 -40
t-54 -42.5t-82 -42t-94 -14.5z" />
    <glyph glyph-name="adieresis" unicode="&#xe4;" horiz-adv-x="1183" 
d="M444 1337h-260v262h260v-262zM954 1337h-258v262h258v-262zM420 -18q-160 0 -256 85t-96 240q0 340 460 344l222 2v97q0 93 -52.5 128t-171.5 35q-158 0 -323 -51l-56 201q206 82 428 82q225 0 333 -79t108 -255v-543q0 -38 28.5 -52.5t79.5 -16.5l-10 -207
q-20 -2 -53 -2q-253 0 -287 127q-79 -62 -161 -98.5t-193 -36.5zM498 195q114 0 252 71v221l-207 -8q-97 -2 -153 -40.5t-56 -110.5q0 -66 45.5 -99.5t118.5 -33.5z" />
    <glyph glyph-name="aring" unicode="&#xe5;" horiz-adv-x="1183" 
d="M420 -18q-160 0 -256 85t-96 240q0 340 460 344l222 2v97q0 93 -52.5 128t-171.5 35q-158 0 -323 -51l-56 201q206 82 428 82q225 0 333 -79t108 -255v-543q0 -38 28.5 -52.5t79.5 -16.5l-10 -207q-20 -2 -53 -2q-253 0 -287 127q-79 -62 -161 -98.5t-193 -36.5zM498 195
q114 0 252 71v221l-207 -8q-97 -2 -153 -40.5t-56 -110.5q0 -66 45.5 -99.5t118.5 -33.5zM594 1223q-53 0 -100 12t-88 37.5t-65 73t-24 112.5q0 120 81 185t190 65q46 0 91 -12.5t88 -39t70 -77t27 -117.5q0 -117 -77.5 -178t-192.5 -61zM590 1343q58 0 90 31t35 86
q0 53 -35.5 85t-89.5 32q-125 0 -125 -113q0 -55 34 -88t91 -33z" />
    <glyph glyph-name="ae" unicode="&#xe6;" horiz-adv-x="1828" 
d="M1323 -18q-346 0 -481 180q-32 -28 -70 -54.5t-93 -56.5t-121.5 -48.5t-131.5 -18.5q-173 0 -265.5 82t-92.5 243q0 59 15 107.5t39.5 82t61.5 59t75.5 40.5t87.5 24.5t90 13.5t91 5q179 6 222 6v115q0 93 -52.5 122t-183.5 29q-25 0 -55.5 -2.5t-53 -5.5t-57.5 -10
l-50 -10t-52 -11.5t-43 -9.5l-56 201q216 80 416 80q133 0 226 -22.5t151 -88.5q128 111 354 111q232 0 343.5 -144.5t111.5 -410.5v-90l-731 -21q1 -71 19 -122t47.5 -81t77 -48t96 -23.5t114.5 -5.5q98 0 303 41l39 -203q-167 -55 -391 -55zM475 195q55 0 143.5 26.5
t163.5 61.5q-22 70 -32 188l-205 -4q-211 -5 -211 -141q0 -67 38 -99t103 -32zM1028 664l438 18q3 121 -52 192.5t-144 71.5q-100 0 -169.5 -70t-72.5 -212z" />
    <glyph glyph-name="ccedilla" unicode="&#xe7;" horiz-adv-x="1060" 
d="M686 -25q-319 0 -460.5 137.5t-141.5 419.5q0 301 154 458t432 157q190 0 327 -74l-71 -203q-131 52 -242 52q-159 0 -240.5 -88t-81.5 -293q0 -86 16.5 -146.5t56 -106t110 -67.5t174.5 -22q16 0 31 0.5t26.5 1.5t28.5 3t25 3t28.5 4.5t26.5 5t32 6.5t33 6l39 -211
q-67 -16 -94.5 -22.5t-86.5 -13.5t-122 -7zM504 -547l-94 162q82 51 105 73q38 37 38 76t-33 132h223q43 -88 43 -156q0 -167 -282 -287z" />
    <glyph glyph-name="egrave" unicode="&#xe8;" horiz-adv-x="1169" 
d="M657 -25q-135 0 -235.5 27.5t-178 91t-117.5 176t-40 273.5q0 131 27 234t74 171t114.5 113t144.5 64.5t168 19.5q250 0 363 -143.5t113 -419.5v-99h-730q-1 -69 17 -121t47.5 -83t74 -50t91 -25.5t104.5 -6.5q139 0 322 47l43 -207q-180 -62 -402 -62zM367 666h442
q2 131 -50 206.5t-155 75.5q-100 0 -165 -74t-72 -208zM741 1245l-458 228l94 194l450 -256z" />
    <glyph glyph-name="eacute" unicode="&#xe9;" horiz-adv-x="1169" 
d="M461 1245l-82 164l448 254l97 -193zM657 -25q-135 0 -235.5 27.5t-178 91t-117.5 176t-40 273.5q0 131 27 234t74 171t114.5 113t144.5 64.5t168 19.5q250 0 363 -143.5t113 -419.5v-99h-730q-1 -69 17 -121t47.5 -83t74 -50t91 -25.5t104.5 -6.5q139 0 322 47l43 -207
q-180 -62 -402 -62zM367 666h442q2 131 -50 206.5t-155 75.5q-100 0 -165 -74t-72 -208z" />
    <glyph glyph-name="ecircumflex" unicode="&#xea;" horiz-adv-x="1169" 
d="M848 1257l-256 181l-264 -181l-119 154l385 252l369 -252zM657 -25q-135 0 -235.5 27.5t-178 91t-117.5 176t-40 273.5q0 131 27 234t74 171t114.5 113t144.5 64.5t168 19.5q250 0 363 -143.5t113 -419.5v-99h-730q-1 -69 17 -121t47.5 -83t74 -50t91 -25.5t104.5 -6.5
q139 0 322 47l43 -207q-180 -62 -402 -62zM367 666h442q2 131 -50 206.5t-155 75.5q-100 0 -165 -74t-72 -208z" />
    <glyph glyph-name="edieresis" unicode="&#xeb;" horiz-adv-x="1169" 
d="M463 1337h-260v262h260v-262zM973 1337h-258v262h258v-262zM657 -25q-135 0 -235.5 27.5t-178 91t-117.5 176t-40 273.5q0 131 27 234t74 171t114.5 113t144.5 64.5t168 19.5q250 0 363 -143.5t113 -419.5v-99h-730q-1 -69 17 -121t47.5 -83t74 -50t91 -25.5t104.5 -6.5
q139 0 322 47l43 -207q-180 -62 -402 -62zM367 666h442q2 131 -50 206.5t-155 75.5q-100 0 -165 -74t-72 -208z" />
    <glyph glyph-name="igrave" unicode="&#xec;" horiz-adv-x="575" 
d="M152 0v1118h274v-1118h-274zM403 1245l-458 228l94 194l450 -256z" />
    <glyph glyph-name="iacute" unicode="&#xed;" horiz-adv-x="575" 
d="M152 1245l-82 164l448 254l96 -193zM152 0v1118h274v-1118h-274z" />
    <glyph glyph-name="icircumflex" unicode="&#xee;" horiz-adv-x="575" 
d="M547 1257l-256 181l-264 -181l-119 154l385 252l369 -252zM152 0v1118h274v-1118h-274z" />
    <glyph glyph-name="idieresis" unicode="&#xef;" horiz-adv-x="575" 
d="M160 1337h-260v262h260v-262zM670 1337h-258v262h258v-262zM152 0v1118h274v-1118h-274z" />
    <glyph glyph-name="eth" unicode="&#xf0;" horiz-adv-x="1294" 
d="M625 -23q-259 0 -400 145.5t-141 412.5q0 128 42.5 236t115.5 181.5t172.5 114.5t212.5 41q108 0 194 -45q-61 103 -176 199l-151 -121l-91 98l129 100q-51 31 -147 78l141 174q98 -36 193 -94l149 119l88 -98l-125 -99q78 -66 137.5 -139.5t111 -175.5t79 -238
t27.5 -301q0 -275 -151 -431.5t-410 -156.5zM639 197q64 0 111.5 17t77.5 46t48.5 74t25.5 95t7 114q0 348 -288 348q-261 0 -261 -348q0 -81 14 -142t45.5 -108t86.5 -71.5t133 -24.5z" />
    <glyph glyph-name="ntilde" unicode="&#xf1;" horiz-adv-x="1302" 
d="M774 1307q-52 0 -135.5 37.5t-122.5 37.5q-40 0 -71.5 -11t-71.5 -44l-105 131q126 139 267 139q52 0 98.5 -19.5t84.5 -38.5t68 -19q45 0 80.5 13t83.5 42l94 -129q-23 -25 -40 -40t-54 -42.5t-82 -42t-94 -14.5zM152 0v1118h272v-119q69 49 115.5 76t121.5 49.5
t158 22.5q66 0 118 -13t88 -34.5t61.5 -56t40 -69t23 -82.5t11 -88.5t2.5 -94.5v-709h-270v678q0 131 -36 181t-138 50q-139 0 -295 -88v-821h-272z" />
    <glyph glyph-name="ograve" unicode="&#xf2;" horiz-adv-x="1267" 
d="M788 1245l-458 228l94 194l450 -256zM623 -25q-258 0 -399.5 152.5t-141.5 421.5q0 280 152.5 439t408.5 159q270 0 406.5 -152.5t136.5 -433.5q0 -283 -155 -434.5t-408 -151.5zM637 195q79 0 133.5 27.5t83.5 79t41 113t12 142.5q0 373 -272 373q-277 0 -277 -373
q0 -362 279 -362z" />
    <glyph glyph-name="oacute" unicode="&#xf3;" horiz-adv-x="1267" 
d="M467 1245l-82 164l449 254l96 -193zM623 -25q-258 0 -399.5 152.5t-141.5 421.5q0 280 152.5 439t408.5 159q270 0 406.5 -152.5t136.5 -433.5q0 -283 -155 -434.5t-408 -151.5zM637 195q79 0 133.5 27.5t83.5 79t41 113t12 142.5q0 373 -272 373q-277 0 -277 -373
q0 -362 279 -362z" />
    <glyph glyph-name="ocircumflex" unicode="&#xf4;" horiz-adv-x="1267" 
d="M889 1257l-256 181l-264 -181l-119 154l385 252l369 -252zM623 -25q-258 0 -399.5 152.5t-141.5 421.5q0 280 152.5 439t408.5 159q270 0 406.5 -152.5t136.5 -433.5q0 -283 -155 -434.5t-408 -151.5zM637 195q79 0 133.5 27.5t83.5 79t41 113t12 142.5q0 373 -272 373
q-277 0 -277 -373q0 -362 279 -362z" />
    <glyph glyph-name="otilde" unicode="&#xf5;" horiz-adv-x="1267" 
d="M623 -25q-258 0 -399.5 152.5t-141.5 421.5q0 280 152.5 439t408.5 159q270 0 406.5 -152.5t136.5 -433.5q0 -283 -155 -434.5t-408 -151.5zM637 195q79 0 133.5 27.5t83.5 79t41 113t12 142.5q0 373 -272 373q-277 0 -277 -373q0 -362 279 -362zM745 1307
q-52 0 -135.5 37.5t-122.5 37.5q-40 0 -71.5 -11t-71.5 -44l-104 131q126 139 266 139q52 0 98.5 -19.5t85 -38.5t68.5 -19q45 0 80.5 13t83.5 42l94 -129q-23 -24 -40.5 -39.5t-54 -43t-82 -42t-94.5 -14.5z" />
    <glyph glyph-name="odieresis" unicode="&#xf6;" horiz-adv-x="1267" 
d="M504 1337h-260v262h260v-262zM1014 1337h-258v262h258v-262zM623 -25q-258 0 -399.5 152.5t-141.5 421.5q0 280 152.5 439t408.5 159q270 0 406.5 -152.5t136.5 -433.5q0 -283 -155 -434.5t-408 -151.5zM637 195q79 0 133.5 27.5t83.5 79t41 113t12 142.5q0 373 -272 373
q-277 0 -277 -373q0 -362 279 -362z" />
    <glyph glyph-name="divide" unicode="&#xf7;" horiz-adv-x="1273" 
d="M512 111v225h236v-225h-236zM106 518v211h1061v-211h-1061zM512 909v224h236v-224h-236z" />
    <glyph glyph-name="oslash" unicode="&#xf8;" horiz-adv-x="1310" 
d="M641 -25q-219 0 -352 109l-127 -135l-92 88l131 139q-101 147 -101 373q0 280 153 439t409 159q221 0 356 -107l121 129l90 -88l-125 -133q100 -141 100 -387q0 -283 -155 -434.5t-408 -151.5zM655 195q79 0 133.5 27.5t83.5 79t41.5 113t12.5 142.5q0 101 -23 180
l-442 -471q65 -71 194 -71zM377 557q0 -101 20 -174l445 473q-67 74 -189 74q-276 0 -276 -373z" />
    <glyph glyph-name="ugrave" unicode="&#xf9;" horiz-adv-x="1300" 
d="M481 -25q-65 0 -116.5 13.5t-87 35t-61 56t-40 69.5t-22.5 83.5t-10.5 89t-2.5 94.5v702h273v-672q0 -129 34 -180t138 -51q147 0 293 88v815h272v-1118h-272v121q-45 -33 -77 -53t-83.5 -44.5t-110.5 -36.5t-127 -12zM764 1245l-459 228l94 194l451 -256z" />
    <glyph glyph-name="uacute" unicode="&#xfa;" horiz-adv-x="1300" 
d="M537 1253l-82 164l448 254l96 -192zM481 -25q-65 0 -116.5 13.5t-87 35t-61 56t-40 69.5t-22.5 83.5t-10.5 89t-2.5 94.5v702h273v-672q0 -129 34 -180t138 -51q147 0 293 88v815h272v-1118h-272v121q-45 -33 -77 -53t-83.5 -44.5t-110.5 -36.5t-127 -12z" />
    <glyph glyph-name="ucircumflex" unicode="&#xfb;" horiz-adv-x="1300" 
d="M905 1257l-256 181l-264 -181l-119 154l385 252l369 -252zM481 -25q-65 0 -116.5 13.5t-87 35t-61 56t-40 69.5t-22.5 83.5t-10.5 89t-2.5 94.5v702h273v-672q0 -129 34 -180t138 -51q147 0 293 88v815h272v-1118h-272v121q-45 -33 -77 -53t-83.5 -44.5t-110.5 -36.5
t-127 -12z" />
    <glyph glyph-name="udieresis" unicode="&#xfc;" horiz-adv-x="1300" 
d="M518 1337h-260v262h260v-262zM1028 1337h-258v262h258v-262zM481 -25q-65 0 -116.5 13.5t-87 35t-61 56t-40 69.5t-22.5 83.5t-10.5 89t-2.5 94.5v702h273v-672q0 -129 34 -180t138 -51q147 0 293 88v815h272v-1118h-272v121q-45 -33 -77 -53t-83.5 -44.5t-110.5 -36.5
t-127 -12z" />
    <glyph glyph-name="yacute" unicode="&#xfd;" horiz-adv-x="1155" 
d="M340 -451l154 451h-107l-375 1118h295l211 -715l53 -188l60 186l241 717h277l-547 -1569h-262zM469 1245l-82 164l449 254l96 -193z" />
    <glyph glyph-name="thorn" unicode="&#xfe;" horiz-adv-x="1271" 
d="M152 -451v1995h270v-510q51 40 132 74.5t155 34.5q479 0 479 -539q0 -136 -32.5 -244t-87.5 -178t-132 -116.5t-161.5 -66t-180.5 -19.5q-60 0 -172 10v-441h-270zM602 193q146 0 226.5 108t80.5 281q0 167 -63.5 249t-214.5 82q-70 0 -209 -57v-649q136 -14 180 -14z
" />
    <glyph glyph-name="ydieresis" unicode="&#xff;" horiz-adv-x="1155" 
d="M449 1337h-261v262h261v-262zM958 1337h-258v262h258v-262zM340 -451l154 451h-107l-375 1118h295l211 -715l53 -188l60 186l241 717h277l-547 -1569h-262z" />
    <glyph glyph-name="Amacron" unicode="&#x100;" horiz-adv-x="1433" 
d="M-18 0l571 1448h362l502 -1448h-293l-157 469h-523l-178 -469h-284zM522 676h375l-174 594zM418 1581v215h624v-215h-624z" />
    <glyph glyph-name="amacron" unicode="&#x101;" horiz-adv-x="1183" 
d="M420 -18q-160 0 -256 85t-96 240q0 340 460 344l222 2v97q0 93 -52.5 128t-171.5 35q-158 0 -323 -51l-56 201q206 82 428 82q225 0 333 -79t108 -255v-543q0 -38 28.5 -52.5t79.5 -16.5l-10 -207q-20 -2 -53 -2q-253 0 -287 127q-79 -62 -161 -98.5t-193 -36.5zM498 195
q114 0 252 71v221l-207 -8q-97 -2 -153 -40.5t-56 -110.5q0 -66 45.5 -99.5t118.5 -33.5zM287 1341v215h624v-215h-624z" />
    <glyph glyph-name="Abreve" unicode="&#x102;" horiz-adv-x="1433" 
d="M-18 0l571 1448h362l502 -1448h-293l-157 469h-523l-178 -469h-284zM522 676h375l-174 594zM729 1542q-57 0 -109.5 13t-91.5 33.5t-73 48.5t-56.5 55t-40.5 57l144 125q120 -127 235 -127q125 0 230 125l135 -121q-24 -37 -55.5 -70t-77.5 -66t-108 -53t-132 -20z" />
    <glyph glyph-name="abreve" unicode="&#x103;" horiz-adv-x="1183" 
d="M420 -18q-160 0 -256 85t-96 240q0 340 460 344l222 2v97q0 93 -52.5 128t-171.5 35q-158 0 -323 -51l-56 201q206 82 428 82q225 0 333 -79t108 -255v-543q0 -38 28.5 -52.5t79.5 -16.5l-10 -207q-20 -2 -53 -2q-253 0 -287 127q-79 -62 -161 -98.5t-193 -36.5zM498 195
q114 0 252 71v221l-207 -8q-97 -2 -153 -40.5t-56 -110.5q0 -66 45.5 -99.5t118.5 -33.5zM604 1282q-57 0 -109.5 13t-91.5 33.5t-73 48.5t-56.5 55t-40.5 57l144 123q121 -125 235 -125q125 0 230 125l135 -121q-24 -38 -55.5 -71t-77 -66t-107.5 -52.5t-133 -19.5z" />
    <glyph glyph-name="Aogonek" unicode="&#x104;" horiz-adv-x="1431" 
d="M1466 -461q-34 -16 -56.5 -23.5t-65.5 -14.5t-99 -7q-163 0 -234 55t-71 166q0 66 47 136t135 153l-155 465h-523l-178 -469h-284l571 1448h362l500 -1448q-215 -134 -215 -233q0 -66 90 -66q64 0 127 18zM897 678l-96 315l-78 277l-90 -279l-111 -313h375z" />
    <glyph glyph-name="aogonek" unicode="&#x105;" horiz-adv-x="1179" 
d="M1143 -461q-103 -47 -221 -47q-285 0 -285 223q0 136 225 289q-29 15 -55.5 48.5t-32.5 64.5q-52 -38 -88 -61t-109.5 -48.5t-148.5 -25.5q-171 0 -265.5 83.5t-94.5 243.5q0 80 28.5 142t73 99t107.5 61t123 32.5t128 9.5h222v101q0 93 -54 126t-182 33q-102 0 -311 -51
l-56 203q216 80 416 80q78 0 137.5 -6.5t121.5 -27.5t102.5 -56t66 -96.5t25.5 -145.5v-545q0 -35 25.5 -50.5t76.5 -18.5l-14 -207q-126 -84 -171 -129q-56 -57 -56 -101q0 -34 25 -48.5t61 -14.5q72 0 131 20zM750 266v221l-207 -8q-209 -5 -209 -149q0 -66 40.5 -99.5
t114.5 -33.5q110 0 261 69z" />
    <glyph glyph-name="Cacute" unicode="&#x106;" horiz-adv-x="1388" 
d="M881 -25q-379 0 -582 195.5t-203 544.5t207 552t569 203q247 0 439 -88l-78 -206q-76 23 -115 32.5t-101 17.5t-140 9q-107 1 -195.5 -29t-156 -89.5t-105 -157t-37.5 -224.5q0 -255 145.5 -387.5t386.5 -132.5q180 0 338 47l62 -215q-100 -37 -198.5 -54.5t-235.5 -17.5
zM627 1526l-43 184l514 150l51 -218z" />
    <glyph glyph-name="cacute" unicode="&#x107;" horiz-adv-x="1060" 
d="M444 1245l-82 164l449 254l96 -193zM686 -25q-319 0 -460.5 137.5t-141.5 419.5q0 301 154 458t432 157q190 0 327 -74l-71 -203q-131 52 -242 52q-159 0 -240.5 -88t-81.5 -293q0 -86 16.5 -146.5t56 -106t110 -67.5t174.5 -22q16 0 31 0.5t26.5 1.5t28.5 3t25 3
t28.5 4.5t26.5 5t32 6.5t33 6l39 -211q-67 -16 -94.5 -22.5t-86.5 -13.5t-122 -7z" />
    <glyph glyph-name="Ccircumflex" unicode="&#x108;" horiz-adv-x="1388" 
d="M881 -25q-379 0 -582 195.5t-203 544.5t207 552t569 203q247 0 439 -88l-78 -206q-76 23 -115 32.5t-101 17.5t-140 9q-107 1 -195.5 -29t-156 -89.5t-105 -157t-37.5 -224.5q0 -255 145.5 -387.5t386.5 -132.5q180 0 338 47l62 -215q-100 -37 -198.5 -54.5t-235.5 -17.5
zM608 1526l-96 176l367 182l360 -180l-96 -178l-266 121z" />
    <glyph glyph-name="ccircumflex" unicode="&#x109;" horiz-adv-x="1060" 
d="M895 1257l-256 181l-264 -181l-119 154l385 252l369 -252zM686 -25q-319 0 -460.5 137.5t-141.5 419.5q0 301 154 458t432 157q190 0 327 -74l-71 -203q-131 52 -242 52q-159 0 -240.5 -88t-81.5 -293q0 -86 16.5 -146.5t56 -106t110 -67.5t174.5 -22q16 0 31 0.5
t26.5 1.5t28.5 3t25 3t28.5 4.5t26.5 5t32 6.5t33 6l39 -211q-67 -16 -94.5 -22.5t-86.5 -13.5t-122 -7z" />
    <glyph glyph-name="Cdotaccent" unicode="&#x10a;" horiz-adv-x="1388" 
d="M721 1587v262h274v-262h-274zM881 -25q-379 0 -582 195.5t-203 544.5t207 552t569 203q247 0 439 -88l-78 -206q-76 23 -115 32.5t-101 17.5t-140 9q-107 1 -195.5 -29t-156 -89.5t-105 -157t-37.5 -224.5q0 -255 145.5 -387.5t386.5 -132.5q180 0 338 47l62 -215
q-100 -37 -198.5 -54.5t-235.5 -17.5z" />
    <glyph glyph-name="cdotaccent" unicode="&#x10b;" horiz-adv-x="1060" 
d="M686 -25q-319 0 -460.5 137.5t-141.5 419.5q0 301 154 458t432 157q190 0 327 -74l-71 -203q-131 52 -242 52q-159 0 -240.5 -88t-81.5 -293q0 -86 16.5 -146.5t56 -106t110 -67.5t174.5 -22q16 0 31 0.5t26.5 1.5t28.5 3t25 3t28.5 4.5t26.5 5t32 6.5t33 6l39 -211
q-67 -16 -94.5 -22.5t-86.5 -13.5t-122 -7zM516 1337v262h272v-262h-272z" />
    <glyph glyph-name="Ccaron" unicode="&#x10c;" horiz-adv-x="1388" 
d="M1221 1700l-369 -180l-363 182l95 178l268 -123l270 121zM881 -25q-379 0 -582 195.5t-203 544.5t207 552t569 203q247 0 439 -88l-78 -206q-76 23 -115 32.5t-101 17.5t-140 9q-107 1 -195.5 -29t-156 -89.5t-105 -157t-37.5 -224.5q0 -255 145.5 -387.5t386.5 -132.5
q180 0 338 47l62 -215q-100 -37 -198.5 -54.5t-235.5 -17.5z" />
    <glyph glyph-name="ccaron" unicode="&#x10d;" horiz-adv-x="1060" 
d="M604 1247l-375 254l111 152l266 -180l264 180l119 -154zM686 -25q-319 0 -460.5 137.5t-141.5 419.5q0 301 154 458t432 157q190 0 327 -74l-71 -203q-131 52 -242 52q-159 0 -240.5 -88t-81.5 -293q0 -86 16.5 -146.5t56 -106t110 -67.5t174.5 -22q16 0 31 0.5t26.5 1.5
t28.5 3t25 3t28.5 4.5t26.5 5t32 6.5t33 6l39 -211q-67 -16 -94.5 -22.5t-86.5 -13.5t-122 -7z" />
    <glyph glyph-name="Dcaron" unicode="&#x10e;" horiz-adv-x="1585" 
d="M1073 1700l-368 -180l-363 182l94 178l269 -123l270 121zM188 0v1448h469q149 0 274.5 -26.5t229.5 -82.5t176.5 -139.5t112 -203t39.5 -267.5q0 -186 -56 -326t-163.5 -228t-257 -131.5t-342.5 -43.5h-482zM467 221h225q516 0 516 488q0 259 -141.5 388.5t-415.5 129.5
h-184v-1006z" />
    <glyph glyph-name="dcaron" unicode="&#x10f;" horiz-adv-x="1411" 
d="M1481 1544l-88 -436h-193l43 436h238zM565 -18q-66 0 -129 15t-128.5 54.5t-113.5 100.5t-79 162t-31 229q0 156 44.5 273.5t124.5 189t184.5 106.5t232.5 35q67 0 170 -19v416h272v-1544h-272v90q-32 -26 -50.5 -39t-54 -32.5t-77.5 -28t-93 -8.5zM616 209q101 0 224 72
v626q-4 1 -24 5.5t-38 8t-47 6.5t-57 3q-85 0 -147.5 -27.5t-98.5 -78.5t-53 -116.5t-17 -148.5q0 -183 71.5 -266.5t186.5 -83.5z" />
    <glyph glyph-name="Dcroat" unicode="&#x110;" horiz-adv-x="1644" 
d="M90 629v176h156v643h469q149 0 274.5 -26.5t229 -82.5t176 -139.5t112 -203t39.5 -267.5q0 -186 -56 -326t-163.5 -228t-257 -131.5t-342.5 -43.5h-481v629h-156zM524 221h226q516 0 516 488q0 259 -141.5 388.5t-415.5 129.5h-185v-422h297v-176h-297v-408z" />
    <glyph glyph-name="dcroat" unicode="&#x111;" horiz-adv-x="1263" 
d="M596 1260v139h244v145h272v-145h133v-139h-133v-1260h-272v90q-35 -30 -65 -49.5t-85 -38t-117 -18.5q-72 0 -135 13.5t-130 52.5t-115 101.5t-78.5 169.5t-30.5 248t45 252.5t124.5 181.5t184 107t226.5 37q79 0 176 -19v132h-244zM621 211q92 0 219 70v626
q-99 23 -172 23q-159 0 -234.5 -100t-75.5 -267q0 -352 263 -352z" />
    <glyph glyph-name="Emacron" unicode="&#x112;" 
d="M328 1581v215h624v-215h-624zM188 0v1448h897v-221h-618v-396h573v-208h-573v-402h666v-221h-945z" />
    <glyph glyph-name="emacron" unicode="&#x113;" horiz-adv-x="1169" 
d="M299 1341v215h625v-215h-625zM657 -25q-135 0 -235.5 27.5t-178 91t-117.5 176t-40 273.5q0 131 27 234t74 171t114.5 113t144.5 64.5t168 19.5q250 0 363 -143.5t113 -419.5v-99h-730q-1 -69 17 -121t47.5 -83t74 -50t91 -25.5t104.5 -6.5q139 0 322 47l43 -207
q-180 -62 -402 -62zM367 666h442q2 131 -50 206.5t-155 75.5q-100 0 -165 -74t-72 -208z" />
    <glyph glyph-name="Ebreve" unicode="&#x114;" 
d="M637 1542q-57 0 -109.5 13t-91.5 33.5t-73 48.5t-56.5 55t-40.5 57l144 125q120 -127 235 -127q124 0 229 125l136 -121q-24 -37 -55.5 -70t-77.5 -66t-108 -53t-132 -20zM188 0v1448h897v-221h-618v-396h573v-208h-573v-402h666v-221h-945z" />
    <glyph glyph-name="ebreve" unicode="&#x115;" horiz-adv-x="1169" 
d="M657 -25q-135 0 -235.5 27.5t-178 91t-117.5 176t-40 273.5q0 131 27 234t74 171t114.5 113t144.5 64.5t168 19.5q250 0 363 -143.5t113 -419.5v-99h-730q-1 -69 17 -121t47.5 -83t74 -50t91 -25.5t104.5 -6.5q139 0 322 47l43 -207q-180 -62 -402 -62zM367 666h442
q2 131 -50 206.5t-155 75.5q-100 0 -165 -74t-72 -208zM618 1282q-71 0 -133 19t-107 51t-76 65.5t-54 71.5l143 123q121 -125 236 -125q124 0 229 125l135 -121q-24 -38 -55.5 -71t-77 -66t-107.5 -52.5t-133 -19.5z" />
    <glyph glyph-name="Edotaccent" unicode="&#x116;" 
d="M520 1587v262h275v-262h-275zM188 0v1448h897v-221h-618v-396h573v-208h-573v-402h666v-221h-945z" />
    <glyph glyph-name="edotaccent" unicode="&#x117;" horiz-adv-x="1169" 
d="M657 -25q-135 0 -235.5 27.5t-178 91t-117.5 176t-40 273.5q0 131 27 234t74 171t114.5 113t144.5 64.5t168 19.5q250 0 363 -143.5t113 -419.5v-99h-730q-1 -69 17 -121t47.5 -83t74 -50t91 -25.5t104.5 -6.5q139 0 322 47l43 -207q-180 -62 -402 -62zM367 666h442
q2 131 -50 206.5t-155 75.5q-100 0 -165 -74t-72 -208zM481 1337v262h273v-262h-273z" />
    <glyph glyph-name="Eogonek" unicode="&#x118;" 
d="M1155 -461q-52 -25 -96 -37t-113 -12q-138 0 -204 60t-66 155t61 174t142 121h-691v1448h897v-221h-618v-396h573v-208h-573v-402h666v-221q-94 -49 -163 -108.5t-69 -116.5q0 -36 25.5 -55t64.5 -19q57 0 115 18z" />
    <glyph glyph-name="eogonek" unicode="&#x119;" horiz-adv-x="1171" 
d="M844 -506q-150 0 -217.5 57.5t-67.5 169.5q0 68 45 136.5t113 126.5q-62 -4 -92 -4q-126 0 -222.5 30t-169 95t-110 174.5t-37.5 261.5q0 604 547 604q457 0 457 -563v-99h-732q1 -72 19.5 -124t48 -82.5t76.5 -48t95 -23.5t114 -6q98 0 303 41l41 -213
q-39 -22 -75.5 -47t-77.5 -59.5t-66 -73.5t-25 -74q0 -40 26 -59t68 -19q65 0 123 24l49 -180q-95 -45 -233 -45zM367 666h440q3 130 -49 207t-150 77q-101 0 -167.5 -74t-73.5 -210z" />
    <glyph glyph-name="Ecaron" unicode="&#x11a;" 
d="M999 1700l-368 -180l-363 182l94 178l269 -123l270 121zM188 0v1448h897v-221h-618v-396h573v-208h-573v-402h666v-221h-945z" />
    <glyph glyph-name="ecaron" unicode="&#x11b;" horiz-adv-x="1169" 
d="M606 1247l-375 254l111 152l266 -180l264 180l119 -154zM657 -25q-135 0 -235.5 27.5t-178 91t-117.5 176t-40 273.5q0 131 27 234t74 171t114.5 113t144.5 64.5t168 19.5q250 0 363 -143.5t113 -419.5v-99h-730q-1 -69 17 -121t47.5 -83t74 -50t91 -25.5t104.5 -6.5
q139 0 322 47l43 -207q-180 -62 -402 -62zM367 666h442q2 131 -50 206.5t-155 75.5q-100 0 -165 -74t-72 -208z" />
    <glyph glyph-name="Gcircumflex" unicode="&#x11c;" horiz-adv-x="1454" 
d="M600 1526l-96 176l366 182l361 -180l-96 -178l-267 121zM879 -23q-365 0 -574 190.5t-209 547.5q0 371 201.5 562t583.5 191q144 0 239 -21.5t189 -62.5l-76 -208q-78 23 -113.5 32t-100.5 18t-140 9q-106 0 -193.5 -28.5t-156.5 -86.5t-107.5 -156.5t-38.5 -228.5
q0 -132 41 -233.5t114 -163t166.5 -92.5t204.5 -31q70 0 148 12v488h278v-658q-214 -80 -456 -80z" />
    <glyph glyph-name="gcircumflex" unicode="&#x11d;" horiz-adv-x="1224" 
d="M539 395q-95 0 -177 23q-32 -46 -32 -86q0 -32 22.5 -52t61.5 -20h229q449 0 449 -311q0 -87 -36 -162t-105 -133t-180 -91.5t-251 -33.5q-218 0 -336 77.5t-118 211.5q0 76 36.5 146t104.5 116q-82 58 -82 158q0 60 31 120.5t90 108.5q-148 91 -148 276
q0 173 122.5 287.5t332.5 114.5q160 0 274 -66l344 19v-199h-182q23 -103 23 -147q0 -163 -134 -260t-339 -97zM657 37h-280q-37 0 -53 2q-58 -64 -58 -139q0 -76 67 -120t208 -44q146 0 234.5 51t88.5 129q0 57 -53 89t-154 32zM809 1257l-256 181l-264 -181l-119 154
l385 252l369 -252zM549 563q99 0 157 55.5t58 143.5t-55.5 145.5t-153.5 57.5q-97 0 -154 -57t-57 -150q0 -90 55.5 -142.5t149.5 -52.5z" />
    <glyph glyph-name="Gbreve" unicode="&#x11e;" horiz-adv-x="1454" 
d="M846 1542q-57 0 -109.5 13t-91.5 33.5t-73 48.5t-56.5 55t-40.5 57l143 125q120 -127 236 -127q124 0 229 125l136 -121q-24 -37 -55.5 -70t-77.5 -66t-108 -53t-132 -20zM879 -23q-365 0 -574 190.5t-209 547.5q0 371 201.5 562t583.5 191q144 0 239 -21.5t189 -62.5
l-76 -208q-78 23 -113.5 32t-100.5 18t-140 9q-106 0 -193.5 -28.5t-156.5 -86.5t-107.5 -156.5t-38.5 -228.5q0 -132 41 -233.5t114 -163t166.5 -92.5t204.5 -31q70 0 148 12v488h278v-658q-214 -80 -456 -80z" />
    <glyph glyph-name="gbreve" unicode="&#x11f;" horiz-adv-x="1224" 
d="M539 395q-95 0 -177 23q-32 -46 -32 -86q0 -32 22.5 -52t61.5 -20h229q449 0 449 -311q0 -87 -36 -162t-105 -133t-180 -91.5t-251 -33.5q-218 0 -336 77.5t-118 211.5q0 76 36.5 146t104.5 116q-82 58 -82 158q0 60 31 120.5t90 108.5q-148 91 -148 276
q0 173 122.5 287.5t332.5 114.5q160 0 274 -66l344 19v-199h-182q23 -103 23 -147q0 -163 -134 -260t-339 -97zM657 37h-280q-37 0 -53 2q-58 -64 -58 -139q0 -76 67 -120t208 -44q146 0 234.5 51t88.5 129q0 57 -53 89t-154 32zM567 1282q-71 0 -133 19t-107 51t-76 65.5
t-54 71.5l143 123q121 -125 235 -125q125 0 230 125l135 -121q-24 -38 -55.5 -71t-77 -66t-107.5 -52.5t-133 -19.5zM549 563q99 0 157 55.5t58 143.5t-55.5 145.5t-153.5 57.5q-97 0 -154 -57t-57 -150q0 -90 55.5 -142.5t149.5 -52.5z" />
    <glyph glyph-name="Gdotaccent" unicode="&#x120;" horiz-adv-x="1454" 
d="M750 1587v262h274v-262h-274zM879 -23q-365 0 -574 190.5t-209 547.5q0 371 201.5 562t583.5 191q144 0 239 -21.5t189 -62.5l-76 -208q-78 23 -113.5 32t-100.5 18t-140 9q-106 0 -193.5 -28.5t-156.5 -86.5t-107.5 -156.5t-38.5 -228.5q0 -132 41 -233.5t114 -163
t166.5 -92.5t204.5 -31q70 0 148 12v488h278v-658q-214 -80 -456 -80z" />
    <glyph glyph-name="gdotaccent" unicode="&#x121;" horiz-adv-x="1224" 
d="M539 395q-95 0 -177 23q-32 -46 -32 -86q0 -32 22.5 -52t61.5 -20h229q449 0 449 -311q0 -87 -36 -162t-105 -133t-180 -91.5t-251 -33.5q-218 0 -336 77.5t-118 211.5q0 76 36.5 146t104.5 116q-82 58 -82 158q0 60 31 120.5t90 108.5q-148 91 -148 276
q0 173 122.5 287.5t332.5 114.5q160 0 274 -66l344 19v-199h-182q23 -103 23 -147q0 -163 -134 -260t-339 -97zM657 37h-280q-37 0 -53 2q-58 -64 -58 -139q0 -76 67 -120t208 -44q146 0 234.5 51t88.5 129q0 57 -53 89t-154 32zM549 563q99 0 157 55.5t58 143.5
t-55.5 145.5t-153.5 57.5q-97 0 -154 -57t-57 -150q0 -90 55.5 -142.5t149.5 -52.5zM420 1337v262h272v-262h-272z" />
    <glyph glyph-name="Gcommaaccent" unicode="&#x122;" horiz-adv-x="1454" 
d="M1010 -121l-88 -436h-193l43 436h238zM879 -23q-365 0 -574 190.5t-209 547.5q0 371 201.5 562t583.5 191q144 0 239 -21.5t189 -62.5l-76 -208q-78 23 -113.5 32t-100.5 18t-140 9q-106 0 -193.5 -28.5t-156.5 -86.5t-107.5 -156.5t-38.5 -228.5q0 -132 41 -233.5
t114 -163t166.5 -92.5t204.5 -31q70 0 148 12v488h278v-658q-214 -80 -456 -80z" />
    <glyph glyph-name="gcommaaccent" unicode="&#x123;" horiz-adv-x="1224" 
d="M539 395q-95 0 -177 23q-32 -46 -32 -86q0 -32 22.5 -52t61.5 -20h229q449 0 449 -311q0 -87 -36 -162t-105 -133t-180 -91.5t-251 -33.5q-218 0 -336 77.5t-118 211.5q0 76 36.5 146t104.5 116q-82 58 -82 158q0 60 31 120.5t90 108.5q-148 91 -148 276
q0 173 122.5 287.5t332.5 114.5q160 0 274 -66l344 19v-199h-182q23 -103 23 -147q0 -163 -134 -260t-339 -97zM657 37h-280q-37 0 -53 2q-58 -64 -58 -139q0 -76 67 -120t208 -44q146 0 234.5 51t88.5 129q0 57 -53 89t-154 32zM549 563q99 0 157 55.5t58 143.5
t-55.5 145.5t-153.5 57.5q-97 0 -154 -57t-57 -150q0 -90 55.5 -142.5t149.5 -52.5zM432 1239l98 408h220l-58 -408h-260z" />
    <glyph glyph-name="Hcircumflex" unicode="&#x124;" horiz-adv-x="1617" 
d="M188 0v1448h279v-612h684v612h279v-1448h-279v618h-684v-618h-279zM537 1526l-97 176l367 182l360 -180l-96 -178l-266 121z" />
    <glyph glyph-name="hcircumflex" unicode="&#x125;" horiz-adv-x="1302" 
d="M152 0v1544h272v-549q190 150 377 150q71 0 127 -13t93.5 -33.5t64 -55t41 -68t22.5 -83t10 -89t2 -96.5v-707h-268v676q0 130 -36.5 180.5t-139.5 50.5q-131 0 -293 -92v-815h-272zM23 1559l-97 176l367 182l360 -180l-96 -178l-266 120z" />
    <glyph glyph-name="Hbar" unicode="&#x126;" horiz-adv-x="1693" 
d="M74 1055v143h151v250h279v-250h684v250h278v-250h152v-143h-152v-1055h-278v618h-684v-618h-279v1055h-151zM504 836h684v219h-684v-219z" />
    <glyph glyph-name="hbar" unicode="&#x127;" horiz-adv-x="1302" 
d="M152 0v1260h-132v139h132v145h272v-145h246v-139h-246v-261q204 150 375 150q72 0 128 -13t93.5 -33t64.5 -55t41.5 -68t22.5 -82.5t10 -89.5t2 -97v-711h-268v680q0 132 -36.5 181.5t-145.5 49.5q-110 0 -287 -90v-821h-272z" />
    <glyph glyph-name="Itilde" unicode="&#x128;" horiz-adv-x="655" 
d="M188 0v1448h279v-1448h-279zM449 1546q-51 0 -135 38t-121 38q-79 0 -144 -53l-104 129q128 139 260 139q52 0 99.5 -19.5t85 -39t65.5 -19.5q47 0 79 11.5t80 41.5l95 -126q-122 -140 -260 -140z" />
    <glyph glyph-name="itilde" unicode="&#x129;" horiz-adv-x="575" 
d="M152 0v1118h274v-1118h-274zM403 1307q-52 0 -135.5 37.5t-122.5 37.5q-40 0 -71.5 -11t-71.5 -44l-104 131q126 139 266 139q52 0 98.5 -19.5t85 -38.5t68.5 -19q45 0 80.5 13t83.5 42l94 -129q-23 -24 -40.5 -39.5t-54 -43t-82 -42t-94.5 -14.5z" />
    <glyph glyph-name="Imacron" unicode="&#x12a;" horiz-adv-x="655" 
d="M188 0v1448h279v-1448h-279zM10 1581v215h625v-215h-625z" />
    <glyph glyph-name="imacron" unicode="&#x12b;" horiz-adv-x="575" 
d="M152 0v1118h274v-1118h-274zM-23 1341v215h625v-215h-625z" />
    <glyph glyph-name="Ibreve" unicode="&#x12c;" horiz-adv-x="655" 
d="M188 0v1448h279v-1448h-279zM324 1542q-57 0 -109.5 13t-91.5 33.5t-73 48.5t-56.5 55t-40.5 57l143 125q120 -127 236 -127q124 0 229 125l135 -121q-19 -29 -41.5 -55t-57.5 -55.5t-73.5 -50t-90.5 -34.5t-109 -14z" />
    <glyph glyph-name="ibreve" unicode="&#x12d;" horiz-adv-x="575" 
d="M152 0v1118h274v-1118h-274zM295 1282q-57 0 -109.5 13t-91.5 33.5t-73 48.5t-56.5 55t-40.5 57l144 123q121 -125 235 -125q124 0 229 125l136 -121q-24 -38 -55.5 -71t-77 -66t-107.5 -52.5t-133 -19.5z" />
    <glyph glyph-name="Iogonek" unicode="&#x12e;" horiz-adv-x="655" 
d="M532 -461q-100 -47 -221 -47q-157 0 -221.5 63t-64.5 179q0 118 163 250v1462h279v-1446q-91 -59 -146 -112.5t-55 -108.5q0 -37 27 -59.5t61 -22.5q57 0 129 22z" />
    <glyph glyph-name="iogonek" unicode="&#x12f;" horiz-adv-x="575" 
d="M266 -508q-157 0 -224 63.5t-67 178.5q0 125 177 262v1122h272v-1118q-221 -138 -221 -238q0 -35 28 -52t70 -17q65 0 137 26l51 -180q-34 -16 -57.5 -24t-67.5 -15.5t-98 -7.5zM152 1337v262h272v-262h-272z" />
    <glyph glyph-name="Idotaccent" unicode="&#x130;" horiz-adv-x="655" 
d="M186 1587v262h275v-262h-275zM188 0v1448h279v-1448h-279z" />
    <glyph glyph-name="dotlessi" unicode="&#x131;" horiz-adv-x="575" 
d="M152 0v1118h274v-1118h-274z" />
    <glyph glyph-name="IJ" unicode="&#x132;" horiz-adv-x="1280" 
d="M188 0v1448h279v-1448h-279zM623 -397l-107 202q93 51 150.5 100t90.5 110t44.5 128t11.5 166v1139h283v-1135q0 -71 -3.5 -126t-15.5 -118t-33 -113t-56.5 -102.5t-84.5 -95t-120 -83t-160 -72.5z" />
    <glyph glyph-name="ij" unicode="&#x133;" horiz-adv-x="1161" 
d="M586 -461q-53 0 -114 13t-103 32l49 215q76 -26 160 -26q88 0 123.5 50.5t35.5 166.5v1128h273v-1130q0 -107 -23 -187.5t-60.5 -129.5t-93.5 -79.5t-115 -41.5t-132 -11zM152 0v1118h274v-1118h-274zM152 1337v262h272v-262h-272zM741 1337v262h273v-262h-273z" />
    <glyph glyph-name="Jcircumflex" unicode="&#x134;" horiz-adv-x="659" 
d="M2 -397l-106 202q93 51 150.5 100t90.5 110t44.5 128t11.5 166v1139h282v-1135q0 -71 -3.5 -126t-15.5 -118t-33 -113t-56.5 -102.5t-84.5 -95t-120 -83t-160 -72.5zM63 1526l-96 176l367 182l360 -180l-96 -178l-266 121z" />
    <glyph glyph-name="jcircumflex" unicode="&#x135;" horiz-adv-x="575" 
d="M541 1257l-256 181l-265 -181l-118 154l385 252l368 -252zM0 -461q-53 0 -114 13t-103 32l49 215q76 -26 160 -26q88 0 124 50.5t36 166.5v1128h272v-1130q0 -107 -23 -187.5t-60.5 -129.5t-93.5 -79.5t-115 -41.5t-132 -11z" />
    <glyph glyph-name="Kcommaaccent" unicode="&#x136;" horiz-adv-x="1406" 
d="M188 0v1448h279v-662l547 662h356l-592 -674l627 -774h-358l-580 766v-766h-279zM854 -121l-88 -436h-193l43 436h238z" />
    <glyph glyph-name="kcommaaccent" unicode="&#x137;" horiz-adv-x="1177" 
d="M758 -121l-88 -436h-193l43 436h238zM154 0v1544h272v-909l387 483h299l-432 -518l475 -600h-338l-391 539v-539h-272z" />
    <glyph glyph-name="uni0138" unicode="&#x138;" horiz-adv-x="1179" 
d="M152 0v1118h272v-532l391 532h295l-424 -516l473 -602h-321l-414 569v-569h-272z" />
    <glyph glyph-name="Lacute" unicode="&#x139;" horiz-adv-x="1114" 
d="M211 1526l-43 184l514 150l51 -218zM188 0v1448h279v-1223h629v-225h-908z" />
    <glyph glyph-name="lacute" unicode="&#x13a;" horiz-adv-x="575" 
d="M174 1620l-43 184l514 150l51 -217zM152 0v1544h272v-1544h-272z" />
    <glyph glyph-name="Lcommaaccent" unicode="&#x13b;" horiz-adv-x="1114" 
d="M750 -121l-88 -436h-193l43 436h238zM188 0v1448h279v-1223h629v-225h-908z" />
    <glyph glyph-name="lcommaaccent" unicode="&#x13c;" horiz-adv-x="575" 
d="M410 -121l-88 -436h-193l43 436h238zM152 0v1544h272v-1544h-272z" />
    <glyph glyph-name="Lcaron" unicode="&#x13d;" horiz-adv-x="1114" 
d="M903 1597l-88 -436h-192l43 436h237zM188 0v1448h279v-1223h629v-225h-908z" />
    <glyph glyph-name="lcaron" unicode="&#x13e;" horiz-adv-x="727" 
d="M801 1544l-88 -436h-193l43 436h238zM152 0v1544h272v-1544h-272z" />
    <glyph glyph-name="Ldot" unicode="&#x13f;" horiz-adv-x="1114" 
d="M729 627v278h309v-278h-309zM188 0v1448h279v-1223h629v-225h-908z" />
    <glyph glyph-name="ldot" unicode="&#x140;" horiz-adv-x="894" 
d="M561 614v279h309v-279h-309zM152 0v1544h272v-1544h-272z" />
    <glyph glyph-name="Lslash" unicode="&#x141;" horiz-adv-x="1161" 
d="M88 481v195l148 84v688h278v-528l240 139v-193l-240 -139v-502h629v-225h-907v565z" />
    <glyph glyph-name="lslash" unicode="&#x142;" horiz-adv-x="716" 
d="M219 0v637l-176 -102l-2 194l178 102v713h273v-557l184 107v-193l-184 -106v-795h-273z" />
    <glyph glyph-name="Nacute" unicode="&#x143;" horiz-adv-x="1622" 
d="M621 1526l-43 184l514 150l51 -218zM188 0v1448h332l639 -1094h4l-8 170v924h281v-1448h-344l-625 1071h-8l8 -176v-895h-279z" />
    <glyph glyph-name="nacute" unicode="&#x144;" horiz-adv-x="1302" 
d="M520 1245l-82 164l449 254l96 -193zM152 0v1118h272v-119q69 49 115.5 76t121.5 49.5t158 22.5q66 0 118 -13t88 -34.5t61.5 -56t40 -69t23 -82.5t11 -88.5t2.5 -94.5v-709h-270v678q0 131 -36 181t-138 50q-139 0 -295 -88v-821h-272z" />
    <glyph glyph-name="Ncommaaccent" unicode="&#x145;" horiz-adv-x="1622" 
d="M938 -121l-88 -436h-193l43 436h238zM188 0v1448h332l639 -1094h4l-8 170v924h281v-1448h-344l-625 1071h-8l8 -176v-895h-279z" />
    <glyph glyph-name="ncommaaccent" unicode="&#x146;" horiz-adv-x="1302" 
d="M788 -121l-88 -436h-192l43 436h237zM152 0v1118h272v-119q69 49 115.5 76t121.5 49.5t158 22.5q66 0 118 -13t88 -34.5t61.5 -56t40 -69t23 -82.5t11 -88.5t2.5 -94.5v-709h-270v678q0 131 -36 181t-138 50q-139 0 -295 -88v-821h-272z" />
    <glyph glyph-name="Ncaron" unicode="&#x147;" horiz-adv-x="1622" 
d="M1171 1700l-368 -180l-363 182l95 178l268 -123l270 121zM188 0v1448h332l639 -1094h4l-8 170v924h281v-1448h-344l-625 1071h-8l8 -176v-895h-279z" />
    <glyph glyph-name="ncaron" unicode="&#x148;" horiz-adv-x="1302" 
d="M647 1247l-375 254l111 152l266 -180l264 180l119 -154zM152 0v1118h272v-119q69 49 115.5 76t121.5 49.5t158 22.5q66 0 118 -13t88 -34.5t61.5 -56t40 -69t23 -82.5t11 -88.5t2.5 -94.5v-709h-270v678q0 131 -36 181t-138 50q-139 0 -295 -88v-821h-272z" />
    <glyph glyph-name="napostrophe" unicode="&#x149;" horiz-adv-x="1445" 
d="M-57 1047q61 120 61 266v231h252v-153q0 -193 -113 -344h-200zM293 0v1118h272v-119q105 74 191 111t205 37q66 0 118 -13t88 -34.5t61.5 -56t40 -69t23 -82.5t11 -88.5t2.5 -94.5v-709h-271v678q0 131 -36 181t-138 50q-139 0 -295 -88v-821h-272z" />
    <glyph glyph-name="Eng" unicode="&#x14a;" horiz-adv-x="1622" 
d="M1012 -451q-108 0 -217 37l49 215q4 -1 32 -6t67 -9.5t63 -4.5q81 0 119 44t38 134v41h-86l-618 1090l8 -177v-913h-279v1448h342l633 -1112l-8 170v942h281l-2 -1460q0 -106 -23 -185.5t-60.5 -127t-93.5 -76.5t-114 -39.5t-131 -10.5z" />
    <glyph glyph-name="eng" unicode="&#x14b;" horiz-adv-x="1302" 
d="M1163 -10q0 -107 -23 -186.5t-60.5 -127.5t-94 -77t-114.5 -39.5t-132 -10.5q-108 0 -217 37l49 215q14 -3 71.5 -11.5t90.5 -8.5q88 0 124 48.5t36 162.5v688q0 131 -36 180t-146 49q-130 0 -287 -88v-821h-272v1118h272v-119q204 150 375 150q56 0 102.5 -8t81.5 -20.5
t62.5 -34.5t46 -44t32 -54.5t21 -61t12 -68t5.5 -71.5t1 -76v-721z" />
    <glyph glyph-name="Omacron" unicode="&#x14c;" horiz-adv-x="1701" 
d="M547 1581v215h624v-215h-624zM834 -25q-357 0 -548.5 201.5t-191.5 550.5q0 341 209 542t565 201q185 0 327.5 -56t232 -157.5t135 -236t45.5 -297.5q0 -346 -202.5 -547t-571.5 -201zM840 199q101 0 182 26.5t137 73t93 113t54 144.5t17 169q0 234 -120 378t-349 144
q-121 0 -214 -39t-149.5 -109.5t-85 -163.5t-28.5 -206q0 -111 27.5 -205t82.5 -168t145.5 -115.5t207.5 -41.5z" />
    <glyph glyph-name="omacron" unicode="&#x14d;" horiz-adv-x="1267" 
d="M315 1341v215h625v-215h-625zM623 -25q-258 0 -399.5 152.5t-141.5 421.5q0 280 152.5 439t408.5 159q270 0 406.5 -152.5t136.5 -433.5q0 -283 -155 -434.5t-408 -151.5zM637 195q79 0 133.5 27.5t83.5 79t41 113t12 142.5q0 373 -272 373q-277 0 -277 -373
q0 -362 279 -362z" />
    <glyph glyph-name="Obreve" unicode="&#x14e;" horiz-adv-x="1701" 
d="M854 1542q-57 0 -109.5 13t-91.5 33.5t-73 48.5t-56.5 55t-40.5 57l144 125q120 -127 235 -127q125 0 230 125l135 -121q-24 -37 -55.5 -70t-77.5 -66t-108 -53t-132 -20zM834 -25q-357 0 -548.5 201.5t-191.5 550.5q0 341 209 542t565 201q185 0 327.5 -56t232 -157.5
t135 -236t45.5 -297.5q0 -346 -202.5 -547t-571.5 -201zM840 199q101 0 182 26.5t137 73t93 113t54 144.5t17 169q0 234 -120 378t-349 144q-121 0 -214 -39t-149.5 -109.5t-85 -163.5t-28.5 -206q0 -111 27.5 -205t82.5 -168t145.5 -115.5t207.5 -41.5z" />
    <glyph glyph-name="obreve" unicode="&#x14f;" horiz-adv-x="1267" 
d="M623 -25q-258 0 -399.5 152.5t-141.5 421.5q0 280 152.5 439t408.5 159q270 0 406.5 -152.5t136.5 -433.5q0 -283 -155 -434.5t-408 -151.5zM637 195q79 0 133.5 27.5t83.5 79t41 113t12 142.5q0 373 -272 373q-277 0 -277 -373q0 -362 279 -362zM633 1282
q-57 0 -109.5 13t-91.5 33.5t-73 48.5t-56.5 55t-40.5 57l144 123q121 -125 235 -125q124 0 229 125l136 -121q-24 -38 -55.5 -71t-77 -66t-107.5 -52.5t-133 -19.5z" />
    <glyph glyph-name="Ohungarumlaut" unicode="&#x150;" horiz-adv-x="1701" 
d="M834 -25q-357 0 -548.5 201.5t-191.5 550.5q0 341 209 542t565 201q185 0 327.5 -56t232 -157.5t135 -236t45.5 -297.5q0 -346 -202.5 -547t-571.5 -201zM840 199q101 0 182 26.5t137 73t93 113t54 144.5t17 169q0 234 -120 378t-349 144q-121 0 -214 -39t-149.5 -109.5
t-85 -163.5t-28.5 -206q0 -111 27.5 -205t82.5 -168t145.5 -115.5t207.5 -41.5zM958 1798l-442 -289l-113 160l422 316zM1522 1624l-518 -108l-43 188l507 141z" />
    <glyph glyph-name="ohungarumlaut" unicode="&#x151;" horiz-adv-x="1267" 
d="M330 1233l-117 139l383 340l139 -166zM788 1235l-81 160l448 252l98 -191zM623 -25q-258 0 -399.5 152.5t-141.5 421.5q0 280 152.5 439t408.5 159q270 0 406.5 -152.5t136.5 -433.5q0 -283 -155 -434.5t-408 -151.5zM637 195q79 0 133.5 27.5t83.5 79t41 113t12 142.5
q0 373 -272 373q-277 0 -277 -373q0 -362 279 -362z" />
    <glyph glyph-name="OE" unicode="&#x152;" horiz-adv-x="2260" 
d="M836 -25q-357 0 -548.5 201.5t-191.5 550.5q0 355 208.5 549t569.5 194q209 0 347 -77v55h897v-221h-617v-396h572v-208h-572v-402h664v-221h-944v68q-157 -93 -385 -93zM842 201q254 0 379 164v716q-125 164 -365 164q-121 0 -213.5 -39t-149 -109.5t-84.5 -163
t-28 -204.5q0 -110 28 -204t82.5 -167.5t144.5 -115t206 -41.5z" />
    <glyph glyph-name="oe" unicode="&#x153;" horiz-adv-x="1990" 
d="M623 -25q-258 0 -399.5 152.5t-141.5 421.5q0 279 152.5 438.5t404.5 159.5q274 0 405 -166q135 164 410 164q455 0 455 -563v-99h-729q1 -84 23.5 -140.5t68.5 -88t105.5 -44.5t144.5 -13q56 0 150 13.5t161 31.5l45 -215q-149 -47 -395 -47q-324 0 -453 163
q-143 -168 -407 -168zM637 195q79 0 133.5 27.5t83.5 79.5t41 113.5t12 143.5q0 371 -274 371q-275 0 -275 -373q0 -362 279 -362zM1186 666h442q-2 132 -55 209t-150 77q-99 0 -163.5 -75t-73.5 -211z" />
    <glyph glyph-name="Racute" unicode="&#x154;" horiz-adv-x="1488" 
d="M481 1526l-43 184l514 150l52 -218zM188 0v1448h529q240 0 382 -115t142 -340q0 -127 -62 -230t-186 -163l457 -600h-354l-381 535q-51 -7 -105 -7h-141v-528h-281zM469 733h154q329 0 329 250q0 131 -65 187.5t-215 56.5h-203v-494z" />
    <glyph glyph-name="racute" unicode="&#x155;" horiz-adv-x="874" 
d="M360 1245l-81 164l448 254l96 -193zM152 0v1118h272v-149q48 68 127 120t174 52q86 0 145 -19l-39 -225q-64 12 -143 12t-151 -38t-113 -89v-782h-272z" />
    <glyph glyph-name="Rcommaaccent" unicode="&#x156;" horiz-adv-x="1488" 
d="M924 -121l-88 -436h-193l43 436h238zM188 0v1448h529q240 0 382 -115t142 -340q0 -127 -62 -230t-186 -163l457 -600h-354l-381 535q-51 -7 -105 -7h-141v-528h-281zM469 733h154q329 0 329 250q0 131 -65 187.5t-215 56.5h-203v-494z" />
    <glyph glyph-name="rcommaaccent" unicode="&#x157;" horiz-adv-x="874" 
d="M414 -121l-88 -436h-193l43 436h238zM152 0v1118h272v-149q48 68 127 120t174 52q86 0 145 -19l-39 -225q-64 12 -143 12t-151 -38t-113 -89v-782h-272z" />
    <glyph glyph-name="Rcaron" unicode="&#x158;" horiz-adv-x="1488" 
d="M1010 1700l-369 -180l-362 182l94 178l268 -123l270 121zM188 0v1448h529q240 0 382 -115t142 -340q0 -127 -62 -230t-186 -163l457 -600h-354l-381 535q-51 -7 -105 -7h-141v-528h-281zM469 733h154q329 0 329 250q0 131 -65 187.5t-215 56.5h-203v-494z" />
    <glyph glyph-name="rcaron" unicode="&#x159;" horiz-adv-x="874" 
d="M457 1247l-375 254l111 152l266 -180l264 180l119 -154zM152 0v1118h272v-149q48 68 127 120t174 52q86 0 145 -19l-39 -225q-64 12 -143 12t-151 -38t-113 -89v-782h-272z" />
    <glyph glyph-name="Sacute" unicode="&#x15a;" horiz-adv-x="1165" 
d="M524 -25q-254 0 -452 111l82 213q108 -46 187.5 -68t182.5 -22q130 0 208.5 49.5t78.5 140.5q0 45 -24 82t-64.5 63t-92.5 49t-110 46t-116 48t-110 60.5t-92.5 79t-64.5 107t-24 141.5q0 76 27 141t73.5 111t108.5 78.5t132.5 48.5t145.5 16q142 0 237 -25.5t179 -74.5
l-82 -207q-83 37 -157 55.5t-169 18.5q-98 0 -159.5 -44t-61.5 -120q0 -43 30.5 -80t80 -63t113 -54.5t130 -55t130 -65.5t113 -83.5t80 -111.5t30.5 -148q0 -109 -47.5 -194.5t-128 -137.5t-181 -78.5t-213.5 -26.5zM403 1526l-43 184l514 150l52 -218z" />
    <glyph glyph-name="sacute" unicode="&#x15b;" horiz-adv-x="987" 
d="M340 1245l-82 164l449 254l96 -193zM428 -25q-81 0 -180.5 13t-169.5 35l33 213q208 -37 323 -37q113 0 167 29.5t54 78.5q0 32 -24 57t-64 41.5t-90.5 35.5t-103 37t-103 47t-90.5 64.5t-64 91t-24 124.5q0 111 61.5 190t159.5 115.5t222 36.5q176 0 333 -60l-49 -202
q-141 43 -276 43q-92 0 -136.5 -27.5t-44.5 -73.5q0 -37 31 -65.5t80.5 -48.5t109 -40.5t119 -49.5t109 -66t80.5 -98t31 -140q0 -78 -31 -139t-80 -99t-115.5 -62.5t-132 -34t-135.5 -9.5z" />
    <glyph glyph-name="Scircumflex" unicode="&#x15c;" horiz-adv-x="1165" 
d="M524 -25q-254 0 -452 111l82 213q108 -46 187.5 -68t182.5 -22q130 0 208.5 49.5t78.5 140.5q0 45 -24 82t-64.5 63t-92.5 49t-110 46t-116 48t-110 60.5t-92.5 79t-64.5 107t-24 141.5q0 76 27 141t73.5 111t108.5 78.5t132.5 48.5t145.5 16q142 0 237 -25.5t179 -74.5
l-82 -207q-83 37 -157 55.5t-169 18.5q-98 0 -159.5 -44t-61.5 -120q0 -43 30.5 -80t80 -63t113 -54.5t130 -55t130 -65.5t113 -83.5t80 -111.5t30.5 -148q0 -109 -47.5 -194.5t-128 -137.5t-181 -78.5t-213.5 -26.5zM348 1526l-96 176l366 182l361 -180l-96 -178l-267 121z
" />
    <glyph glyph-name="scircumflex" unicode="&#x15d;" horiz-adv-x="987" 
d="M756 1257l-256 181l-264 -181l-119 154l385 252l368 -252zM428 -25q-81 0 -180.5 13t-169.5 35l33 213q208 -37 323 -37q113 0 167 29.5t54 78.5q0 32 -24 57t-64 41.5t-90.5 35.5t-103 37t-103 47t-90.5 64.5t-64 91t-24 124.5q0 111 61.5 190t159.5 115.5t222 36.5
q176 0 333 -60l-49 -202q-141 43 -276 43q-92 0 -136.5 -27.5t-44.5 -73.5q0 -37 31 -65.5t80.5 -48.5t109 -40.5t119 -49.5t109 -66t80.5 -98t31 -140q0 -78 -31 -139t-80 -99t-115.5 -62.5t-132 -34t-135.5 -9.5z" />
    <glyph glyph-name="Scedilla" unicode="&#x15e;" horiz-adv-x="1165" 
d="M524 -25q-254 0 -452 111l82 213q108 -46 187.5 -68t182.5 -22q130 0 208.5 49.5t78.5 140.5q0 45 -24 82t-64.5 63t-92.5 49t-110 46t-116 48t-110 60.5t-92.5 79t-64.5 107t-24 141.5q0 76 27 141t73.5 111t108.5 78.5t132.5 48.5t145.5 16q142 0 237 -25.5t179 -74.5
l-82 -207q-83 37 -157 55.5t-169 18.5q-98 0 -159.5 -44t-61.5 -120q0 -43 30.5 -80t80 -63t113 -54.5t130 -55t130 -65.5t113 -83.5t80 -111.5t30.5 -148q0 -109 -47.5 -194.5t-128 -137.5t-181 -78.5t-213.5 -26.5zM444 -547l-94 162q3 2 22 13.5t23.5 14.5t20.5 14
t21.5 16t17.5 15t16.5 17.5t11 17.5t9 20t2.5 21q0 39 -33 132h223q43 -88 43 -156q0 -167 -283 -287z" />
    <glyph glyph-name="scedilla" unicode="&#x15f;" horiz-adv-x="987" 
d="M428 -25q-81 0 -180.5 13t-169.5 35l33 213q208 -37 323 -37q113 0 167 29.5t54 78.5q0 32 -24 57t-64 41.5t-90.5 35.5t-103 37t-103 47t-90.5 64.5t-64 91t-24 124.5q0 111 61.5 190t159.5 115.5t222 36.5q176 0 333 -60l-49 -202q-141 43 -276 43q-92 0 -136.5 -27.5
t-44.5 -73.5q0 -37 31 -65.5t80.5 -48.5t109 -40.5t119 -49.5t109 -66t80.5 -98t31 -140q0 -78 -31 -139t-80 -99t-115.5 -62.5t-132 -34t-135.5 -9.5zM408 -547l-95 162q3 2 22 13.5t23.5 14.5t20.5 14t21.5 16t17.5 15t16.5 17.5t11 17.5t9 20t2.5 21q0 39 -33 132h223
q43 -88 43 -156q0 -167 -282 -287z" />
    <glyph glyph-name="Scaron" unicode="&#x160;" horiz-adv-x="1165" 
d="M944 1700l-369 -180l-362 182l94 178l268 -123l271 121zM524 -25q-254 0 -452 111l82 213q108 -46 187.5 -68t182.5 -22q130 0 208.5 49.5t78.5 140.5q0 45 -24 82t-64.5 63t-92.5 49t-110 46t-116 48t-110 60.5t-92.5 79t-64.5 107t-24 141.5q0 76 27 141t73.5 111
t108.5 78.5t132.5 48.5t145.5 16q142 0 237 -25.5t179 -74.5l-82 -207q-83 37 -157 55.5t-169 18.5q-98 0 -159.5 -44t-61.5 -120q0 -43 30.5 -80t80 -63t113 -54.5t130 -55t130 -65.5t113 -83.5t80 -111.5t30.5 -148q0 -109 -47.5 -194.5t-128 -137.5t-181 -78.5
t-213.5 -26.5z" />
    <glyph glyph-name="scaron" unicode="&#x161;" horiz-adv-x="987" 
d="M494 1247l-375 254l110 152l267 -180l264 180l119 -154zM428 -25q-81 0 -180.5 13t-169.5 35l33 213q208 -37 323 -37q113 0 167 29.5t54 78.5q0 32 -24 57t-64 41.5t-90.5 35.5t-103 37t-103 47t-90.5 64.5t-64 91t-24 124.5q0 111 61.5 190t159.5 115.5t222 36.5
q176 0 333 -60l-49 -202q-141 43 -276 43q-92 0 -136.5 -27.5t-44.5 -73.5q0 -37 31 -65.5t80.5 -48.5t109 -40.5t119 -49.5t109 -66t80.5 -98t31 -140q0 -78 -31 -139t-80 -99t-115.5 -62.5t-132 -34t-135.5 -9.5z" />
    <glyph glyph-name="Tcommaaccent" unicode="&#x162;" horiz-adv-x="1259" 
d="M752 -121l-88 -436h-193l43 436h238zM489 0v1225h-469v223h1219v-223h-469v-1225h-281z" />
    <glyph glyph-name="tcommaaccent" unicode="&#x163;" horiz-adv-x="925" 
d="M680 -121l-88 -436h-193l43 436h238zM584 -27q-184 0 -281.5 83t-97.5 278v575h-164v209h164v230h272v-230h346v-209h-346v-561q0 -81 35 -111t119 -30q96 0 221 33l31 -217q-60 -22 -144.5 -36t-154.5 -14z" />
    <glyph glyph-name="Tcaron" unicode="&#x164;" horiz-adv-x="1259" 
d="M993 1700l-368 -180l-363 182l94 178l269 -123l270 121zM489 0v1225h-469v223h1219v-223h-469v-1225h-281z" />
    <glyph glyph-name="tcaron" unicode="&#x165;" horiz-adv-x="925" 
d="M905 1653l-88 -436h-192l43 436h237zM584 -27q-184 0 -281.5 83t-97.5 278v575h-164v209h164v230h272v-230h346v-209h-346v-561q0 -81 35 -111t119 -30q96 0 221 33l31 -217q-60 -22 -144.5 -36t-154.5 -14z" />
    <glyph glyph-name="Tbar" unicode="&#x166;" horiz-adv-x="1259" 
d="M197 647v154h292v424h-469v223h1219v-223h-469v-424h293v-154h-293v-647h-281v647h-292z" />
    <glyph glyph-name="tbar" unicode="&#x167;" horiz-adv-x="925" 
d="M68 559v139h137v211h-164v209h164v230h272v-230h346v-209h-346v-211h254v-139h-254v-211q0 -81 35 -111t119 -30q96 0 221 33l31 -217q-60 -22 -144.5 -36t-154.5 -14q-184 0 -281.5 83t-97.5 278v225h-137z" />
    <glyph glyph-name="Utilde" unicode="&#x168;" horiz-adv-x="1597" 
d="M907 1546q-51 0 -135 38t-121 38q-78 0 -143 -53l-105 129q128 139 261 139q52 0 99 -19.5t84.5 -39t65.5 -19.5q47 0 79.5 12t80.5 41l94 -126q-122 -140 -260 -140zM803 -27q-99 0 -187 17t-172 59t-144.5 107t-97 167.5t-36.5 233.5v891h283v-879q0 -186 93 -274
t261 -88q356 0 356 407v834h277v-840q0 -119 -26 -216.5t-72 -165.5t-106 -118.5t-132.5 -79t-145.5 -42t-151 -13.5z" />
    <glyph glyph-name="utilde" unicode="&#x169;" horiz-adv-x="1300" 
d="M481 -25q-65 0 -116.5 13.5t-87 35t-61 56t-40 69.5t-22.5 83.5t-10.5 89t-2.5 94.5v702h273v-672q0 -129 34 -180t138 -51q147 0 293 88v815h272v-1118h-272v121q-45 -33 -77 -53t-83.5 -44.5t-110.5 -36.5t-127 -12zM760 1307q-52 0 -135.5 37.5t-122.5 37.5
q-40 0 -72 -11t-72 -44l-104 131q126 139 266 139q52 0 98.5 -19.5t85 -38.5t68.5 -19q45 0 80.5 13t83.5 42l94 -129q-23 -25 -40 -40t-54 -42.5t-82 -42t-94 -14.5z" />
    <glyph glyph-name="Umacron" unicode="&#x16a;" horiz-adv-x="1597" 
d="M485 1581v215h625v-215h-625zM803 -27q-99 0 -187 17t-172 59t-144.5 107t-97 167.5t-36.5 233.5v891h283v-879q0 -186 93 -274t261 -88q356 0 356 407v834h277v-840q0 -119 -26 -216.5t-72 -165.5t-106 -118.5t-132.5 -79t-145.5 -42t-151 -13.5z" />
    <glyph glyph-name="umacron" unicode="&#x16b;" horiz-adv-x="1300" 
d="M348 1341v215h625v-215h-625zM481 -25q-65 0 -116.5 13.5t-87 35t-61 56t-40 69.5t-22.5 83.5t-10.5 89t-2.5 94.5v702h273v-672q0 -129 34 -180t138 -51q147 0 293 88v815h272v-1118h-272v121q-45 -33 -77 -53t-83.5 -44.5t-110.5 -36.5t-127 -12z" />
    <glyph glyph-name="Ubreve" unicode="&#x16c;" horiz-adv-x="1597" 
d="M797 1542q-57 0 -109.5 13t-91.5 33.5t-73 48.5t-56.5 55t-40.5 57l143 125q120 -127 236 -127q124 0 229 125l135 -121q-19 -29 -41.5 -55t-57.5 -55.5t-73.5 -50t-90.5 -34.5t-109 -14zM803 -27q-99 0 -187 17t-172 59t-144.5 107t-97 167.5t-36.5 233.5v891h283v-879
q0 -186 93 -274t261 -88q356 0 356 407v834h277v-840q0 -119 -26 -216.5t-72 -165.5t-106 -118.5t-132.5 -79t-145.5 -42t-151 -13.5z" />
    <glyph glyph-name="ubreve" unicode="&#x16d;" horiz-adv-x="1300" 
d="M481 -25q-65 0 -116.5 13.5t-87 35t-61 56t-40 69.5t-22.5 83.5t-10.5 89t-2.5 94.5v702h273v-672q0 -129 34 -180t138 -51q147 0 293 88v815h272v-1118h-272v121q-45 -33 -77 -53t-83.5 -44.5t-110.5 -36.5t-127 -12zM641 1282q-57 0 -109.5 13t-91.5 33.5t-73 48.5
t-56.5 55t-40.5 57l144 123q121 -125 235 -125q125 0 230 125l135 -121q-24 -38 -55.5 -71t-77 -66t-107.5 -52.5t-133 -19.5z" />
    <glyph glyph-name="Uring" unicode="&#x16e;" horiz-adv-x="1597" 
d="M805 1456q-48 0 -89.5 11t-78.5 34.5t-58.5 66.5t-21.5 101q0 108 71 165.5t171 57.5q41 0 81.5 -11t79.5 -34.5t63 -68.5t24 -105q0 -105 -70 -161t-172 -56zM801 1567q52 0 80.5 27t31.5 77q0 46 -32.5 75.5t-79.5 29.5q-113 0 -113 -101q0 -49 31 -78.5t82 -29.5z
M803 -27q-99 0 -187 17t-172 59t-144.5 107t-97 167.5t-36.5 233.5v891h283v-879q0 -186 93 -274t261 -88q356 0 356 407v834h277v-840q0 -119 -26 -216.5t-72 -165.5t-106 -118.5t-132.5 -79t-145.5 -42t-151 -13.5z" />
    <glyph glyph-name="uring" unicode="&#x16f;" horiz-adv-x="1300" 
d="M649 1223q-53 0 -99.5 12t-87.5 37.5t-65 73t-24 112.5q0 120 80.5 185t189.5 65q46 0 91 -12.5t88.5 -39t70.5 -77t27 -117.5q0 -117 -78 -178t-193 -61zM645 1343q58 0 90 31t35 86q0 53 -35.5 85t-89.5 32q-125 0 -125 -113q0 -55 34 -88t91 -33zM481 -25
q-65 0 -116.5 13.5t-87 35t-61 56t-40 69.5t-22.5 83.5t-10.5 89t-2.5 94.5v702h273v-672q0 -129 34 -180t138 -51q147 0 293 88v815h272v-1118h-272v121q-45 -33 -77 -53t-83.5 -44.5t-110.5 -36.5t-127 -12z" />
    <glyph glyph-name="Uhungarumlaut" unicode="&#x170;" horiz-adv-x="1597" 
d="M803 -27q-99 0 -187 17t-172 59t-144.5 107t-97 167.5t-36.5 233.5v891h283v-879q0 -186 93 -274t261 -88q356 0 356 407v834h277v-840q0 -119 -26 -216.5t-72 -165.5t-106 -118.5t-132.5 -79t-145.5 -42t-151 -13.5zM870 1798l-442 -289l-113 160l422 316zM1434 1624
l-519 -108l-43 188l508 141z" />
    <glyph glyph-name="uhungarumlaut" unicode="&#x171;" horiz-adv-x="1300" 
d="M481 -25q-65 0 -116.5 13.5t-87 35t-61 56t-40 69.5t-22.5 83.5t-10.5 89t-2.5 94.5v702h273v-672q0 -129 34 -180t138 -51q147 0 293 88v815h272v-1118h-272v121q-45 -33 -77 -53t-83.5 -44.5t-110.5 -36.5t-127 -12zM319 1233l-116 139l383 340l139 -166zM778 1235
l-82 160l449 252l98 -191z" />
    <glyph glyph-name="Uogonek" unicode="&#x172;" horiz-adv-x="1597" 
d="M1077 -457q-92 -53 -211 -53q-130 0 -211.5 68t-81.5 184q0 122 123 238q-86 8 -161 31.5t-144 68.5t-118 109t-78 158t-29 210v891h283v-879q0 -186 93 -274t261 -88q356 0 356 407v834h277v-840q0 -112 -24 -206t-64 -160.5t-97 -117t-119.5 -81t-134.5 -47.5
q-186 -110 -186 -217q0 -45 28.5 -70.5t69.5 -25.5q61 0 119 30z" />
    <glyph glyph-name="uogonek" unicode="&#x173;" horiz-adv-x="1300" 
d="M1165 -283l47 -174q-111 -51 -231 -51q-149 0 -218 56.5t-69 166.5q0 124 185 275v131q-41 -29 -71 -47.5t-83 -46t-110 -42t-113 -14.5q-71 0 -126.5 13t-93 33.5t-64.5 55.5t-41.5 69t-23 83.5t-10.5 89.5t-2 97v706h273v-676q0 -66 6 -105t24.5 -69.5t53 -42.5
t90.5 -12q127 0 291 90v815h272v-1118q-223 -138 -223 -236q0 -36 26.5 -53.5t67.5 -17.5q61 0 143 24z" />
    <glyph glyph-name="Wcircumflex" unicode="&#x174;" horiz-adv-x="2162" 
d="M815 1526l-96 176l366 182l361 -180l-96 -178l-267 121zM2142 1448l-426 -1448h-377l-258 1065l-293 -1065h-380l-347 1448h289l264 -1274l355 1274h260l307 -1266l326 1264z" />
    <glyph glyph-name="wcircumflex" unicode="&#x175;" horiz-adv-x="1841" 
d="M1188 1257l-256 181l-264 -181l-119 154l385 252l369 -252zM348 0l-309 1118h287l198 -901l242 901h330l209 -901l239 901h279l-353 -1118h-344l-165 688l-37 174l-41 -172l-189 -690h-346z" />
    <glyph glyph-name="Ycircumflex" unicode="&#x176;" horiz-adv-x="1355" 
d="M535 0v498l-512 950h321l340 -713l363 713h311l-545 -944v-504h-278zM420 1526l-96 176l366 182l361 -180l-97 -178l-266 121z" />
    <glyph glyph-name="ycircumflex" unicode="&#x177;" horiz-adv-x="1155" 
d="M836 1257l-256 181l-265 -181l-118 154l385 252l368 -252zM340 -451l154 451h-107l-375 1118h295l211 -715l53 -188l60 186l241 717h277l-547 -1569h-262z" />
    <glyph glyph-name="Ydieresis" unicode="&#x178;" horiz-adv-x="1355" 
d="M535 0v498l-512 950h321l340 -713l363 713h311l-545 -944v-504h-278zM559 1565h-260v260h260v-260zM1055 1565h-258v260h258v-260z" />
    <glyph glyph-name="Zacute" unicode="&#x179;" horiz-adv-x="1236" 
d="M449 1526l-43 184l514 150l51 -218zM74 0v201l704 1013h-651v234h989v-186l-713 -1029h756v-233h-1085z" />
    <glyph glyph-name="zacute" unicode="&#x17a;" horiz-adv-x="1060" 
d="M373 1245l-82 164l448 254l97 -193zM72 0v190l575 705h-534v223h856v-184l-572 -713h580v-221h-905z" />
    <glyph glyph-name="Zdotaccent" unicode="&#x17b;" horiz-adv-x="1236" 
d="M492 1587v262h274v-262h-274zM74 0v201l704 1013h-651v234h989v-186l-713 -1029h756v-233h-1085z" />
    <glyph glyph-name="zdotaccent" unicode="&#x17c;" horiz-adv-x="1060" 
d="M72 0v190l575 705h-534v223h856v-184l-572 -713h580v-221h-905zM426 1337v262h272v-262h-272z" />
    <glyph glyph-name="Zcaron" unicode="&#x17d;" horiz-adv-x="1236" 
d="M977 1700l-369 -180l-362 182l94 178l268 -123l271 121zM74 0v201l704 1013h-651v234h989v-186l-713 -1029h756v-233h-1085z" />
    <glyph glyph-name="zcaron" unicode="&#x17e;" horiz-adv-x="1060" 
d="M518 1247l-375 254l111 152l266 -180l264 180l119 -154zM72 0v190l575 705h-534v223h856v-184l-572 -713h580v-221h-905z" />
    <glyph glyph-name="uni018E" unicode="&#x18e;" horiz-adv-x="1202" 
d="M1016 1448v-1448h-899v221h618v402h-542v208h542v396h-616v221h897z" />
    <glyph glyph-name="uni018F" unicode="&#x18f;" horiz-adv-x="1597" 
d="M774 -25q-174 0 -305.5 50t-214 144.5t-125 223.5t-47.5 295v137h1128q-23 192 -140.5 307t-319.5 115q-251 0 -486 -125l-104 187q261 161 628 161q174 -1 311 -57t224 -157t132.5 -236t45.5 -297q0 -230 -80.5 -396.5t-245.5 -259t-401 -92.5zM780 199q89 0 159 21
t116.5 58t79 92.5t49.5 117.5t26 141h-839q11 -96 36.5 -170t71.5 -134.5t122 -93t179 -32.5z" />
    <glyph glyph-name="florin" unicode="&#x192;" 
d="M158 -465l-8 229q15 1 48 2.5t49 2.5t46 4.5t46 7.5t40 12t38 18t30.5 26t25.5 35.5t16 46t9 58.5l24 498h-205v225h222l18 316q5 81 26 145.5t52.5 110t78.5 78.5t96.5 53t114.5 31.5t124 15.5t133 4l18 -235q-18 -1 -56 -3.5t-58 -4.5t-53.5 -6.5t-53 -10.5t-45.5 -16
t-41.5 -25t-31 -34.5t-23 -47t-9.5 -61.5l-16 -310h221v-225h-235l-27 -502q-13 -237 -157 -337.5t-457 -100.5z" />
    <glyph glyph-name="Ohorn" unicode="&#x1a0;" horiz-adv-x="1742" 
d="M834 -25q-357 0 -548.5 201.5t-191.5 550.5q0 341 209 542t565 201q237 0 406 -94q90 50 90 166q0 50 -18 113h235q25 -61 25 -144q0 -94 -42 -166.5t-112 -117.5q156 -197 156 -504q0 -346 -202.5 -547t-571.5 -201zM840 199q101 0 182 26.5t137 73t93 113t54 144.5
t17 169q0 234 -120 378t-349 144q-121 0 -214 -39t-149.5 -109.5t-85 -163.5t-28.5 -206q0 -111 27.5 -205t82.5 -168t145.5 -115.5t207.5 -41.5z" />
    <glyph glyph-name="ohorn" unicode="&#x1a1;" horiz-adv-x="1310" 
d="M623 -25q-258 0 -399.5 152.5t-141.5 421.5q0 280 152.5 439t408.5 159q166 0 283 -60q52 17 71 54t19 92q0 42 -17 98h242q23 -53 23 -127q0 -90 -44 -162.5t-118 -117.5q84 -144 84 -363q0 -283 -155 -434.5t-408 -151.5zM637 195q79 0 133.5 27.5t83.5 79t41 113
t12 142.5q0 373 -272 373q-277 0 -277 -373q0 -362 279 -362z" />
    <glyph glyph-name="Uhorn" unicode="&#x1af;" horiz-adv-x="1671" 
d="M803 -27q-99 0 -187 17t-172 59t-144.5 107t-97 167.5t-36.5 233.5v891h283v-879q0 -186 93 -274t261 -88q356 0 356 407v834h168q63 16 85 54.5t22 101.5q0 38 -19 104h234q24 -58 24 -137q0 -120 -66 -203.5t-171 -112.5v-647q0 -119 -26 -216.5t-72 -165.5
t-106 -118.5t-132.5 -79t-145.5 -42t-151 -13.5z" />
    <glyph glyph-name="uhorn" unicode="&#x1b0;" horiz-adv-x="1372" 
d="M481 -25q-65 0 -116.5 13.5t-87 35t-61 56t-40 69.5t-22.5 83.5t-10.5 89t-2.5 94.5v702h273v-672q0 -129 34 -180t138 -51q147 0 293 88v815h174q60 14 80 49t20 95q0 39 -18 98h241q23 -53 23 -127q0 -115 -70.5 -198.5t-177.5 -114.5v-920h-272v121q-45 -33 -77 -53
t-83.5 -44.5t-110.5 -36.5t-127 -12z" />
    <glyph glyph-name="uni01C4" unicode="&#x1c4;" horiz-adv-x="2805" 
d="M2560 1700l-369 -180l-362 182l94 178l268 -123l271 121zM1642 0v201l705 1013h-651v234h989v-186l-713 -1029h756v-233h-1086zM188 0v1448h469q149 0 274.5 -26.5t229.5 -82.5t176.5 -139.5t112 -203t39.5 -267.5q0 -186 -56 -326t-163.5 -228t-257 -131.5t-342.5 -43.5
h-482zM467 221h225q516 0 516 488q0 259 -141.5 388.5t-415.5 129.5h-184v-1006z" />
    <glyph glyph-name="uni01C5" unicode="&#x1c5;" horiz-adv-x="2654" 
d="M2138 1245l-375 254l111 152l266 -181l264 181l119 -154zM1663 0v190l575 705h-534v223h856v-184l-571 -713h579v-221h-905zM188 0v1448h469q149 0 274.5 -26.5t229.5 -82.5t176.5 -139.5t112 -203t39.5 -267.5q0 -186 -56 -326t-163.5 -228t-257 -131.5t-342.5 -43.5
h-482zM467 221h225q516 0 516 488q0 259 -141.5 388.5t-415.5 129.5h-184v-1006z" />
    <glyph glyph-name="uni01C6" unicode="&#x1c6;" horiz-adv-x="2338" 
d="M1827 1247l-375 254l111 152l266 -180l264 180l119 -154zM1350 0v190l575 705h-534v223h856v-184l-572 -713h580v-221h-905zM565 -18q-66 0 -129 15t-128.5 54.5t-113.5 100.5t-79 162t-31 229q0 156 44.5 273.5t124.5 189t184.5 106.5t232.5 35q67 0 170 -19v416h272
v-1544h-272v90q-32 -26 -50.5 -39t-54 -32.5t-77.5 -28t-93 -8.5zM616 209q101 0 224 72v626q-4 1 -24 5.5t-38 8t-47 6.5t-57 3q-85 0 -147.5 -27.5t-98.5 -78.5t-53 -116.5t-17 -148.5q0 -183 71.5 -266.5t186.5 -83.5z" />
    <glyph glyph-name="uni01C7" unicode="&#x1c7;" horiz-adv-x="1773" 
d="M1116 -397l-106 202q93 51 150.5 100t90.5 110t44.5 128t11.5 166v1139h282v-1135q0 -71 -3.5 -126t-15.5 -118t-33 -113t-56.5 -102.5t-84.5 -95t-120 -83t-160 -72.5zM188 0v1448h279v-1223h629v-225h-908z" />
    <glyph glyph-name="uni01C8" unicode="&#x1c8;" horiz-adv-x="1708" 
d="M1133 -461q-53 0 -114.5 13t-103.5 32l50 215q76 -26 159 -26q88 0 124 50.5t36 166.5v1128h272v-1130q0 -107 -22.5 -187.5t-60.5 -129.5t-94 -79.5t-114.5 -41.5t-131.5 -11zM188 0v1448h279v-1223h629v-225h-908zM1280 1337v262h272v-262h-272z" />
    <glyph glyph-name="uni01C9" unicode="&#x1c9;" horiz-adv-x="1173" 
d="M598 -461q-53 0 -114 13t-103 32l49 215q76 -26 160 -26q88 0 124 50.5t36 166.5v1128h272v-1130q0 -107 -23 -187.5t-60.5 -129.5t-93.5 -79.5t-115 -41.5t-132 -11zM152 0v1544h272v-1544h-272zM748 1337v262h272v-262h-272z" />
    <glyph glyph-name="uni01CA" unicode="&#x1ca;" horiz-adv-x="2273" 
d="M1614 -397l-107 202q93 51 150.5 100t90.5 110t44.5 128t11.5 166v1139h283v-1135q0 -71 -3.5 -126t-15.5 -118t-33 -113t-56.5 -102.5t-84.5 -95t-120 -83t-160 -72.5zM188 0v1448h332l639 -1094h4l-8 170v924h281v-1448h-344l-625 1071h-8l8 -176v-895h-279z" />
    <glyph glyph-name="uni01CB" unicode="&#x1cb;" horiz-adv-x="2205" 
d="M1630 -461q-53 0 -114 13t-103 32l49 215q76 -26 160 -26q88 0 124 50.5t36 166.5v1128h272v-1130q0 -107 -23 -187.5t-60.5 -129.5t-93.5 -79.5t-115 -41.5t-132 -11zM1780 1337v262h272v-262h-272zM188 0v1448h332l639 -1094h4l-8 170v924h281v-1448h-344l-625 1071h-8
l8 -176v-895h-279z" />
    <glyph glyph-name="uni01CC" unicode="&#x1cc;" horiz-adv-x="1906" 
d="M1331 -461q-53 0 -114 13t-103 32l49 215q76 -26 160 -26q88 0 124 50.5t36 166.5v1128h272v-1130q0 -107 -23 -187.5t-60.5 -129.5t-93.5 -79.5t-115 -41.5t-132 -11zM1481 1337v262h272v-262h-272zM152 0v1118h272v-119q69 49 115.5 76t121.5 49.5t158 22.5
q66 0 118 -13t88 -34.5t61.5 -56t40 -69t23 -82.5t11 -88.5t2.5 -94.5v-709h-270v678q0 131 -36 181t-138 50q-139 0 -295 -88v-821h-272z" />
    <glyph glyph-name="uni01CD" unicode="&#x1cd;" horiz-adv-x="1433" 
d="M-18 0l571 1448h362l502 -1448h-293l-157 469h-523l-178 -469h-284zM522 676h375l-174 594zM1092 1700l-369 -180l-363 182l95 178l268 -123l270 121z" />
    <glyph glyph-name="uni01CE" unicode="&#x1ce;" horiz-adv-x="1183" 
d="M420 -18q-160 0 -256 85t-96 240q0 340 460 344l222 2v97q0 93 -52.5 128t-171.5 35q-158 0 -323 -51l-56 201q206 82 428 82q225 0 333 -79t108 -255v-543q0 -38 28.5 -52.5t79.5 -16.5l-10 -207q-20 -2 -53 -2q-253 0 -287 127q-79 -62 -161 -98.5t-193 -36.5zM498 195
q114 0 252 71v221l-207 -8q-97 -2 -153 -40.5t-56 -110.5q0 -66 45.5 -99.5t118.5 -33.5zM588 1245l-375 254l111 152l266 -181l264 181l119 -154z" />
    <glyph glyph-name="uni01CF" unicode="&#x1cf;" horiz-adv-x="655" 
d="M188 0v1448h279v-1448h-279zM692 1700l-368 -180l-363 182l94 178l269 -123l270 121z" />
    <glyph glyph-name="uni01D0" unicode="&#x1d0;" horiz-adv-x="575" 
d="M285 1245l-375 254l110 152l267 -181l264 181l119 -154zM152 0v1118h274v-1118h-274z" />
    <glyph glyph-name="uni01D1" unicode="&#x1d1;" horiz-adv-x="1701" 
d="M1227 1700l-369 -180l-362 182l94 178l268 -123l270 121zM834 -25q-357 0 -548.5 201.5t-191.5 550.5q0 341 209 542t565 201q185 0 327.5 -56t232 -157.5t135 -236t45.5 -297.5q0 -346 -202.5 -547t-571.5 -201zM840 199q101 0 182 26.5t137 73t93 113t54 144.5t17 169
q0 234 -120 378t-349 144q-121 0 -214 -39t-149.5 -109.5t-85 -163.5t-28.5 -206q0 -111 27.5 -205t82.5 -168t145.5 -115.5t207.5 -41.5z" />
    <glyph glyph-name="uni01D2" unicode="&#x1d2;" horiz-adv-x="1267" 
d="M629 1245l-375 254l111 152l266 -181l264 181l119 -154zM623 -25q-258 0 -399.5 152.5t-141.5 421.5q0 280 152.5 439t408.5 159q270 0 406.5 -152.5t136.5 -433.5q0 -283 -155 -434.5t-408 -151.5zM637 195q79 0 133.5 27.5t83.5 79t41 113t12 142.5q0 373 -272 373
q-277 0 -277 -373q0 -362 279 -362z" />
    <glyph glyph-name="uni01D3" unicode="&#x1d3;" horiz-adv-x="1597" 
d="M1169 1700l-368 -180l-363 182l94 178l269 -123l270 121zM803 -27q-99 0 -187 17t-172 59t-144.5 107t-97 167.5t-36.5 233.5v891h283v-879q0 -186 93 -274t261 -88q356 0 356 407v834h277v-840q0 -119 -26 -216.5t-72 -165.5t-106 -118.5t-132.5 -79t-145.5 -42
t-151 -13.5z" />
    <glyph glyph-name="uni01D4" unicode="&#x1d4;" horiz-adv-x="1300" 
d="M647 1247l-375 254l111 152l266 -180l264 180l119 -154zM481 -25q-65 0 -116.5 13.5t-87 35t-61 56t-40 69.5t-22.5 83.5t-10.5 89t-2.5 94.5v702h273v-672q0 -129 34 -180t138 -51q147 0 293 88v815h272v-1118h-272v121q-45 -33 -77 -53t-83.5 -44.5t-110.5 -36.5
t-127 -12z" />
    <glyph glyph-name="uni01D5" unicode="&#x1d5;" horiz-adv-x="1597" 
d="M684 1538h-260v260h260v-260zM1180 1538h-258v260h258v-260zM803 -27q-99 0 -187 17t-172 59t-144.5 107t-97 167.5t-36.5 233.5v891h283v-879q0 -186 93 -274t261 -88q356 0 356 407v834h277v-840q0 -119 -26 -216.5t-72 -165.5t-106 -118.5t-132.5 -79t-145.5 -42
t-151 -13.5zM473 1878v215h647v-215h-647z" />
    <glyph glyph-name="uni01D6" unicode="&#x1d6;" horiz-adv-x="1300" 
d="M518 1276h-260v262h260v-262zM1028 1276h-258v262h258v-262zM322 1634v215h647v-215h-647zM481 -25q-65 0 -116.5 13.5t-87 35t-61 56t-40 69.5t-22.5 83.5t-10.5 89t-2.5 94.5v702h273v-672q0 -129 34 -180t138 -51q147 0 293 88v815h272v-1118h-272v121
q-45 -33 -77 -53t-83.5 -44.5t-110.5 -36.5t-127 -12z" />
    <glyph glyph-name="uni01D7" unicode="&#x1d7;" horiz-adv-x="1597" 
d="M684 1538h-260v260h260v-260zM1180 1538h-258v260h258v-260zM698 1817l-43 184l514 149l52 -217zM803 -27q-99 0 -187 17t-172 59t-144.5 107t-97 167.5t-36.5 233.5v891h283v-879q0 -186 93 -274t261 -88q356 0 356 407v834h277v-840q0 -119 -26 -216.5t-72 -165.5
t-106 -118.5t-132.5 -79t-145.5 -42t-151 -13.5z" />
    <glyph glyph-name="uni01D8" unicode="&#x1d8;" horiz-adv-x="1300" 
d="M518 1276h-260v262h260v-262zM1028 1276h-258v262h258v-262zM596 1552l-82 164l449 254l96 -192zM481 -25q-65 0 -116.5 13.5t-87 35t-61 56t-40 69.5t-22.5 83.5t-10.5 89t-2.5 94.5v702h273v-672q0 -129 34 -180t138 -51q147 0 293 88v815h272v-1118h-272v121
q-45 -33 -77 -53t-83.5 -44.5t-110.5 -36.5t-127 -12z" />
    <glyph glyph-name="uni01D9" unicode="&#x1d9;" horiz-adv-x="1597" 
d="M684 1538h-260v260h260v-260zM1180 1538h-258v260h258v-260zM803 -27q-99 0 -187 17t-172 59t-144.5 107t-97 167.5t-36.5 233.5v891h283v-879q0 -186 93 -274t261 -88q356 0 356 407v834h277v-840q0 -119 -26 -216.5t-72 -165.5t-106 -118.5t-132.5 -79t-145.5 -42
t-151 -13.5zM1169 1989l-368 -181l-363 183l94 178l269 -123l270 121z" />
    <glyph glyph-name="uni01DA" unicode="&#x1da;" horiz-adv-x="1300" 
d="M518 1276h-260v262h260v-262zM1028 1276h-258v262h258v-262zM481 -25q-65 0 -116.5 13.5t-87 35t-61 56t-40 69.5t-22.5 83.5t-10.5 89t-2.5 94.5v702h273v-672q0 -129 34 -180t138 -51q147 0 293 88v815h272v-1118h-272v121q-45 -33 -77 -53t-83.5 -44.5t-110.5 -36.5
t-127 -12zM639 1542l-371 242l111 153l262 -170l262 170l119 -151z" />
    <glyph glyph-name="uni01DB" unicode="&#x1db;" horiz-adv-x="1597" 
d="M877 1825l-525 112l51 220l517 -148zM684 1538h-260v260h260v-260zM1180 1538h-258v260h258v-260zM803 -27q-99 0 -187 17t-172 59t-144.5 107t-97 167.5t-36.5 233.5v891h283v-879q0 -186 93 -274t261 -88q356 0 356 407v834h277v-840q0 -119 -26 -216.5t-72 -165.5
t-106 -118.5t-132.5 -79t-145.5 -42t-151 -13.5z" />
    <glyph glyph-name="uni01DC" unicode="&#x1dc;" horiz-adv-x="1300" 
d="M518 1276h-260v262h260v-262zM1028 1276h-258v262h258v-262zM481 -25q-65 0 -116.5 13.5t-87 35t-61 56t-40 69.5t-22.5 83.5t-10.5 89t-2.5 94.5v702h273v-672q0 -129 34 -180t138 -51q147 0 293 88v815h272v-1118h-272v121q-45 -33 -77 -53t-83.5 -44.5t-110.5 -36.5
t-127 -12zM721 1534l-459 227l94 195l451 -256z" />
    <glyph glyph-name="uni01DD" unicode="&#x1dd;" horiz-adv-x="1169" 
d="M508 1145q110 0 195.5 -16.5t158.5 -56t120.5 -103.5t74 -161.5t26.5 -227.5q0 -134 -26.5 -237.5t-73.5 -172.5t-116 -113t-149.5 -63t-178.5 -19q-457 0 -457 566v98h729q-1 88 -27 147t-76.5 88.5t-108.5 40.5t-140 11q-119 0 -303 -47l-43 206q178 60 395 60z
M803 457h-441q-2 -131 50 -208t151 -77q105 0 169 74t71 211z" />
    <glyph glyph-name="uni01E2" unicode="&#x1e2;" horiz-adv-x="1951" 
d="M879 1581v215h624v-215h-624zM-41 0l713 1448h1136v-221h-618v-396h573v-208h-573v-402h665v-221h-944v553h-381l-256 -553h-315zM621 762h290v465h-75z" />
    <glyph glyph-name="uni01E3" unicode="&#x1e3;" horiz-adv-x="1828" 
d="M608 1341v215h625v-215h-625zM1323 -18q-346 0 -481 180q-32 -28 -70 -54.5t-93 -56.5t-121.5 -48.5t-131.5 -18.5q-173 0 -265.5 82t-92.5 243q0 59 15 107.5t39.5 82t61.5 59t75.5 40.5t87.5 24.5t90 13.5t91 5q179 6 222 6v115q0 93 -52.5 122t-183.5 29
q-25 0 -55.5 -2.5t-53 -5.5t-57.5 -10l-50 -10t-52 -11.5t-43 -9.5l-56 201q216 80 416 80q133 0 226 -22.5t151 -88.5q128 111 354 111q232 0 343.5 -144.5t111.5 -410.5v-90l-731 -21q1 -71 19 -122t47.5 -81t77 -48t96 -23.5t114.5 -5.5q98 0 303 41l39 -203
q-167 -55 -391 -55zM475 195q55 0 143.5 26.5t163.5 61.5q-22 70 -32 188l-205 -4q-211 -5 -211 -141q0 -67 38 -99t103 -32zM1028 664l438 18q3 121 -52 192.5t-144 71.5q-100 0 -169.5 -70t-72.5 -212z" />
    <glyph glyph-name="uni01E6" unicode="&#x1e6;" horiz-adv-x="1454" 
d="M1196 1700l-369 -180l-362 182l94 178l268 -123l271 121zM879 -23q-365 0 -574 190.5t-209 547.5q0 371 201.5 562t583.5 191q144 0 239 -21.5t189 -62.5l-76 -208q-78 23 -113.5 32t-100.5 18t-140 9q-106 0 -193.5 -28.5t-156.5 -86.5t-107.5 -156.5t-38.5 -228.5
q0 -132 41 -233.5t114 -163t166.5 -92.5t204.5 -31q70 0 148 12v488h278v-658q-214 -80 -456 -80z" />
    <glyph glyph-name="uni01E7" unicode="&#x1e7;" horiz-adv-x="1224" 
d="M539 395q-95 0 -177 23q-32 -46 -32 -86q0 -32 22.5 -52t61.5 -20h229q449 0 449 -311q0 -87 -36 -162t-105 -133t-180 -91.5t-251 -33.5q-218 0 -336 77.5t-118 211.5q0 76 36.5 146t104.5 116q-82 58 -82 158q0 60 31 120.5t90 108.5q-148 91 -148 276
q0 173 122.5 287.5t332.5 114.5q160 0 274 -66l344 19v-199h-182q23 -103 23 -147q0 -163 -134 -260t-339 -97zM657 37h-280q-37 0 -53 2q-58 -64 -58 -139q0 -76 67 -120t208 -44q146 0 234.5 51t88.5 129q0 57 -53 89t-154 32zM571 1245l-374 254l110 152l266 -181
l265 181l118 -154zM549 563q99 0 157 55.5t58 143.5t-55.5 145.5t-153.5 57.5q-97 0 -154 -57t-57 -150q0 -90 55.5 -142.5t149.5 -52.5z" />
    <glyph glyph-name="uni01E8" unicode="&#x1e8;" horiz-adv-x="1406" 
d="M188 0v1448h279v-662l547 662h356l-592 -674l627 -774h-358l-580 766v-766h-279zM1094 1700l-369 -180l-363 182l95 178l268 -123l270 121z" />
    <glyph glyph-name="uni01E9" unicode="&#x1e9;" horiz-adv-x="1177" 
d="M154 0v1544h272v-909l387 483h299l-432 -518l475 -600h-338l-391 539v-539h-272zM1010 1700l-369 -180l-362 182l94 178l268 -123l270 121z" />
    <glyph glyph-name="uni01EA" unicode="&#x1ea;" horiz-adv-x="1701" 
d="M1135 -457q-92 -53 -211 -53q-130 0 -211.5 68t-81.5 184q0 122 123 238q-320 21 -490 219t-170 528q0 341 209 542t565 201q185 0 327.5 -56t232 -157.5t135 -236t45.5 -297.5q0 -288 -143 -478t-408 -247q-82 -49 -135.5 -105.5t-53.5 -113.5q0 -45 29 -70.5t70 -25.5
q60 0 118 30zM840 199q101 0 182 26.5t137 73t93 113t54 144.5t17 169q0 234 -120 378t-349 144q-121 0 -214 -39t-149.5 -109.5t-85 -163.5t-28.5 -206q0 -111 27.5 -205t82.5 -168t145.5 -115.5t207.5 -41.5z" />
    <glyph glyph-name="uni01EB" unicode="&#x1eb;" horiz-adv-x="1267" 
d="M893 -457q-92 -53 -211 -53q-130 0 -211.5 68t-81.5 184q0 125 127 242q-210 29 -322 176.5t-112 388.5q0 280 152.5 439t408.5 159q270 0 406.5 -152.5t136.5 -433.5q0 -219 -96 -361t-263 -196q-86 -49 -143 -107.5t-57 -117.5q0 -45 28.5 -70.5t69.5 -25.5
q61 0 119 30zM637 195q79 0 133.5 27.5t83.5 79t41 113t12 142.5q0 373 -272 373q-277 0 -277 -373q0 -362 279 -362z" />
    <glyph glyph-name="uni01EC" unicode="&#x1ec;" horiz-adv-x="1701" 
d="M1135 -457q-92 -53 -211 -53q-130 0 -211.5 68t-81.5 184q0 122 123 238q-320 21 -490 219t-170 528q0 341 209 542t565 201q185 0 327.5 -56t232 -157.5t135 -236t45.5 -297.5q0 -288 -143 -478t-408 -247q-82 -49 -135.5 -105.5t-53.5 -113.5q0 -45 29 -70.5t70 -25.5
q60 0 118 30zM840 199q101 0 182 26.5t137 73t93 113t54 144.5t17 169q0 234 -120 378t-349 144q-121 0 -214 -39t-149.5 -109.5t-85 -163.5t-28.5 -206q0 -111 27.5 -205t82.5 -168t145.5 -115.5t207.5 -41.5zM528 1581v215h625v-215h-625z" />
    <glyph glyph-name="uni01ED" unicode="&#x1ed;" horiz-adv-x="1267" 
d="M893 -457q-92 -53 -211 -53q-130 0 -211.5 68t-81.5 184q0 125 127 242q-210 29 -322 176.5t-112 388.5q0 280 152.5 439t408.5 159q270 0 406.5 -152.5t136.5 -433.5q0 -219 -96 -361t-263 -196q-86 -49 -143 -107.5t-57 -117.5q0 -45 28.5 -70.5t69.5 -25.5
q61 0 119 30zM637 195q79 0 133.5 27.5t83.5 79t41 113t12 142.5q0 373 -272 373q-277 0 -277 -373q0 -362 279 -362zM313 1339v215h625v-215h-625z" />
    <glyph glyph-name="uni01EE" unicode="&#x1ee;" horiz-adv-x="1134" 
d="M913 1700l-368 -180l-363 182l94 178l269 -123l270 121zM330 819l348 395h-578v234h893v-186l-395 -441q90 -14 167 -44.5t139 -78.5t97 -119.5t35 -158.5q0 -92 -30.5 -167t-83 -126t-123.5 -86t-149 -50.5t-163 -15.5q-152 0 -263 25t-146 47l57 221q69 -25 162.5 -43
t179.5 -18q281 0 281 211q0 207 -314 223q-27 2 -79 2z" />
    <glyph glyph-name="uni01EF" unicode="&#x1ef;" horiz-adv-x="1017" 
d="M244 313v193l370 389h-553v223h854v-184l-411 -440q90 -16 167 -49t139 -82.5t98 -122t36 -158.5q0 -97 -46.5 -183t-124.5 -149t-178.5 -110.5t-210 -73.5t-218.5 -31l-43 211q246 31 394.5 113.5t148.5 212.5q0 61 -38 108t-101.5 74.5t-134.5 42t-148 16.5zM485 1245
l-374 254l110 152l266 -181l265 181l118 -154z" />
    <glyph glyph-name="uni01F1" unicode="&#x1f1;" horiz-adv-x="2805" 
d="M1642 0v201l705 1013h-651v234h989v-186l-713 -1029h756v-233h-1086zM188 0v1448h469q149 0 274.5 -26.5t229.5 -82.5t176.5 -139.5t112 -203t39.5 -267.5q0 -186 -56 -326t-163.5 -228t-257 -131.5t-342.5 -43.5h-482zM467 221h225q516 0 516 488q0 259 -141.5 388.5
t-415.5 129.5h-184v-1006z" />
    <glyph glyph-name="uni01F2" unicode="&#x1f2;" horiz-adv-x="2654" 
d="M1663 0v190l575 705h-534v223h856v-184l-571 -713h579v-221h-905zM188 0v1448h469q149 0 274.5 -26.5t229.5 -82.5t176.5 -139.5t112 -203t39.5 -267.5q0 -186 -56 -326t-163.5 -228t-257 -131.5t-342.5 -43.5h-482zM467 221h225q516 0 516 488q0 259 -141.5 388.5
t-415.5 129.5h-184v-1006z" />
    <glyph glyph-name="uni01F3" unicode="&#x1f3;" horiz-adv-x="2338" 
d="M1350 0v190l575 705h-534v223h856v-184l-572 -713h580v-221h-905zM565 -18q-66 0 -129 15t-128.5 54.5t-113.5 100.5t-79 162t-31 229q0 156 44.5 273.5t124.5 189t184.5 106.5t232.5 35q67 0 170 -19v416h272v-1544h-272v90q-32 -26 -50.5 -39t-54 -32.5t-77.5 -28
t-93 -8.5zM616 209q101 0 224 72v626q-4 1 -24 5.5t-38 8t-47 6.5t-57 3q-85 0 -147.5 -27.5t-98.5 -78.5t-53 -116.5t-17 -148.5q0 -183 71.5 -266.5t186.5 -83.5z" />
    <glyph glyph-name="uni01F4" unicode="&#x1f4;" horiz-adv-x="1454" 
d="M657 1526l-43 184l514 150l52 -218zM879 -23q-365 0 -574 190.5t-209 547.5q0 371 201.5 562t583.5 191q144 0 239 -21.5t189 -62.5l-76 -208q-78 23 -113.5 32t-100.5 18t-140 9q-106 0 -193.5 -28.5t-156.5 -86.5t-107.5 -156.5t-38.5 -228.5q0 -132 41 -233.5
t114 -163t166.5 -92.5t204.5 -31q70 0 148 12v488h278v-658q-214 -80 -456 -80z" />
    <glyph glyph-name="uni01F5" unicode="&#x1f5;" horiz-adv-x="1224" 
d="M539 395q-95 0 -177 23q-32 -46 -32 -86q0 -32 22.5 -52t61.5 -20h229q449 0 449 -311q0 -87 -36 -162t-105 -133t-180 -91.5t-251 -33.5q-218 0 -336 77.5t-118 211.5q0 76 36.5 146t104.5 116q-82 58 -82 158q0 60 31 120.5t90 108.5q-148 91 -148 276
q0 173 122.5 287.5t332.5 114.5q160 0 274 -66l344 19v-199h-182q23 -103 23 -147q0 -163 -134 -260t-339 -97zM657 37h-280q-37 0 -53 2q-58 -64 -58 -139q0 -76 67 -120t208 -44q146 0 234.5 51t88.5 129q0 57 -53 89t-154 32zM549 563q99 0 157 55.5t58 143.5
t-55.5 145.5t-153.5 57.5q-97 0 -154 -57t-57 -150q0 -90 55.5 -142.5t149.5 -52.5zM479 1245l-82 164l449 254l96 -193z" />
    <glyph glyph-name="uni01F8" unicode="&#x1f8;" horiz-adv-x="1622" 
d="M1022 1526l-524 112l51 220l516 -148zM188 0v1448h332l639 -1094h4l-8 170v924h281v-1448h-344l-625 1071h-8l8 -176v-895h-279z" />
    <glyph glyph-name="uni01F9" unicode="&#x1f9;" horiz-adv-x="1302" 
d="M795 1243l-459 227l94 195l451 -256zM152 0v1118h272v-119q69 49 115.5 76t121.5 49.5t158 22.5q66 0 118 -13t88 -34.5t61.5 -56t40 -69t23 -82.5t11 -88.5t2.5 -94.5v-709h-270v678q0 131 -36 181t-138 50q-139 0 -295 -88v-821h-272z" />
    <glyph glyph-name="uni01FA" unicode="&#x1fa;" horiz-adv-x="1433" 
d="M-18 0l571 1448h362l502 -1448h-293l-157 469h-523l-178 -469h-284zM522 676h375l-174 594zM508 1909l-43 184l514 150l51 -218zM739 1479q-48 0 -89.5 11t-78 34.5t-58 66.5t-21.5 101q0 108 71 165.5t170 57.5q41 0 81.5 -11t79.5 -34.5t63 -68.5t24 -105
q0 -105 -70 -161t-172 -56zM735 1589q52 0 81 27.5t32 77.5q0 46 -33 75t-80 29q-112 0 -112 -100q0 -50 30.5 -79.5t81.5 -29.5z" />
    <glyph glyph-name="uni01FB" unicode="&#x1fb;" horiz-adv-x="1183" 
d="M420 -18q-160 0 -256 85t-96 240q0 340 460 344l222 2v97q0 93 -52.5 128t-171.5 35q-158 0 -323 -51l-56 201q206 82 428 82q225 0 333 -79t108 -255v-543q0 -38 28.5 -52.5t79.5 -16.5l-10 -207q-20 -2 -53 -2q-253 0 -287 127q-79 -62 -161 -98.5t-193 -36.5zM498 195
q114 0 252 71v221l-207 -8q-97 -2 -153 -40.5t-56 -110.5q0 -66 45.5 -99.5t118.5 -33.5zM375 1700l-43 184l514 150l51 -217zM596 1208q-52 0 -97.5 11.5t-85.5 37t-63.5 72t-23.5 109.5q0 79 39.5 136t98 82t126.5 25q45 0 88.5 -12t85.5 -37.5t68 -74.5t26 -115
q0 -114 -75 -174t-187 -60zM592 1327q56 0 87 30t34 83q0 50 -34.5 81t-86.5 31q-121 0 -121 -108q0 -54 32.5 -85.5t88.5 -31.5z" />
    <glyph glyph-name="AEacute" unicode="&#x1fc;" horiz-adv-x="1951" 
d="M987 1526l-43 184l514 150l51 -218zM-41 0l713 1448h1136v-221h-618v-396h573v-208h-573v-402h665v-221h-944v553h-381l-256 -553h-315zM621 762h290v465h-75z" />
    <glyph glyph-name="aeacute" unicode="&#x1fd;" horiz-adv-x="1828" 
d="M770 1245l-82 164l449 254l96 -193zM1323 -18q-346 0 -481 180q-32 -28 -70 -54.5t-93 -56.5t-121.5 -48.5t-131.5 -18.5q-173 0 -265.5 82t-92.5 243q0 59 15 107.5t39.5 82t61.5 59t75.5 40.5t87.5 24.5t90 13.5t91 5q179 6 222 6v115q0 93 -52.5 122t-183.5 29
q-25 0 -55.5 -2.5t-53 -5.5t-57.5 -10l-50 -10t-52 -11.5t-43 -9.5l-56 201q216 80 416 80q133 0 226 -22.5t151 -88.5q128 111 354 111q232 0 343.5 -144.5t111.5 -410.5v-90l-731 -21q1 -71 19 -122t47.5 -81t77 -48t96 -23.5t114.5 -5.5q98 0 303 41l39 -203
q-167 -55 -391 -55zM475 195q55 0 143.5 26.5t163.5 61.5q-22 70 -32 188l-205 -4q-211 -5 -211 -141q0 -67 38 -99t103 -32zM1028 664l438 18q3 121 -52 192.5t-144 71.5q-100 0 -169.5 -70t-72.5 -212z" />
    <glyph glyph-name="Oslashacute" unicode="&#x1fe;" horiz-adv-x="1761" 
d="M203 -80l-119 119l182 188q-145 192 -145 500q0 341 209 542t565 201q275 0 455 -122l178 184l125 -115l-178 -184q159 -196 159 -510q0 -346 -202.5 -547t-571.5 -201q-289 0 -473 136zM866 199q126 0 220.5 40t151 112t84.5 166t28 208q0 179 -70 307l-711 -735
q116 -98 297 -98zM403 729q0 -167 62 -297l704 727q-118 88 -288 88q-121 0 -214 -39t-150 -109.5t-85.5 -163.5t-28.5 -206zM711 1526l-43 184l514 150l51 -218z" />
    <glyph glyph-name="oslashacute" unicode="&#x1ff;" horiz-adv-x="1310" 
d="M641 -25q-219 0 -352 109l-127 -135l-92 88l131 139q-101 147 -101 373q0 280 153 439t409 159q221 0 356 -107l121 129l90 -88l-125 -133q100 -141 100 -387q0 -283 -155 -434.5t-408 -151.5zM655 195q79 0 133.5 27.5t83.5 79t41.5 113t12.5 142.5q0 101 -23 180
l-442 -471q65 -71 194 -71zM377 557q0 -101 20 -174l445 473q-67 74 -189 74q-276 0 -276 -373zM510 1245l-82 164l449 254l96 -193z" />
    <glyph glyph-name="Scommaaccent" unicode="&#x218;" horiz-adv-x="1165" 
d="M688 -121l-88 -436h-192l43 436h237zM524 -25q-254 0 -452 111l82 213q108 -46 187.5 -68t182.5 -22q130 0 208.5 49.5t78.5 140.5q0 45 -24 82t-64.5 63t-92.5 49t-110 46t-116 48t-110 60.5t-92.5 79t-64.5 107t-24 141.5q0 76 27 141t73.5 111t108.5 78.5t132.5 48.5
t145.5 16q142 0 237 -25.5t179 -74.5l-82 -207q-83 37 -157 55.5t-169 18.5q-98 0 -159.5 -44t-61.5 -120q0 -43 30.5 -80t80 -63t113 -54.5t130 -55t130 -65.5t113 -83.5t80 -111.5t30.5 -148q0 -109 -47.5 -194.5t-128 -137.5t-181 -78.5t-213.5 -26.5z" />
    <glyph glyph-name="scommaaccent" unicode="&#x219;" horiz-adv-x="987" 
d="M643 -121l-88 -436h-193l44 436h237zM428 -25q-81 0 -180.5 13t-169.5 35l33 213q208 -37 323 -37q113 0 167 29.5t54 78.5q0 32 -24 57t-64 41.5t-90.5 35.5t-103 37t-103 47t-90.5 64.5t-64 91t-24 124.5q0 111 61.5 190t159.5 115.5t222 36.5q176 0 333 -60l-49 -202
q-141 43 -276 43q-92 0 -136.5 -27.5t-44.5 -73.5q0 -37 31 -65.5t80.5 -48.5t109 -40.5t119 -49.5t109 -66t80.5 -98t31 -140q0 -78 -31 -139t-80 -99t-115.5 -62.5t-132 -34t-135.5 -9.5z" />
    <glyph glyph-name="uni021A" unicode="&#x21a;" horiz-adv-x="1259" 
d="M752 -121l-88 -436h-193l43 436h238zM489 0v1225h-469v223h1219v-223h-469v-1225h-281z" />
    <glyph glyph-name="uni021B" unicode="&#x21b;" horiz-adv-x="925" 
d="M694 -121l-88 -436h-192l43 436h237zM584 -27q-184 0 -281.5 83t-97.5 278v575h-164v209h164v230h272v-230h346v-209h-346v-561q0 -81 35 -111t119 -30q96 0 221 33l31 -217q-60 -22 -144.5 -36t-154.5 -14z" />
    <glyph glyph-name="uni021C" unicode="&#x21c;" horiz-adv-x="1134" 
d="M330 819l348 395h-578v234h893v-186l-395 -441q90 -14 167 -44.5t139 -78.5t97 -119.5t35 -158.5q0 -92 -30.5 -167t-83 -126t-123.5 -86t-149 -50.5t-163 -15.5q-152 0 -263 25t-146 47l57 221q69 -25 162.5 -43t179.5 -18q281 0 281 211q0 207 -314 223q-27 2 -79 2z
" />
    <glyph glyph-name="uni021D" unicode="&#x21d;" horiz-adv-x="1017" 
d="M244 313v193l370 389h-553v223h854v-184l-411 -440q90 -16 167 -49t139 -82.5t98 -122t36 -158.5q0 -97 -46.5 -183t-124.5 -149t-178.5 -110.5t-210 -73.5t-218.5 -31l-43 211q246 31 394.5 113.5t148.5 212.5q0 61 -38 108t-101.5 74.5t-134.5 42t-148 16.5z" />
    <glyph glyph-name="uni021E" unicode="&#x21e;" horiz-adv-x="1617" 
d="M188 0v1448h279v-612h684v612h279v-1448h-279v618h-684v-618h-279zM1174 1700l-369 -180l-363 182l95 178l268 -123l270 121z" />
    <glyph glyph-name="uni021F" unicode="&#x21f;" horiz-adv-x="1302" 
d="M152 0v1544h272v-549q190 150 377 150q71 0 127 -13t93.5 -33.5t64 -55t41 -68t22.5 -83t10 -89t2 -96.5v-707h-268v676q0 130 -36.5 180.5t-139.5 50.5q-131 0 -293 -92v-815h-272zM1067 1700l-369 -180l-362 182l94 178l268 -123l271 121z" />
    <glyph glyph-name="uni0226" unicode="&#x226;" horiz-adv-x="1433" 
d="M-18 0l571 1448h362l502 -1448h-293l-157 469h-523l-178 -469h-284zM522 676h375l-174 594zM588 1587v262h274v-262h-274z" />
    <glyph glyph-name="uni0227" unicode="&#x227;" horiz-adv-x="1183" 
d="M420 -18q-160 0 -256 85t-96 240q0 340 460 344l222 2v97q0 93 -52.5 128t-171.5 35q-158 0 -323 -51l-56 201q206 82 428 82q225 0 333 -79t108 -255v-543q0 -38 28.5 -52.5t79.5 -16.5l-10 -207q-20 -2 -53 -2q-253 0 -287 127q-79 -62 -161 -98.5t-193 -36.5zM498 195
q114 0 252 71v221l-207 -8q-97 -2 -153 -40.5t-56 -110.5q0 -66 45.5 -99.5t118.5 -33.5zM465 1337v262h272v-262h-272z" />
    <glyph glyph-name="uni0228" unicode="&#x228;" 
d="M188 0v1448h897v-221h-618v-396h573v-208h-573v-402h666v-221h-945zM547 -547l-94 162q82 51 105 73q38 37 38 76t-33 132h223q43 -88 43 -156q0 -167 -282 -287z" />
    <glyph glyph-name="uni0229" unicode="&#x229;" horiz-adv-x="1169" 
d="M657 -25q-135 0 -235.5 27.5t-178 91t-117.5 176t-40 273.5q0 131 27 234t74 171t114.5 113t144.5 64.5t168 19.5q250 0 363 -143.5t113 -419.5v-99h-730q-1 -69 17 -121t47.5 -83t74 -50t91 -25.5t104.5 -6.5q139 0 322 47l43 -207q-180 -62 -402 -62zM367 666h442
q2 131 -50 206.5t-155 75.5q-100 0 -165 -74t-72 -208zM504 -547l-94 162q82 51 105 73q38 37 38 76t-33 132h223q43 -88 43 -156q0 -167 -282 -287z" />
    <glyph glyph-name="uni022E" unicode="&#x22e;" horiz-adv-x="1701" 
d="M711 1587v262h274v-262h-274zM834 -25q-357 0 -548.5 201.5t-191.5 550.5q0 341 209 542t565 201q185 0 327.5 -56t232 -157.5t135 -236t45.5 -297.5q0 -346 -202.5 -547t-571.5 -201zM840 199q101 0 182 26.5t137 73t93 113t54 144.5t17 169q0 234 -120 378t-349 144
q-121 0 -214 -39t-149.5 -109.5t-85 -163.5t-28.5 -206q0 -111 27.5 -205t82.5 -168t145.5 -115.5t207.5 -41.5z" />
    <glyph glyph-name="uni022F" unicode="&#x22f;" horiz-adv-x="1267" 
d="M623 -25q-258 0 -399.5 152.5t-141.5 421.5q0 280 152.5 439t408.5 159q270 0 406.5 -152.5t136.5 -433.5q0 -283 -155 -434.5t-408 -151.5zM637 195q79 0 133.5 27.5t83.5 79t41 113t12 142.5q0 373 -272 373q-277 0 -277 -373q0 -362 279 -362zM496 1337v262h272v-262
h-272z" />
    <glyph glyph-name="uni0232" unicode="&#x232;" horiz-adv-x="1355" 
d="M535 0v498l-512 950h321l340 -713l363 713h311l-545 -944v-504h-278zM369 1581v215h624v-215h-624z" />
    <glyph glyph-name="uni0233" unicode="&#x233;" horiz-adv-x="1155" 
d="M340 -451l154 451h-107l-375 1118h295l211 -715l53 -188l60 186l241 717h277l-547 -1569h-262zM262 1341v215h625v-215h-625z" />
    <glyph glyph-name="uni0237" unicode="&#x237;" horiz-adv-x="575" 
d="M0 -461q-53 0 -114 13t-103 32l49 215q76 -26 160 -26q88 0 124 50.5t36 166.5v1128h272v-1130q0 -107 -23 -187.5t-60.5 -129.5t-93.5 -79.5t-115 -41.5t-132 -11z" />
    <glyph glyph-name="uni0259" unicode="&#x259;" horiz-adv-x="1169" 
d="M508 1145q110 0 195.5 -16.5t158.5 -56t120.5 -103.5t74 -161.5t26.5 -227.5q0 -134 -26.5 -237.5t-73.5 -172.5t-116 -113t-149.5 -63t-178.5 -19q-457 0 -457 566v98h729q-1 88 -27 147t-76.5 88.5t-108.5 40.5t-140 11q-119 0 -303 -47l-43 206q178 60 395 60z
M803 457h-441q-2 -131 50 -208t151 -77q105 0 169 74t71 211z" />
    <glyph glyph-name="uni02BC" unicode="&#x2bc;" horiz-adv-x="1349" 
d="M-166 1047q33 64 47.5 138.5t14.5 127.5v231h251v-153q0 -195 -112 -344h-201z" />
    <glyph glyph-name="circumflex" unicode="&#x2c6;" horiz-adv-x="1126" 
d="M793 1257l-256 181l-265 -181l-118 154l385 252l368 -252z" />
    <glyph glyph-name="caron" unicode="&#x2c7;" horiz-adv-x="1126" 
d="M555 1245l-375 254l111 152l266 -181l264 181l119 -154z" />
    <glyph glyph-name="breve" unicode="&#x2d8;" horiz-adv-x="1044" 
d="M557 1280q-57 0 -109.5 13t-91.5 33.5t-73 48.5t-56.5 55t-40.5 57l144 123q121 -125 235 -125q125 0 230 125l135 -121q-24 -38 -55.5 -71t-77 -66t-107.5 -52.5t-133 -19.5z" />
    <glyph glyph-name="dotaccent" unicode="&#x2d9;" horiz-adv-x="587" 
d="M158 1337v262h272v-262h-272z" />
    <glyph glyph-name="ring" unicode="&#x2da;" horiz-adv-x="1118" 
d="M563 1223q-53 0 -99.5 12t-87.5 37.5t-65 73t-24 112.5q0 120 80.5 185t189.5 65q46 0 91 -12.5t88.5 -39t70.5 -77t27 -117.5q0 -117 -78 -178t-193 -61zM559 1343q58 0 90 31t35 86q0 53 -35.5 85t-89.5 32q-125 0 -125 -113q0 -55 34 -88t91 -33z" />
    <glyph glyph-name="ogonek" unicode="&#x2db;" horiz-adv-x="1177" 
d="M1051 -457q-92 -53 -211 -53q-130 0 -211.5 68t-81.5 184q0 64 34.5 126.5t92.5 114t125.5 93t142.5 74.5l90 -119q-64 -33 -115.5 -69.5t-92 -86.5t-40.5 -96q0 -45 29 -70.5t70 -25.5q60 0 118 30z" />
    <glyph glyph-name="tilde" unicode="&#x2dc;" horiz-adv-x="1126" 
d="M676 1307q-52 0 -135.5 37.5t-122.5 37.5q-40 0 -72 -11t-72 -44l-104 131q126 139 266 139q52 0 98.5 -19.5t85 -38.5t68.5 -19q45 0 80.5 13t83.5 42l94 -129q-23 -25 -40 -40t-54 -42.5t-82 -42t-94 -14.5z" />
    <glyph glyph-name="hungarumlaut" unicode="&#x2dd;" horiz-adv-x="1271" 
d="M233 1233l-116 139l383 340l139 -166zM692 1235l-82 160l449 252l98 -191z" />
    <glyph glyph-name="gravecmb" unicode="&#x300;" horiz-adv-x="0" 
d="M-479 1243l-461 227l96 195l449 -254z" />
    <glyph glyph-name="acutecmb" unicode="&#x301;" horiz-adv-x="0" 
d="M-807 1245l-84 166l449 254l96 -195z" />
    <glyph glyph-name="uni0302" unicode="&#x302;" horiz-adv-x="0" 
d="M-371 1264l-262 172l-266 -172l-119 155l385 244l373 -244z" />
    <glyph glyph-name="tildecmb" unicode="&#x303;" horiz-adv-x="0" 
d="M-518 1307q-53 0 -136.5 37.5t-123.5 37.5q-78 0 -142 -55l-104 131q126 139 264 139q52 0 99 -19.5t85 -38.5t68 -19q47 0 82.5 13t83.5 42l94 -129q-23 -25 -40 -40t-54 -42.5t-82 -42t-94 -14.5z" />
    <glyph glyph-name="uni0304" unicode="&#x304;" horiz-adv-x="0" 
d="M-965 1339v215h648v-215h-648z" />
    <glyph glyph-name="uni0306" unicode="&#x306;" horiz-adv-x="0" 
d="M-643 1276q-135 0 -231 61t-152 148l143 127q121 -127 246 -127q123 0 238 127l135 -125q-39 -55 -86.5 -98.5t-126 -78t-166.5 -34.5z" />
    <glyph glyph-name="uni0307" unicode="&#x307;" horiz-adv-x="0" 
d="M-786 1331v262h272v-262h-272z" />
    <glyph glyph-name="uni0308" unicode="&#x308;" horiz-adv-x="0" 
d="M-879 1303l-161 163l161 164l162 -164zM-416 1303l-164 163l164 164l162 -164z" />
    <glyph glyph-name="hookcmb" unicode="&#x309;" horiz-adv-x="0" 
d="M-451 1542q0 -105 -61 -179t-145 -108l-115 138q42 17 78.5 50.5t36.5 82.5q0 34 -23.5 51.5t-56.5 17.5q-29 0 -80 -14l-19 170q64 27 144 27q104 0 174 -64q67 -64 67 -172z" />
    <glyph glyph-name="uni030A" unicode="&#x30a;" horiz-adv-x="0" 
d="M-637 1229q-52 0 -97.5 11.5t-85.5 36.5t-63.5 71.5t-23.5 109.5q0 117 78.5 180.5t185.5 63.5q45 0 88.5 -12t85.5 -37.5t68 -75t26 -115.5q0 -114 -75 -173.5t-187 -59.5zM-641 1348q56 0 87 29.5t34 82.5q0 50 -34.5 81.5t-86.5 31.5q-121 0 -121 -109q0 -54 32.5 -85
t88.5 -31z" />
    <glyph glyph-name="uni030B" unicode="&#x30b;" horiz-adv-x="0" 
d="M-975 1233l-117 139l383 340l140 -166zM-516 1235l-82 160l446 252l101 -191z" />
    <glyph glyph-name="uni030C" unicode="&#x30c;" horiz-adv-x="0" 
d="M-649 1219l-371 241l111 154l262 -170l262 170l119 -152z" />
    <glyph glyph-name="uni0310" unicode="&#x310;" horiz-adv-x="0" 
d="M-633 1278q-71 0 -134 19t-109.5 52t-79.5 68t-56 74l146 125q118 -129 239 -129q120 0 238 129l137 -121q-25 -38 -58 -72.5t-80 -69t-110 -55t-133 -20.5zM-764 1632v262h272v-262h-272z" />
    <glyph glyph-name="dotbelowcmb" unicode="&#x323;" horiz-adv-x="0" 
d="M-766 -432v262h272v-262h-272z" />
    <glyph glyph-name="uni0324" unicode="&#x324;" horiz-adv-x="0" 
d="M-1001 -432v262h272v-262h-272zM-530 -432v262h272v-262h-272z" />
    <glyph glyph-name="uni0325" unicode="&#x325;" horiz-adv-x="0" 
d="M-627 -565q-52 0 -97.5 12t-85.5 37t-63.5 72t-23.5 110q0 117 78.5 180.5t185.5 63.5q35 0 70 -7t71.5 -24.5t64 -44t45 -69t17.5 -95.5q0 -114 -75 -174.5t-187 -60.5zM-631 -444q56 0 87 29.5t34 82.5q0 50 -34.5 81.5t-86.5 31.5q-121 0 -121 -109q0 -54 32.5 -85
t88.5 -31z" />
    <glyph glyph-name="uni0327" unicode="&#x327;" horiz-adv-x="0" 
d="M-731 -547l-92 162q4 2 27 17t29.5 19.5t25 18t25 21.5t17 21t14 25.5t3.5 26.5q0 39 -33 132h223q43 -88 43 -156q0 -169 -282 -287z" />
    <glyph glyph-name="uni0328" unicode="&#x328;" horiz-adv-x="0" 
d="M-600 -512q-283 0 -283 268q0 198 387 406l103 -135q-36 -19 -76.5 -48t-81 -65t-66.5 -77.5t-26 -76.5q0 -63 90 -63q75 0 127 16l49 -180q-99 -45 -223 -45z" />
    <glyph glyph-name="uni032E" unicode="&#x32e;" horiz-adv-x="0" 
d="M-637 -463q-133 0 -228.5 61.5t-152.5 149.5l141 125q127 -127 246 -127t240 127l135 -125q-63 -88 -157.5 -149.5t-223.5 -61.5z" />
    <glyph glyph-name="uni0331" unicode="&#x331;" horiz-adv-x="0" 
d="M-950 -446v215h624v-215h-624z" />
    <glyph glyph-name="uni0374" unicode="&#x374;" horiz-adv-x="487" 
d="M72 1047q61 120 61 253v246h275v-155q0 -196 -111 -344h-225z" />
    <glyph glyph-name="uni0375" unicode="&#x375;" horiz-adv-x="546" 
d="M135 -250q62 121 62 254v246h274v-156q0 -189 -111 -344h-225z" />
    <glyph glyph-name="uni037E" unicode="&#x37e;" horiz-adv-x="1417" 
d="M862 842h-309v276h309v-276zM860 100q0 -207 -121 -366h-243q63 121 63 272v266h301v-172z" />
    <glyph glyph-name="tonos" unicode="&#x384;" horiz-adv-x="1003" 
d="M711 1282l147 324h262l-192 -324h-217z" />
    <glyph glyph-name="dieresistonos" unicode="&#x385;" horiz-adv-x="1105" 
d="M401 1276l86 321h258l-153 -321h-191zM94 1280v227h236v-227h-236zM764 1280v227h235v-227h-235z" />
    <glyph glyph-name="Alphatonos" unicode="&#x386;" horiz-adv-x="1406" 
d="M-31 0l572 1448h362l502 -1448h-293l-158 469h-522l-178 -469h-285zM510 676h375l-174 594zM-51 1120l135 328h262l-182 -328h-215z" />
    <glyph glyph-name="anoteleia" unicode="&#x387;" horiz-adv-x="514" 
d="M111 614v279h309v-279h-309z" />
    <glyph glyph-name="Epsilontonos" unicode="&#x388;" horiz-adv-x="1224" 
d="M-307 1120l135 328h262l-182 -328h-215zM188 0v1448h897v-221h-618v-396h573v-208h-573v-402h666v-221h-945z" />
    <glyph glyph-name="Etatonos" unicode="&#x389;" horiz-adv-x="1617" 
d="M188 0v1448h279v-612h684v612h279v-1448h-279v618h-684v-618h-279zM-307 1120l135 328h262l-182 -328h-215z" />
    <glyph glyph-name="Iotatonos" unicode="&#x38a;" horiz-adv-x="655" 
d="M188 0v1448h279v-1448h-279zM-305 1120l135 328h262l-182 -328h-215z" />
    <glyph glyph-name="Omicrontonos" unicode="&#x38c;" horiz-adv-x="1699" 
d="M-236 1120l136 328h262l-182 -328h-216zM834 -25q-357 0 -548.5 201.5t-191.5 550.5q0 341 209 542t565 201q185 0 327.5 -56t232 -157.5t135 -236t45.5 -297.5q0 -346 -202.5 -547t-571.5 -201zM840 199q101 0 182 26.5t137 73t93 113t54 144.5t17 169q0 234 -120 378
t-349 144q-121 0 -214 -39t-149.5 -109.5t-85 -163.5t-28.5 -206q0 -111 27.5 -205t82.5 -168t145.5 -115.5t207.5 -41.5z" />
    <glyph glyph-name="Upsilontonos" unicode="&#x38e;" horiz-adv-x="1370" 
d="M541 0v498l-512 950h321l340 -713l363 713h311l-545 -944v-504h-278zM-420 1120l135 328h262l-182 -328h-215z" />
    <glyph glyph-name="Omegatonos" unicode="&#x38f;" horiz-adv-x="1755" 
d="M-213 1120l135 328h262l-182 -328h-215zM111 0v236h303q-59 34 -107.5 79.5t-90.5 109.5t-65.5 152.5t-23.5 192.5q0 318 205.5 509t558.5 191q147 0 269 -36t207 -99.5t144 -150.5t87 -189t28 -215q0 -105 -23.5 -194.5t-66 -155t-92 -112.5t-109.5 -82h305v-236h-608
v223q73 57 125.5 110.5t95.5 118.5t64.5 142t21.5 166q0 101 -29 187.5t-85 153t-146.5 104.5t-206.5 38q-222 0 -341 -133.5t-119 -351.5q0 -78 17.5 -146.5t42.5 -118.5t69 -102t81 -86.5t95 -81.5v-223h-606z" />
    <glyph glyph-name="iotadieresistonos" unicode="&#x390;" horiz-adv-x="608" 
d="M145 1276l86 321h258l-153 -321h-191zM-162 1280v227h236v-227h-236zM508 1280v227h235v-227h-235zM387 -23q-115 0 -180.5 67.5t-65.5 213.5v860h275v-813q0 -50 26.5 -75t73.5 -27q27 0 43 2l14 -205q-74 -23 -186 -23z" />
    <glyph glyph-name="Alpha" unicode="&#x391;" horiz-adv-x="1406" 
d="M-31 0l572 1448h362l502 -1448h-293l-158 469h-522l-178 -469h-285zM510 676h375l-174 594z" />
    <glyph glyph-name="Beta" unicode="&#x392;" horiz-adv-x="1355" 
d="M188 0v1448h465q255 0 383.5 -98.5t128.5 -286.5q0 -97 -49.5 -172.5t-122.5 -108.5v-4q47 -12 93 -38.5t88.5 -67.5t69 -103.5t26.5 -134.5q0 -99 -30 -176.5t-94.5 -136t-173 -90t-257.5 -31.5h-527zM469 221h219q152 0 226.5 46.5t74.5 158.5q0 114 -80 163.5
t-247 49.5h-193v-418zM469 838h172q125 0 185.5 46.5t60.5 149.5q0 109 -69.5 154t-213.5 45h-135v-395z" />
    <glyph glyph-name="Gamma" unicode="&#x393;" horiz-adv-x="1105" 
d="M188 0v1448h922v-221h-643v-1227h-279z" />
    <glyph glyph-name="uni0394" unicode="&#x394;" horiz-adv-x="1458" 
d="M348 233h737l-260 742l-88 293l-102 -297zM-33 0l598 1448h365l532 -1448h-1495z" />
    <glyph glyph-name="Epsilon" unicode="&#x395;" horiz-adv-x="1224" 
d="M188 0v1448h897v-221h-618v-396h573v-208h-573v-402h666v-221h-945z" />
    <glyph glyph-name="Zeta" unicode="&#x396;" horiz-adv-x="1222" 
d="M70 0v201l704 1013h-651v234h989v-186l-713 -1029h756v-233h-1085z" />
    <glyph glyph-name="Eta" unicode="&#x397;" horiz-adv-x="1617" 
d="M188 0v1448h279v-612h684v612h279v-1448h-279v618h-684v-618h-279z" />
    <glyph glyph-name="Theta" unicode="&#x398;" horiz-adv-x="1699" 
d="M555 606l-45 158q99 74 219 74q61 0 138 -15.5t106 -15.5q101 0 170 29l43 -158q-35 -27 -96.5 -47.5t-126.5 -20.5q-57 0 -136 16.5t-108 16.5q-94 0 -164 -37zM834 -25q-357 0 -548.5 201.5t-191.5 550.5q0 341 209 542t565 201q185 0 327.5 -56t232 -157.5t135 -236
t45.5 -297.5q0 -346 -202.5 -547t-571.5 -201zM840 199q101 0 182 26.5t137 73t93 113t54 144.5t17 169q0 234 -120 378t-349 144q-121 0 -214 -39t-149.5 -109.5t-85 -163.5t-28.5 -206q0 -111 27.5 -205t82.5 -168t145.5 -115.5t207.5 -41.5z" />
    <glyph glyph-name="Iota" unicode="&#x399;" horiz-adv-x="655" 
d="M188 0v1448h279v-1448h-279z" />
    <glyph glyph-name="Kappa" unicode="&#x39a;" horiz-adv-x="1396" 
d="M188 0v1448h279v-662l547 662h356l-592 -674l627 -774h-358l-580 766v-766h-279z" />
    <glyph glyph-name="Lambda" unicode="&#x39b;" horiz-adv-x="1366" 
d="M-20 0l536 1448h365l473 -1448h-291l-299 971l-76 276l-88 -276l-344 -971h-276z" />
    <glyph glyph-name="Mu" unicode="&#x39c;" horiz-adv-x="1994" 
d="M188 0v1448h349l440 -1217l498 1217h331v-1448h-280v702l12 297h-8l-395 -999h-334l-342 1001h-8l16 -286v-715h-279z" />
    <glyph glyph-name="Nu" unicode="&#x39d;" horiz-adv-x="1622" 
d="M188 0v1448h332l639 -1094h4l-8 170v924h281v-1448h-344l-625 1071h-8l8 -176v-895h-279z" />
    <glyph glyph-name="Xi" unicode="&#x39e;" horiz-adv-x="1263" 
d="M104 0v236h1055v-236h-1055zM172 614v228h920v-228h-920zM127 1212v236h1010v-236h-1010z" />
    <glyph glyph-name="Omicron" unicode="&#x39f;" horiz-adv-x="1699" 
d="M834 -25q-357 0 -548.5 201.5t-191.5 550.5q0 341 209 542t565 201q185 0 327.5 -56t232 -157.5t135 -236t45.5 -297.5q0 -346 -202.5 -547t-571.5 -201zM840 199q101 0 182 26.5t137 73t93 113t54 144.5t17 169q0 234 -120 378t-349 144q-121 0 -214 -39t-149.5 -109.5
t-85 -163.5t-28.5 -206q0 -111 27.5 -205t82.5 -168t145.5 -115.5t207.5 -41.5z" />
    <glyph glyph-name="Pi" unicode="&#x3a0;" horiz-adv-x="1589" 
d="M188 0v1448h1213v-1448h-279v1223h-655v-1223h-279z" />
    <glyph glyph-name="Rho" unicode="&#x3a1;" horiz-adv-x="1288" 
d="M188 0v1448h529q237 0 380.5 -130.5t143.5 -361.5q0 -104 -40.5 -194.5t-117.5 -159.5t-199 -109t-274 -40h-141v-453h-281zM469 1227v-555h154q161 0 244 73t83 203q0 136 -66 207.5t-212 71.5h-203z" />
    <glyph glyph-name="Sigma" unicode="&#x3a3;" horiz-adv-x="1247" 
d="M94 0v201l406 530l-394 486v231h1041v-221h-733l385 -479l-391 -515h751v-233h-1065z" />
    <glyph glyph-name="Tau" unicode="&#x3a4;" horiz-adv-x="1224" 
d="M473 0v1225h-469v223h1219v-223h-469v-1225h-281z" />
    <glyph glyph-name="Upsilon" unicode="&#x3a5;" horiz-adv-x="1370" 
d="M541 0v498l-512 950h321l340 -713l363 713h311l-545 -944v-504h-278z" />
    <glyph glyph-name="Phi" unicode="&#x3a6;" horiz-adv-x="1689" 
d="M707 0v174q-140 0 -256.5 36.5t-204.5 108t-137.5 185.5t-49.5 260t49.5 260t137.5 185.5t204.5 108t256.5 36.5v155h274v-155q111 0 208 -23t178 -70.5t139 -116.5t90 -166t32 -214t-32 -214t-90 -166t-139 -116.5t-178 -70.5t-208 -23v-174h-274zM981 381
q171 0 270 100.5t99 282.5q0 186 -98.5 284.5t-270.5 98.5v-766zM707 381v766q-172 0 -270.5 -98.5t-98.5 -284.5q0 -182 99 -282.5t270 -100.5z" />
    <glyph glyph-name="Chi" unicode="&#x3a7;" horiz-adv-x="1325" 
d="M-4 0l516 752l-446 696h319l289 -483l309 483h311l-473 -692l486 -756h-324l-326 543l-346 -543h-315z" />
    <glyph glyph-name="Psi" unicode="&#x3a8;" horiz-adv-x="1599" 
d="M666 0v305q-92 8 -168 26t-154 57.5t-130.5 98t-86 153t-33.5 216.5v592h285v-596q0 -63 16 -113t41.5 -82t64 -56t77.5 -37t88 -23v907h280v-905q63 14 110.5 36t89.5 61t64.5 104t22.5 153v551h274v-543q0 -131 -33 -233t-85.5 -165.5t-129 -107.5t-150.5 -64t-163 -30
v-305h-280z" />
    <glyph glyph-name="uni03A9" unicode="&#x3a9;" horiz-adv-x="1755" 
d="M111 0v236h303q-59 34 -107.5 79.5t-90.5 109.5t-65.5 152.5t-23.5 192.5q0 318 205.5 509t558.5 191q147 0 269 -36t207 -99.5t144 -150.5t87 -189t28 -215q0 -105 -23.5 -194.5t-66 -155t-92 -112.5t-109.5 -82h305v-236h-608v223q73 57 125.5 110.5t95.5 118.5
t64.5 142t21.5 166q0 101 -29 187.5t-85 153t-146.5 104.5t-206.5 38q-222 0 -341 -133.5t-119 -351.5q0 -78 17.5 -146.5t42.5 -118.5t69 -102t81 -86.5t95 -81.5v-223h-606z" />
    <glyph glyph-name="Iotadieresis" unicode="&#x3aa;" horiz-adv-x="655" 
d="M188 0v1448h279v-1448h-279zM213 1565h-260v260h260v-260zM709 1565h-258v260h258v-260z" />
    <glyph glyph-name="Upsilondieresis" unicode="&#x3ab;" horiz-adv-x="1370" 
d="M541 0v498l-512 950h321l340 -713l363 713h311l-545 -944v-504h-278zM569 1565h-260v260h260v-260zM1065 1565h-258v260h258v-260z" />
    <glyph glyph-name="alphatonos" unicode="&#x3ac;" horiz-adv-x="1300" 
d="M539 1282l147 324h262l-192 -324h-217zM518 -16q-36 0 -70 4t-78.5 18t-82.5 36.5t-76 63.5t-65 95t-43.5 134.5t-16.5 178.5q0 294 132.5 461.5t352.5 167.5q85 0 162 -34t107 -89v98h274v-846q0 -40 24.5 -55.5t78.5 -17.5l-13 -209q-71 0 -98 4q-120 10 -184 60.5
t-68 166.5q-41 -98 -132 -167.5t-204 -69.5zM561 213q103 0 187.5 93t91.5 233v184q-27 83 -96.5 142t-145.5 59q-240 0 -240 -396q0 -155 53 -235t150 -80z" />
    <glyph glyph-name="epsilontonos" unicode="&#x3ad;" horiz-adv-x="1085" 
d="M440 1282l148 324h262l-193 -324h-217zM582 -25q-251 0 -378.5 84.5t-127.5 243.5q0 102 60 183t179 116q-90 27 -139 89t-49 155q0 59 30.5 112t88.5 96t152.5 68t213.5 25q242 0 406 -82l-72 -201q-55 22 -154.5 44t-193.5 22q-99 0 -151 -33.5t-52 -91.5
q0 -62 43.5 -92.5t102.5 -30.5h256v-201h-279q-27 0 -52 -5.5t-51.5 -19t-42.5 -42.5t-16 -70q0 -65 68.5 -104t189.5 -39q80 0 174.5 19.5t165.5 51.5l82 -196q-218 -101 -454 -101z" />
    <glyph glyph-name="etatonos" unicode="&#x3ae;" horiz-adv-x="1337" 
d="M610 1282l148 324h262l-193 -324h-217zM928 -451v1129q0 131 -36.5 181t-143.5 50q-127 0 -289 -90v-819h-273v864q0 38 -25 52.5t-75 17.5l12 209q8 0 31.5 0.5t43 0.5t32.5 -1q218 -11 248 -148q192 152 381 152q72 0 128 -13t94 -33t65 -54.5t41.5 -67.5t23 -82.5
t10.5 -89.5t2 -98v-1160h-270z" />
    <glyph glyph-name="iotatonos" unicode="&#x3af;" horiz-adv-x="608" 
d="M143 1282l148 324h262l-193 -324h-217zM387 -23q-115 0 -180.5 67.5t-65.5 213.5v860h275v-813q0 -50 26.5 -75t73.5 -27q27 0 43 2l14 -205q-74 -23 -186 -23z" />
    <glyph glyph-name="upsilondieresistonos" unicode="&#x3b0;" horiz-adv-x="1273" 
d="M481 1276l86 321h258l-153 -321h-191zM174 1280v227h236v-227h-236zM844 1280v227h235v-227h-235zM641 -23q-220 0 -347.5 114t-127.5 331v383q-1 49 -29.5 77t-75.5 31l27 224q101 -1 169.5 -23.5t107.5 -66.5t55 -102.5t16 -141.5l-2 -361q0 -124 59.5 -184.5
t159.5 -60.5q120 0 187 106.5t67 306.5q0 148 -33 267.5t-88 240.5h287q103 -233 103 -510q0 -172 -64.5 -315t-188 -229.5t-282.5 -86.5z" />
    <glyph glyph-name="alpha" unicode="&#x3b1;" horiz-adv-x="1300" 
d="M518 -16q-36 0 -70 4t-78.5 18t-82.5 36.5t-76 63.5t-65 95t-43.5 134.5t-16.5 178.5q0 294 132.5 461.5t352.5 167.5q85 0 162 -34t107 -89v98h274v-846q0 -40 24.5 -55.5t78.5 -17.5l-13 -209q-71 0 -98 4q-120 10 -184 60.5t-68 166.5q-41 -98 -132 -167.5t-204 -69.5
zM561 213q103 0 187.5 93t91.5 233v184q-27 83 -96.5 142t-145.5 59q-240 0 -240 -396q0 -155 53 -235t150 -80z" />
    <glyph glyph-name="beta" unicode="&#x3b2;" horiz-adv-x="1290" 
d="M150 -451v1512q0 229 140 370.5t372 141.5q212 0 341.5 -116t129.5 -286q0 -105 -65 -205t-169 -143q158 -39 236.5 -122.5t78.5 -239.5q0 -123 -41 -217.5t-114.5 -153t-169.5 -88t-211 -29.5q-133 0 -258 41v-465h-270zM674 199q130 0 196 58.5t66 193.5
q0 68 -27.5 117t-76.5 76t-103.5 40.5t-120.5 15.5v189q105 7 183.5 82t78.5 168q0 91 -63.5 152t-155.5 61q-111 0 -171 -74.5t-60 -204.5v-831q134 -43 254 -43z" />
    <glyph glyph-name="gamma" unicode="&#x3b3;" horiz-adv-x="1134" 
d="M391 -451q-20 160 -20 299q0 67 8 193q-24 122 -66.5 260.5t-77.5 235.5t-94.5 235t-81.5 185.5t-75 160.5h305q57 -113 136 -340.5t136 -466.5q130 271 177 397q87 233 91 410h287q-3 -107 -38.5 -230t-93.5 -246.5t-114.5 -228.5t-125 -226.5t-101.5 -190.5
q23 -150 23 -305q0 -52 -4 -142h-271z" />
    <glyph glyph-name="delta" unicode="&#x3b4;" 
d="M612 -25q-248 0 -393 134t-145 393q0 165 93 291.5t241 189.5q-193 99 -193 289q0 73 37.5 131.5t100.5 95t140 55.5t160 19q208 0 426 -66l-49 -204q-45 12 -153.5 29.5t-208.5 17.5q-185 0 -185 -103q0 -22 13.5 -42.5t33.5 -36t56 -35.5t67.5 -34t83.5 -37.5t88 -41.5
q67 -34 125.5 -81t108.5 -110t79 -145.5t29 -173.5q0 -140 -45.5 -246t-124.5 -167.5t-175.5 -91.5t-209.5 -30zM627 197q134 0 200 88t66 231q0 60 -20 111.5t-42 82t-73 65t-74.5 46.5t-85.5 41q-17 8 -25 12q-225 -109 -225 -356q0 -321 279 -321z" />
    <glyph glyph-name="epsilon" unicode="&#x3b5;" horiz-adv-x="1085" 
d="M582 -25q-251 0 -378.5 84.5t-127.5 243.5q0 102 60 183t179 116q-90 27 -139 89t-49 155q0 59 30.5 112t88.5 96t152.5 68t213.5 25q242 0 406 -82l-72 -201q-55 22 -154.5 44t-193.5 22q-99 0 -151 -33.5t-52 -91.5q0 -62 43.5 -92.5t102.5 -30.5h256v-201h-279
q-27 0 -52 -5.5t-51.5 -19t-42.5 -42.5t-16 -70q0 -65 68.5 -104t189.5 -39q80 0 174.5 19.5t165.5 51.5l82 -196q-218 -101 -454 -101z" />
    <glyph glyph-name="zeta" unicode="&#x3b6;" horiz-adv-x="968" 
d="M817 -422l-151 94q102 125 102 172q0 21 -9.5 38t-29.5 29.5t-41.5 22t-56.5 18t-64 14t-73.5 14.5t-75.5 16q-76 17 -134 45t-106.5 73t-74 114t-25.5 159q0 179 82 358.5t211 323t293 254.5h-496v221h850v-205q-123 -78 -236.5 -178.5t-211 -219t-156 -254
t-58.5 -263.5q0 -49 12 -87t31 -61t48.5 -39.5t56.5 -24.5t65 -15q25 -6 71 -14.5t75 -14.5t71 -17.5t68.5 -23.5t56.5 -33t47.5 -45.5t29 -60.5t11.5 -80q0 -148 -182 -330z" />
    <glyph glyph-name="eta" unicode="&#x3b7;" horiz-adv-x="1337" 
d="M928 -451v1129q0 131 -36.5 181t-143.5 50q-127 0 -289 -90v-819h-273v864q0 38 -25 52.5t-75 17.5l12 209q8 0 31.5 0.5t43 0.5t32.5 -1q218 -11 248 -148q192 152 381 152q72 0 128 -13t94 -33t65 -54.5t41.5 -67.5t23 -82.5t10.5 -89.5t2 -98v-1160h-270z" />
    <glyph glyph-name="theta" unicode="&#x3b8;" horiz-adv-x="1251" 
d="M625 -25q-121 0 -212 39t-148.5 106t-93 169.5t-49 216t-13.5 258.5q0 151 16.5 272t55 223.5t99 171t151 106.5t208.5 38q91 0 164.5 -21.5t126 -59.5t91.5 -96t63 -123.5t38.5 -150.5t19.5 -168.5t5 -185.5q0 -145 -15.5 -262t-53 -218.5t-96.5 -169.5t-149 -106.5
t-208 -38.5zM379 891h502q-1 91 -7 155.5t-21.5 127t-42.5 100.5t-72 61t-107 23q-61 0 -105.5 -22.5t-71.5 -60.5t-43.5 -100t-23 -127.5t-8.5 -156.5zM635 199q61 0 105 23t70.5 62.5t42.5 104.5t21.5 136.5t6.5 172.5h-502q0 -104 6 -176.5t22 -137.5t44 -103t74 -60
t110 -22z" />
    <glyph glyph-name="iota" unicode="&#x3b9;" horiz-adv-x="608" 
d="M387 -23q-115 0 -180.5 67.5t-65.5 213.5v860h275v-813q0 -50 26.5 -75t73.5 -27q27 0 43 2l14 -205q-74 -23 -186 -23z" />
    <glyph glyph-name="kappa" unicode="&#x3ba;" horiz-adv-x="1148" 
d="M150 0v1118h272v-532l391 532h295l-424 -516l473 -602h-321l-414 569v-569h-272z" />
    <glyph glyph-name="lambda" unicode="&#x3bb;" horiz-adv-x="1142" 
d="M1102 -29q-88 4 -146 18t-98.5 46t-64 76t-43.5 116l-132 457l-53 186l-55 -188l-211 -682h-299l401 1112h99l-19 64q-22 85 -65 130.5t-137 45.5q-108 0 -205 -39l-56 207q51 20 135 36.5t152 16.5q97 0 166.5 -21t118.5 -66.5t81 -107t60 -153.5l262 -906
q11 -39 27.5 -66t37 -41.5t35.5 -20.5t35 -11z" />
    <glyph glyph-name="uni03BC" unicode="&#x3bc;" horiz-adv-x="1331" 
d="M150 -451v1569h270v-696q0 -113 36.5 -161t139.5 -48q117 0 281 90v815h274v-848q0 -42 28.5 -57.5t90.5 -13.5l-8 -209q-62 -4 -99 -4q-114 0 -183.5 33t-88.5 114q-201 -162 -383 -162q-23 0 -50.5 6t-37.5 15v-443h-270z" />
    <glyph glyph-name="nu" unicode="&#x3bd;" horiz-adv-x="1120" 
d="M367 0l-359 1118h293l234 -862q249 424 249 707q0 61 -16 155h287q14 -79 14 -143q0 -173 -102 -405.5t-318 -569.5h-282z" />
    <glyph glyph-name="xi" unicode="&#x3be;" horiz-adv-x="1013" 
d="M807 -420l-152 92q30 34 66.5 92t36.5 86q0 81 -195 119q-59 13 -103.5 25t-99 31.5t-94 42t-79 55t-64 71.5t-40 91t-15.5 114q0 156 119.5 274t299.5 158q-82 19 -152.5 61.5t-119.5 113t-49 153.5q0 191 150 303.5t413 112.5q118 0 268 -33l-34 -217q-142 27 -246 27
q-285 0 -285 -209q0 -55 25 -95t64 -63.5t101 -38t120 -20t137 -8.5v-203q-84 -6 -152.5 -16t-143 -31.5t-124.5 -52t-82.5 -80t-32.5 -113.5q0 -36 10 -66t30.5 -52t43 -38.5t57.5 -30.5t63 -22.5t70 -19.5q18 -5 66 -16.5t68 -17.5t60 -19.5t58.5 -25t45.5 -32.5t39.5 -44
t22 -56t9.5 -72q0 -88 -56 -176.5t-124 -153.5z" />
    <glyph glyph-name="omicron" unicode="&#x3bf;" horiz-adv-x="1224" 
d="M602 -25q-245 0 -383.5 153t-138.5 421q0 139 40 252t111.5 188.5t170.5 116.5t216 41q260 0 392.5 -153.5t132.5 -434.5q0 -141 -41.5 -253t-115.5 -184t-171.5 -109.5t-212.5 -37.5zM616 195q71 0 120.5 27.5t77 79t39 114t11.5 143.5q0 371 -252 371
q-72 0 -123.5 -30.5t-79.5 -84.5t-40.5 -117.5t-12.5 -140.5q0 -362 260 -362z" />
    <glyph glyph-name="pi" unicode="&#x3c0;" horiz-adv-x="1370" 
d="M1106 -23q-115 0 -180.5 67.5t-65.5 213.5v643h-387v-901h-272v901h-131v217h1198v-217h-135v-596q0 -50 27.5 -75t72.5 -27q29 0 45 2l14 -205q-74 -23 -186 -23z" />
    <glyph glyph-name="rho" unicode="&#x3c1;" horiz-adv-x="1241" 
d="M119 -451v1006q0 290 136.5 440t389.5 150q138 0 237 -40.5t159 -119.5t88 -186.5t28 -249.5q0 -143 -40.5 -253t-114.5 -179.5t-175.5 -104.5t-226.5 -35q-114 0 -209 31v-459h-272zM391 563v-336q114 -30 223 -30q78 0 131.5 24.5t82 74t40 109.5t11.5 144q0 63 -5 113
t-20.5 102t-41.5 86t-71 56t-106 22q-60 0 -104 -20t-70.5 -52.5t-42.5 -81.5t-21.5 -98.5t-5.5 -112.5z" />
    <glyph glyph-name="uni03C2" unicode="&#x3c2;" horiz-adv-x="1056" 
d="M786 -420l-153 92q31 37 65.5 93.5t34.5 84.5q0 27 -17 48.5t-49 36.5t-61 24t-69 18q-54 12 -93.5 23.5t-90 33.5t-86.5 49.5t-73 72.5t-60 100.5t-37.5 135t-14.5 175.5q0 259 154.5 419.5t425.5 160.5q197 0 335 -72l-73 -203q-67 28 -121.5 39t-134.5 11
q-140 0 -223 -90.5t-83 -266.5q0 -61 7.5 -111t18.5 -84t32 -62t38.5 -44t47.5 -30.5t50 -21.5t54 -17q25 -8 72 -20.5t74 -21t65 -23t60 -32.5t44 -44t32 -63t10 -83q0 -147 -181 -328z" />
    <glyph glyph-name="sigma" unicode="&#x3c3;" horiz-adv-x="1316" 
d="M616 -23q-257 0 -396.5 148.5t-139.5 413.5q0 267 154.5 433.5t422.5 166.5q217 0 635 -17v-227l-221 6q88 -119 88 -342q0 -131 -42.5 -241t-115.5 -184t-172.5 -115.5t-212.5 -41.5zM631 197q250 0 250 362q0 47 -3.5 85.5t-14 90t-36.5 96.5t-65 78l-84 2
q-158 2 -240 -87.5t-82 -268.5q0 -171 62.5 -264.5t212.5 -93.5z" />
    <glyph glyph-name="tau" unicode="&#x3c4;" horiz-adv-x="976" 
d="M618 -25q-303 0 -303 336v590h-297v217h918v-217h-346v-555q0 -70 33.5 -104.5t91.5 -34.5q65 0 135 20l37 -194q-99 -58 -269 -58z" />
    <glyph glyph-name="upsilon" unicode="&#x3c5;" horiz-adv-x="1273" 
d="M641 -23q-220 0 -347.5 114t-127.5 331v383q-1 49 -29.5 77t-75.5 31l27 224q101 -1 169.5 -23.5t107.5 -66.5t55 -102.5t16 -141.5l-2 -361q0 -124 59.5 -184.5t159.5 -60.5q120 0 187 106.5t67 306.5q0 148 -33 267.5t-88 240.5h287q103 -233 103 -510
q0 -172 -64.5 -315t-188 -229.5t-282.5 -86.5z" />
    <glyph glyph-name="phi" unicode="&#x3c6;" horiz-adv-x="1583" 
d="M653 -451v428q-571 40 -571 570q0 268 147.5 420t423.5 180v244h273v-240q575 -40 575 -592q0 -272 -147 -416t-428 -166v-428h-273zM653 193v737q-70 -11 -122 -35.5t-84.5 -57.5t-53 -78.5t-28 -93t-7.5 -106.5q0 -155 66 -247.5t229 -118.5zM926 190q88 12 148 43
t91.5 81t44.5 108.5t13 138.5q0 73 -12.5 129.5t-43.5 108.5t-91.5 85t-149.5 46v-740z" />
    <glyph glyph-name="chi" unicode="&#x3c7;" horiz-adv-x="1077" 
d="M1063 -459q-79 1 -132.5 14.5t-94.5 49.5t-68 77.5t-66 118.5l-163 344l-238 -596h-321l432 830l-215 426q-58 113 -181 129l52 213q51 -1 91.5 -7.5t71 -15.5t57 -28t44 -36t38 -49.5t33.5 -57.5t35 -72l129 -263l178 500h330l-377 -753l240 -478q35 -70 71.5 -99
t86.5 -34z" />
    <glyph glyph-name="psi" unicode="&#x3c8;" horiz-adv-x="1630" 
d="M694 -451v435q-265 23 -398.5 157.5t-133.5 372.5v293q0 52 -28.5 82t-76.5 33l27 223q193 -10 270.5 -90.5t77.5 -245.5v-277q-3 -264 262 -311v1170h273v-1168q148 25 225.5 126t77.5 276q0 258 -107 493h287q88 -191 88 -481q0 -164 -65.5 -299.5t-196 -228
t-309.5 -119.5v-441h-273z" />
    <glyph glyph-name="omega" unicode="&#x3c9;" horiz-adv-x="1746" 
d="M524 -23q-136 0 -236.5 67.5t-151 181.5t-50.5 259q0 89 9.5 158t36.5 152t85.5 164t147.5 159h303q-144 -121 -226 -276t-82 -324q0 -47 8.5 -94t28.5 -98t62.5 -83t101.5 -32q75 0 125.5 66.5t50.5 181.5v278h271v-274q0 -120 50 -186t126 -66q59 0 101.5 32t62 83
t28 98t8.5 94q0 167 -83.5 324.5t-227.5 275.5h318q80 -71 135 -149.5t83.5 -159t40 -155t11.5 -158.5q0 -135 -54 -252t-162 -192t-249 -75q-65 0 -132.5 25t-123.5 78t-72 123q-40 -110 -139 -168t-205 -58z" />
    <glyph glyph-name="iotadieresis" unicode="&#x3ca;" horiz-adv-x="608" 
d="M139 1337h-260v262h260v-262zM649 1337h-258v262h258v-262zM387 -23q-115 0 -180.5 67.5t-65.5 213.5v860h275v-813q0 -50 26.5 -75t73.5 -27q27 0 43 2l14 -205q-74 -23 -186 -23z" />
    <glyph glyph-name="upsilondieresis" unicode="&#x3cb;" horiz-adv-x="1273" 
d="M473 1337h-260v262h260v-262zM983 1337h-258v262h258v-262zM641 -23q-220 0 -347.5 114t-127.5 331v383q-1 49 -29.5 77t-75.5 31l27 224q101 -1 169.5 -23.5t107.5 -66.5t55 -102.5t16 -141.5l-2 -361q0 -124 59.5 -184.5t159.5 -60.5q120 0 187 106.5t67 306.5
q0 148 -33 267.5t-88 240.5h287q103 -233 103 -510q0 -172 -64.5 -315t-188 -229.5t-282.5 -86.5z" />
    <glyph glyph-name="omicrontonos" unicode="&#x3cc;" horiz-adv-x="1224" 
d="M496 1282l147 324h262l-192 -324h-217zM602 -25q-245 0 -383.5 153t-138.5 421q0 139 40 252t111.5 188.5t170.5 116.5t216 41q260 0 392.5 -153.5t132.5 -434.5q0 -141 -41.5 -253t-115.5 -184t-171.5 -109.5t-212.5 -37.5zM616 195q71 0 120.5 27.5t77 79t39 114
t11.5 143.5q0 371 -252 371q-72 0 -123.5 -30.5t-79.5 -84.5t-40.5 -117.5t-12.5 -140.5q0 -362 260 -362z" />
    <glyph glyph-name="upsilontonos" unicode="&#x3cd;" horiz-adv-x="1273" 
d="M473 1282l148 324h262l-193 -324h-217zM641 -23q-220 0 -347.5 114t-127.5 331v383q-1 49 -29.5 77t-75.5 31l27 224q101 -1 169.5 -23.5t107.5 -66.5t55 -102.5t16 -141.5l-2 -361q0 -124 59.5 -184.5t159.5 -60.5q120 0 187 106.5t67 306.5q0 148 -33 267.5t-88 240.5
h287q103 -233 103 -510q0 -172 -64.5 -315t-188 -229.5t-282.5 -86.5z" />
    <glyph glyph-name="omegatonos" unicode="&#x3ce;" horiz-adv-x="1746" 
d="M743 1282l148 324h262l-192 -324h-218zM524 -23q-136 0 -236.5 67.5t-151 181.5t-50.5 259q0 89 9.5 158t36.5 152t85.5 164t147.5 159h303q-144 -121 -226 -276t-82 -324q0 -47 8.5 -94t28.5 -98t62.5 -83t101.5 -32q75 0 125.5 66.5t50.5 181.5v278h271v-274
q0 -120 50 -186t126 -66q59 0 101.5 32t62 83t28 98t8.5 94q0 167 -83.5 324.5t-227.5 275.5h318q80 -71 135 -149.5t83.5 -159t40 -155t11.5 -158.5q0 -135 -54 -252t-162 -192t-249 -75q-65 0 -132.5 25t-123.5 78t-72 123q-40 -110 -139 -168t-205 -58z" />
    <glyph glyph-name="uni03D0" unicode="&#x3d0;" horiz-adv-x="1280" 
d="M655 -25q-98 0 -176.5 19.5t-148 68t-116 125.5t-73 196.5t-26.5 277.5v215q0 197 69 355t198 249.5t296 91.5q110 0 195.5 -27.5t136.5 -75.5t76.5 -107t25.5 -126q0 -115 -52.5 -189.5t-162.5 -142.5q148 -32 227.5 -145.5t79.5 -292.5q0 -108 -42.5 -201t-116.5 -156
t-175 -99t-215 -36zM655 197q123 0 196 70.5t73 211.5q0 140 -67.5 217.5t-188.5 77.5t-279 -74v-49q0 -245 64.5 -349.5t201.5 -104.5zM389 866q35 15 104 41.5t101 40.5q244 108 244 226q0 81 -53 130.5t-138 49.5q-119 0 -188.5 -106t-69.5 -314v-68z" />
    <glyph glyph-name="uni03D8" unicode="&#x3d8;" horiz-adv-x="1511" 
d="M631 -340v326q-541 110 -541 739q0 159 35.5 287.5t96.5 215t146.5 145t182.5 84.5t207 26q115 0 214.5 -27.5t183 -87t142.5 -146.5t92 -211t33 -276q0 -608 -538 -741v-334h-254zM760 209q182 0 290.5 132t108.5 386q0 120 -23 216.5t-70.5 170t-126 113t-183.5 39.5
q-84 0 -152 -26t-114.5 -73t-77.5 -114t-45.5 -146.5t-14.5 -173.5q0 -257 107 -390.5t301 -133.5z" />
    <glyph glyph-name="uni03D9" unicode="&#x3d9;" horiz-adv-x="1218" 
d="M485 -428v491q-195 31 -303 169.5t-108 357.5q0 260 148 407.5t390 147.5q258 0 394.5 -143.5t136.5 -401.5q0 -216 -109.5 -353t-290.5 -175v-500h-258zM610 260q273 0 273 338q0 73 -14 132t-45 107.5t-86.5 75.5t-131.5 27t-130.5 -27.5t-85 -76.5t-44.5 -108
t-14 -130q0 -338 278 -338z" />
    <glyph glyph-name="uni03DA" unicode="&#x3da;" horiz-adv-x="1165" 
d="M1112 1348l-90 -209q-164 92 -344 92q-170 0 -253 -96.5t-83 -278.5q0 -102 23 -178.5t62 -121.5t89.5 -76t106 -48t111 -31.5t106 -32.5t89.5 -45.5t62 -76t23 -117.5q0 -88 -37.5 -162.5t-98.5 -125t-143.5 -88.5t-167 -59t-174.5 -30l-51 182q97 20 168.5 42t130 50.5
t88 65t29.5 80.5q0 30 -19 52t-51.5 34.5t-76 25.5t-92.5 24.5t-101 33t-101 49t-92.5 74.5t-76 107.5t-51.5 150.5t-19 201q0 299 157 462.5t420 163.5q264 0 457 -114z" />
    <glyph glyph-name="uni03DB" unicode="&#x3db;" horiz-adv-x="1054" 
d="M1012 1051l-88 -207q-77 39 -141 55t-154 16q-152 0 -219.5 -91.5t-67.5 -264.5q0 -147 57 -221.5t179 -89.5q78 -10 135 -28t102 -50t67.5 -82t22.5 -119q0 -156 -149 -251.5t-398 -98.5v209q155 1 225 35t70 80q0 34 -31 48.5t-106 24.5q-75 6 -136.5 24.5t-118.5 58
t-95.5 97.5t-61 147t-22.5 204q0 287 139.5 441.5t384.5 154.5q227 0 406 -92z" />
    <glyph glyph-name="uni03DC" unicode="&#x3dc;" horiz-adv-x="1210" 
d="M1139 1227h-672v-432h627v-209h-627v-586h-279v1448h951v-221z" />
    <glyph glyph-name="uni03DD" unicode="&#x3dd;" horiz-adv-x="911" 
d="M924 1536l-52 -213q-90 18 -194 18q-89 0 -131.5 -40.5t-42.5 -129.5v-405h239v-207h-239v-1010h-275v1010h-163v207h163v418q0 96 25 168t65 114t100 68t119 34.5t132 8.5q133 0 254 -41z" />
    <glyph glyph-name="uni03DE" unicode="&#x3de;" horiz-adv-x="1118" 
d="M733 -221l-295 -68l310 789h-742l420 975l299 34l-324 -772h727z" />
    <glyph glyph-name="uni03DF" unicode="&#x3df;" horiz-adv-x="1112" 
d="M700 -172l-297 -66l316 758h-733l432 936l301 33l-336 -731h717z" />
    <glyph glyph-name="uni03E0" unicode="&#x3e0;" horiz-adv-x="1542" 
d="M1059 -150l-133 166q265 200 286 465q0 27 -2 35l-778 -506l-100 164l846 553q-14 35 -43.5 85t-53.5 77q-159 -108 -464.5 -309t-436.5 -285l-104 166l821 532q-99 54 -233 54q-88 0 -190.5 -31t-199.5 -86l-94 172q117 83 243.5 122.5t283.5 39.5q210 0 379 -100
t260.5 -264t91.5 -355q0 -116 -35 -227t-93 -198.5t-120.5 -154t-130.5 -115.5z" />
    <glyph glyph-name="uni03E1" unicode="&#x3e1;" horiz-adv-x="1472" 
d="M997 -158l-131 162q138 104 207.5 223t79.5 238v35l-772 -504l-102 166l837 549q-12 31 -42 82.5t-50 76.5l-895 -589l-106 165l813 529q-104 49 -226 49q-181 0 -387 -115l-94 166q119 84 244 125t280 41q157 0 293 -57.5t229.5 -155t147 -227.5t53.5 -273
q0 -118 -36.5 -230t-96.5 -198t-120.5 -148.5t-125.5 -109.5z" />
    <glyph glyph-name="uni0400" unicode="&#x400;" 
d="M829 1526l-524 112l51 220l516 -148zM188 0v1448h897v-221h-618v-396h573v-208h-573v-402h666v-221h-945z" />
    <glyph glyph-name="uni0401" unicode="&#x401;" 
d="M518 1565h-260v260h260v-260zM1014 1565h-258v260h258v-260zM188 0v1448h897v-221h-618v-396h573v-208h-573v-402h666v-221h-945z" />
    <glyph glyph-name="uni0402" unicode="&#x402;" horiz-adv-x="1615" 
d="M1042 -451l-141 185q75 62 109 97q235 238 254 540q2 25 2 51q0 132 -66.5 205t-189.5 73q-156 0 -299 -73v-627h-281v1225h-407v223h1208v-223h-520v-381q198 74 360 74q241 0 360 -129t119 -351q0 -504 -508 -889z" />
    <glyph glyph-name="uni0403" unicode="&#x403;" horiz-adv-x="1155" 
d="M479 1526l-43 184l514 150l51 -218zM188 0v1448h951v-221h-672v-1227h-279z" />
    <glyph glyph-name="uni0404" unicode="&#x404;" horiz-adv-x="1388" 
d="M879 -20q-379 0 -581 193.5t-202 541.5q0 365 198 558t576 193q256 0 439 -80l-74 -208q-75 21 -107.5 29.5t-101.5 17t-152 8.5q-196 2 -327 -98t-158 -301h705v-209h-701q30 -203 170 -306.5t352 -103.5q186 0 338 45l62 -215q-182 -65 -436 -65z" />
    <glyph glyph-name="uni0405" unicode="&#x405;" horiz-adv-x="1165" 
d="M524 -25q-254 0 -452 111l82 213q108 -46 187.5 -68t182.5 -22q130 0 208.5 49.5t78.5 140.5q0 45 -24 82t-64.5 63t-92.5 49t-110 46t-116 48t-110 60.5t-92.5 79t-64.5 107t-24 141.5q0 76 27 141t73.5 111t108.5 78.5t132.5 48.5t145.5 16q142 0 237 -25.5t179 -74.5
l-82 -207q-83 37 -157 55.5t-169 18.5q-98 0 -159.5 -44t-61.5 -120q0 -43 30.5 -80t80 -63t113 -54.5t130 -55t130 -65.5t113 -83.5t80 -111.5t30.5 -148q0 -109 -47.5 -194.5t-128 -137.5t-181 -78.5t-213.5 -26.5z" />
    <glyph glyph-name="uni0406" unicode="&#x406;" horiz-adv-x="655" 
d="M188 0v1448h279v-1448h-279z" />
    <glyph glyph-name="uni0407" unicode="&#x407;" horiz-adv-x="655" 
d="M188 0v1448h279v-1448h-279zM211 1565h-260v260h260v-260zM707 1565h-258v260h258v-260z" />
    <glyph glyph-name="uni0408" unicode="&#x408;" horiz-adv-x="659" 
d="M2 -397l-106 202q93 51 150.5 100t90.5 110t44.5 128t11.5 166v1139h282v-1135q0 -71 -3.5 -126t-15.5 -118t-33 -113t-56.5 -102.5t-84.5 -95t-120 -83t-160 -72.5z" />
    <glyph glyph-name="uni0409" unicode="&#x409;" horiz-adv-x="2113" 
d="M115 -45l-117 244q228 99 285 215q91 180 127 1034h880v-494h144q304 0 465 -124.5t161 -354.5q0 -220 -154.5 -347.5t-439.5 -127.5h-458v1241h-363q-28 -439 -60.5 -655t-99.5 -340q-96 -176 -370 -291zM1442 735h-152v-514h172q158 0 234 67.5t76 188.5
q0 258 -330 258z" />
    <glyph glyph-name="uni040A" unicode="&#x40a;" horiz-adv-x="2181" 
d="M188 0v1448h279v-571h623v571h280v-571h143q302 0 462.5 -114t160.5 -327q0 -201 -160 -318.5t-444 -117.5h-442v659h-623v-659h-279zM1522 659h-152v-438h164q157 0 234 58t77 161q0 219 -323 219z" />
    <glyph glyph-name="uni040B" unicode="&#x40b;" horiz-adv-x="1636" 
d="M430 0v1225h-407v223h1208v-223h-520v-381q194 76 356 76q248 0 365.5 -102.5t117.5 -301.5v-516h-280v471q0 58 -15.5 100t-39.5 66.5t-61 39t-73 19t-82 4.5q-133 0 -288 -82v-618h-281z" />
    <glyph glyph-name="uni040C" unicode="&#x40c;" horiz-adv-x="1406" 
d="M188 0v1448h279v-662l547 662h356l-592 -674l627 -774h-358l-580 766v-766h-279zM549 1534l-43 184l514 150l51 -217z" />
    <glyph glyph-name="uni040D" unicode="&#x40d;" horiz-adv-x="1630" 
d="M997 1526l-524 112l51 220l516 -148zM188 0v1448h279v-860l-6 -203l131 211l571 852h279v-1448h-279v860l6 203l-114 -182l-588 -881h-279z" />
    <glyph glyph-name="uni040E" unicode="&#x40e;" horiz-adv-x="1271" 
d="M367 -18l-80 225q63 20 98 34.5t72.5 37t62 53.5t45.5 76l27 53h-90l-512 987h313l381 -780l289 780h313l-461 -1032q-45 -100 -89.5 -170t-78 -110.5t-88 -71.5t-86.5 -43.5t-107 -35.5zM653 1542q-120 0 -223.5 54t-165.5 151l123 129q114 -125 266 -125q153 0 267 125
l122 -129q-62 -97 -165.5 -151t-223.5 -54z" />
    <glyph glyph-name="uni040F" unicode="&#x40f;" horiz-adv-x="1591" 
d="M659 -313v313h-471v1448h279v-1231h655v1231h281v-1448h-465v-313h-279z" />
    <glyph glyph-name="uni0410" unicode="&#x410;" horiz-adv-x="1433" 
d="M-18 0l571 1448h362l502 -1448h-293l-157 469h-523l-178 -469h-284zM522 676h375l-174 594z" />
    <glyph glyph-name="uni0411" unicode="&#x411;" horiz-adv-x="1337" 
d="M188 0v1448h957v-221h-676v-316h158q312 0 473.5 -115t161.5 -343q0 -217 -156.5 -335t-448.5 -118h-469zM633 692h-164v-471h182q164 0 242 62.5t78 173.5q0 235 -338 235z" />
    <glyph glyph-name="uni0412" unicode="&#x412;" horiz-adv-x="1359" 
d="M188 0v1448h465q255 0 383.5 -98.5t128.5 -286.5q0 -97 -49.5 -172.5t-122.5 -108.5v-4q47 -12 93 -38.5t88.5 -67.5t69 -103.5t26.5 -134.5q0 -99 -30 -176.5t-94.5 -136t-173 -90t-257.5 -31.5h-527zM469 221h219q152 0 226.5 46.5t74.5 158.5q0 114 -80 163.5
t-247 49.5h-193v-418zM469 838h172q125 0 185.5 46.5t60.5 149.5q0 109 -69.5 154t-213.5 45h-135v-395z" />
    <glyph glyph-name="uni0413" unicode="&#x413;" horiz-adv-x="1155" 
d="M188 0v1448h951v-221h-672v-1227h-279z" />
    <glyph glyph-name="uni0414" unicode="&#x414;" horiz-adv-x="1576" 
d="M23 -313v532h137q101 176 153 348q78 260 113 881h881v-1229h202v-532h-264v313h-956v-313h-266zM465 217h563v1024h-356q-40 -487 -94 -711q-40 -144 -113 -313z" />
    <glyph glyph-name="uni0415" unicode="&#x415;" 
d="M188 0v1448h897v-221h-618v-396h573v-208h-573v-402h666v-221h-945z" />
    <glyph glyph-name="uni0416" unicode="&#x416;" horiz-adv-x="2021" 
d="M870 0v739l-508 -739h-352l555 764l-510 684h342l473 -676v676h281v-678l473 678h342l-508 -684l553 -764h-352l-508 733v-733h-281z" />
    <glyph glyph-name="uni0417" unicode="&#x417;" horiz-adv-x="1183" 
d="M537 -16q-282 0 -486 112l92 211q197 -96 371 -96q130 0 208.5 51.5t78.5 161.5q0 205 -305 205h-181v207h181q117 0 183 54t66 148t-60 143.5t-175 49.5q-55 0 -115.5 -12t-96.5 -24t-95 -34l-90 191q200 104 424 104q235 0 363 -102t128 -260q0 -72 -20 -132.5
t-53.5 -101.5t-65.5 -67t-68 -45v-5q31 -9 62 -23t69 -42.5t67 -64t48.5 -90.5t19.5 -120q0 -62 -16 -119t-56.5 -112.5t-101 -96.5t-157.5 -66t-219 -25z" />
    <glyph glyph-name="uni0418" unicode="&#x418;" horiz-adv-x="1630" 
d="M188 0v1448h279v-860l-6 -203l131 211l571 852h279v-1448h-279v860l6 203l-114 -182l-588 -881h-279z" />
    <glyph glyph-name="uni0419" unicode="&#x419;" horiz-adv-x="1630" 
d="M821 1542q-120 0 -223.5 54t-165.5 151l123 129q114 -125 266 -125t266 125l123 -129q-62 -97 -165.5 -151t-223.5 -54zM188 0v1448h279v-860l-6 -203l131 211l571 852h279v-1448h-279v860l6 203l-114 -182l-588 -881h-279z" />
    <glyph glyph-name="uni041A" unicode="&#x41a;" horiz-adv-x="1406" 
d="M188 0v1448h279v-662l547 662h356l-592 -674l627 -774h-358l-580 766v-766h-279z" />
    <glyph glyph-name="uni041B" unicode="&#x41b;" horiz-adv-x="1476" 
d="M115 -45l-117 244q228 99 285 215q91 180 127 1034h878v-1448h-280v1241h-363q-3 -32 -8 -93q-37 -425 -64 -607.5t-88 -294.5q-96 -176 -370 -291z" />
    <glyph glyph-name="uni041C" unicode="&#x41c;" horiz-adv-x="1994" 
d="M188 0v1448h349l440 -1217l498 1217h331v-1448h-280v702l12 297h-8l-395 -999h-334l-342 1001h-8l16 -286v-715h-279z" />
    <glyph glyph-name="uni041D" unicode="&#x41d;" horiz-adv-x="1617" 
d="M188 0v1448h279v-612h684v612h279v-1448h-279v618h-684v-618h-279z" />
    <glyph glyph-name="uni041E" unicode="&#x41e;" horiz-adv-x="1701" 
d="M834 -25q-357 0 -548.5 201.5t-191.5 550.5q0 341 209 542t565 201q185 0 327.5 -56t232 -157.5t135 -236t45.5 -297.5q0 -346 -202.5 -547t-571.5 -201zM840 199q101 0 182 26.5t137 73t93 113t54 144.5t17 169q0 234 -120 378t-349 144q-121 0 -214 -39t-149.5 -109.5
t-85 -163.5t-28.5 -206q0 -111 27.5 -205t82.5 -168t145.5 -115.5t207.5 -41.5z" />
    <glyph glyph-name="uni041F" unicode="&#x41f;" horiz-adv-x="1597" 
d="M188 0v1448h1221v-1448h-279v1231h-663v-1231h-279z" />
    <glyph glyph-name="uni0420" unicode="&#x420;" horiz-adv-x="1294" 
d="M188 0v1448h529q237 0 380.5 -130.5t143.5 -361.5q0 -104 -40.5 -194.5t-117.5 -159.5t-199 -109t-274 -40h-141v-453h-281zM469 1227v-555h154q161 0 244 73t83 203q0 136 -66 207.5t-212 71.5h-203z" />
    <glyph glyph-name="uni0421" unicode="&#x421;" horiz-adv-x="1388" 
d="M881 -25q-379 0 -582 195.5t-203 544.5t207 552t569 203q247 0 439 -88l-78 -206q-76 23 -115 32.5t-101 17.5t-140 9q-107 1 -195.5 -29t-156 -89.5t-105 -157t-37.5 -224.5q0 -255 145.5 -387.5t386.5 -132.5q180 0 338 47l62 -215q-100 -37 -198.5 -54.5t-235.5 -17.5
z" />
    <glyph glyph-name="uni0422" unicode="&#x422;" horiz-adv-x="1259" 
d="M489 0v1225h-469v223h1219v-223h-469v-1225h-281z" />
    <glyph glyph-name="uni0423" unicode="&#x423;" horiz-adv-x="1271" 
d="M367 -18l-80 225q63 20 98 34.5t72.5 37t62 53.5t45.5 76l27 53h-90l-512 987h313l381 -780l289 780h313l-461 -1032q-45 -100 -89.5 -170t-78 -110.5t-88 -71.5t-86.5 -43.5t-107 -35.5z" />
    <glyph glyph-name="uni0424" unicode="&#x424;" horiz-adv-x="1697" 
d="M711 0v174q-140 0 -256.5 36.5t-204.5 108t-137.5 185.5t-49.5 260t49.5 260t137.5 185.5t204.5 108t256.5 36.5v155h274v-155q111 0 208 -23t178 -70.5t139 -116.5t90 -166t32 -214t-32 -214t-90 -166t-139 -116.5t-178 -70.5t-208 -23v-174h-274zM985 381
q171 0 270 100.5t99 282.5q0 186 -98.5 284.5t-270.5 98.5v-766zM711 381v766q-172 0 -270.5 -98.5t-98.5 -284.5q0 -182 99 -282.5t270 -100.5z" />
    <glyph glyph-name="uni0425" unicode="&#x425;" horiz-adv-x="1343" 
d="M4 0l516 752l-446 696h319l289 -483l309 483h312l-474 -692l486 -756h-324l-325 543l-347 -543h-315z" />
    <glyph glyph-name="uni0426" unicode="&#x426;" horiz-adv-x="1665" 
d="M1333 -313v313h-1145v1448h279v-1231h649v1231h281v-1229h202v-532h-266z" />
    <glyph glyph-name="uni0427" unicode="&#x427;" horiz-adv-x="1396" 
d="M928 0v610q-187 -73 -365 -73q-252 0 -366.5 103.5t-114.5 297.5v510h280v-465q0 -57 15.5 -99t40 -66.5t62 -39.5t73.5 -19.5t82 -4.5q140 0 293 84v610h280v-1448h-280z" />
    <glyph glyph-name="uni0428" unicode="&#x428;" horiz-adv-x="2119" 
d="M188 0v1448h279v-1231h453v1231h280v-1231h451v1231h280v-1448h-1743z" />
    <glyph glyph-name="uni0429" unicode="&#x429;" horiz-adv-x="2199" 
d="M1868 -313v313h-1680v1448h279v-1231h453v1231h280v-1231h451v1231h280v-1229h203v-532h-266z" />
    <glyph glyph-name="uni042A" unicode="&#x42a;" horiz-adv-x="1538" 
d="M432 0v1231h-409v217h692v-494h145q303 0 465 -124.5t162 -354.5q0 -220 -155.5 -347.5t-440.5 -127.5h-459zM868 735h-153v-514h172q158 0 233.5 67.5t75.5 188.5q0 127 -82.5 192.5t-245.5 65.5z" />
    <glyph glyph-name="uni042B" unicode="&#x42b;" horiz-adv-x="1880" 
d="M188 0v1448h283v-494h143q306 0 467.5 -121.5t161.5 -351.5q0 -221 -156 -351t-440 -130h-459zM1411 0v1448h279v-1448h-279zM623 735h-152v-514h172q157 0 233 71t76 193q0 250 -329 250z" />
    <glyph glyph-name="uni042C" unicode="&#x42c;" horiz-adv-x="1294" 
d="M188 0v1448h283v-494h143q306 0 467.5 -121.5t161.5 -351.5q0 -221 -156 -351t-440 -130h-459zM623 735h-152v-514h172q157 0 233 71t76 193q0 250 -329 250z" />
    <glyph glyph-name="uni042D" unicode="&#x42d;" horiz-adv-x="1388" 
d="M510 -20q-257 0 -434 65l61 215q152 -45 336 -45q140 0 248.5 43.5t181.5 137t92 229.5h-698v209h702q-27 202 -157.5 300.5t-327.5 96.5q-120 -1 -192 -13.5t-166 -39.5l-76 208q178 78 438 78q380 0 577 -189.5t197 -553.5q0 -349 -201.5 -545t-580.5 -196z" />
    <glyph glyph-name="uni042E" unicode="&#x42e;" horiz-adv-x="2306" 
d="M1436 -25q-328 0 -517 171t-217 472h-235v-618h-279v1448h279v-612h238q30 303 235 468.5t535 165.5q185 0 326.5 -54t230.5 -154t133.5 -235.5t44.5 -303.5q0 -354 -201.5 -551t-572.5 -197zM1442 199q126 0 220.5 40t151 112.5t84 165.5t27.5 208q0 234 -120 378
t-349 144q-121 0 -214 -39t-149.5 -109.5t-85 -163.5t-28.5 -206q0 -111 27.5 -205t82.5 -168t145.5 -115.5t207.5 -41.5z" />
    <glyph glyph-name="uni042F" unicode="&#x42f;" horiz-adv-x="1417" 
d="M377 0h-318l373 598q-123 45 -189.5 144t-66.5 231q0 226 144.5 350.5t379.5 124.5h529v-1448h-283v528h-139q-86 0 -115 4zM795 731h151v496h-186q-147 0 -221 -63.5t-74 -184.5q0 -248 330 -248z" />
    <glyph glyph-name="uni0430" unicode="&#x430;" horiz-adv-x="1183" 
d="M420 -18q-160 0 -256 85t-96 240q0 340 460 344l222 2v97q0 93 -52.5 128t-171.5 35q-158 0 -323 -51l-56 201q206 82 428 82q225 0 333 -79t108 -255v-543q0 -38 28.5 -52.5t79.5 -16.5l-10 -207q-20 -2 -53 -2q-253 0 -287 127q-79 -62 -161 -98.5t-193 -36.5zM498 195
q114 0 252 71v221l-207 -8q-97 -2 -153 -40.5t-56 -110.5q0 -66 45.5 -99.5t118.5 -33.5z" />
    <glyph glyph-name="uni0431" unicode="&#x431;" horiz-adv-x="1284" 
d="M631 -20q-244 0 -380 156t-136 476q0 135 16 268.5t60.5 265t111.5 189.5q155 136 784 246l43 -244q-199 -31 -300.5 -49t-209 -46t-141.5 -56q-76 -63 -96 -252q170 92 375 92q440 0 440 -467q0 -147 -42.5 -259t-119.5 -181.5t-178.5 -104t-226.5 -34.5zM651 197
q76 0 132 30.5t86 82.5t43.5 110.5t13.5 126.5q0 125 -61 197.5t-191 72.5q-137 0 -297 -80q-2 -33 -2 -121q0 -214 69 -316.5t207 -102.5z" />
    <glyph glyph-name="uni0432" unicode="&#x432;" horiz-adv-x="1169" 
d="M152 0v1118h497q183 0 283 -76.5t100 -220.5q0 -84 -42.5 -144t-104.5 -85q79 -14 142 -81.5t63 -178.5q0 -154 -118 -243t-315 -89h-505zM424 195h174q211 0 211 143q0 80 -58 111.5t-173 33.5h-154v-288zM424 655h139q99 0 153 34.5t54 103.5q0 131 -201 131h-145v-269
z" />
    <glyph glyph-name="uni0433" unicode="&#x433;" horiz-adv-x="958" 
d="M152 0v1118h782v-209h-510v-909h-272z" />
    <glyph glyph-name="uni0434" unicode="&#x434;" horiz-adv-x="1357" 
d="M33 -301v508h123q55 92 84.5 167t50.5 181q34 175 55 563h780v-911h181v-508h-252v301h-770v-301h-252zM436 207h418v704h-274q-24 -298 -52 -434q-14 -80 -34.5 -138.5t-57.5 -131.5z" />
    <glyph glyph-name="uni0435" unicode="&#x435;" horiz-adv-x="1169" 
d="M657 -25q-135 0 -235.5 27.5t-178 91t-117.5 176t-40 273.5q0 131 27 234t74 171t114.5 113t144.5 64.5t168 19.5q250 0 363 -143.5t113 -419.5v-99h-730q-1 -69 17 -121t47.5 -83t74 -50t91 -25.5t104.5 -6.5q139 0 322 47l43 -207q-180 -62 -402 -62zM367 666h442
q2 131 -50 206.5t-155 75.5q-100 0 -165 -74t-72 -208z" />
    <glyph glyph-name="uni0436" unicode="&#x436;" horiz-adv-x="1665" 
d="M307 0h-295l439 586l-390 532h299l336 -522v522h275v-520l338 520h297l-389 -532l436 -586h-307l-375 537v-537h-275v537z" />
    <glyph glyph-name="uni0437" unicode="&#x437;" horiz-adv-x="991" 
d="M459 -20q-105 0 -214 24.5t-196 67.5l76 207q61 -33 146 -58.5t167 -25.5q79 0 131 36t52 105q0 70 -55.5 101.5t-143.5 31.5h-156v203h148q88 0 131 40.5t43 94.5t-43 87.5t-121 33.5q-51 0 -103.5 -10t-84.5 -21t-84 -31l-64 195q175 84 383 84q95 0 171.5 -24.5
t123 -66t70.5 -93t24 -107.5q0 -97 -45.5 -163t-120.5 -101q87 -23 152 -92t65 -187q0 -61 -25.5 -118t-77 -105.5t-142 -78t-207.5 -29.5z" />
    <glyph glyph-name="uni0438" unicode="&#x438;" horiz-adv-x="1357" 
d="M152 0v1118h272v-592l-6 -164l106 164l410 592h272v-1118h-272v588l4 164l-104 -164l-410 -588h-272z" />
    <glyph glyph-name="uni0439" unicode="&#x439;" horiz-adv-x="1357" 
d="M678 1282q-105 0 -197.5 54t-146.5 147l106 125q104 -121 238 -121q136 0 240 121l106 -125q-54 -93 -147 -147t-199 -54zM152 0v1118h272v-592l-6 -164l106 164l410 592h272v-1118h-272v588l4 164l-104 -164l-410 -588h-272z" />
    <glyph glyph-name="uni043A" unicode="&#x43a;" horiz-adv-x="1177" 
d="M154 0v1118h272v-532l391 532h295l-424 -516l473 -602h-321l-414 569v-569h-272z" />
    <glyph glyph-name="uni043B" unicode="&#x43b;" horiz-adv-x="1261" 
d="M86 -33l-74 221q163 58 219 158q40 71 68 277.5t37 494.5h776v-1118h-274v911h-271q-24 -289 -58 -464t-87 -267q-101 -157 -336 -213z" />
    <glyph glyph-name="uni043C" unicode="&#x43c;" horiz-adv-x="1599" 
d="M152 0v1118h344l292 -891l326 891h334v-1118h-256v492l8 260l-264 -752h-303l-240 756l15 -264v-492h-256z" />
    <glyph glyph-name="uni043D" unicode="&#x43d;" horiz-adv-x="1316" 
d="M152 0v1118h272v-452h469v452h272v-1118h-272v457h-469v-457h-272z" />
    <glyph glyph-name="uni043E" unicode="&#x43e;" horiz-adv-x="1267" 
d="M623 -25q-258 0 -399.5 152.5t-141.5 421.5q0 280 152.5 439t408.5 159q270 0 406.5 -152.5t136.5 -433.5q0 -283 -155 -434.5t-408 -151.5zM637 195q79 0 133.5 27.5t83.5 79t41 113t12 142.5q0 373 -272 373q-277 0 -277 -373q0 -362 279 -362z" />
    <glyph glyph-name="uni043F" unicode="&#x43f;" horiz-adv-x="1296" 
d="M152 0v1118h993v-1118h-273v911h-448v-911h-272z" />
    <glyph glyph-name="uni0440" unicode="&#x440;" horiz-adv-x="1271" 
d="M152 -451v1569h270v-84q78 56 149 83.5t166 27.5q99 0 180 -32t142 -97t95 -171t34 -245q0 -135 -32.5 -242t-87.5 -177t-132 -116t-161.5 -65.5t-180.5 -19.5q-60 0 -172 10v-441h-270zM590 190q159 0 240 109t81 291q0 325 -264 325q-45 0 -93 -11.5t-66.5 -19
t-65.5 -28.5v-649q3 0 35.5 -5t68.5 -8.5t64 -3.5z" />
    <glyph glyph-name="uni0441" unicode="&#x441;" horiz-adv-x="1060" 
d="M686 -25q-319 0 -460.5 137.5t-141.5 419.5q0 301 154 458t432 157q190 0 327 -74l-71 -203q-131 52 -242 52q-159 0 -240.5 -88t-81.5 -293q0 -86 16.5 -146.5t56 -106t110 -67.5t174.5 -22q16 0 31 0.5t26.5 1.5t28.5 3t25 3t28.5 4.5t26.5 5t32 6.5t33 6l39 -211
q-67 -16 -94.5 -22.5t-86.5 -13.5t-122 -7z" />
    <glyph glyph-name="uni0442" unicode="&#x442;" horiz-adv-x="1050" 
d="M389 0v909h-360v209h995v-209h-362v-909h-273z" />
    <glyph glyph-name="uni0443" unicode="&#x443;" horiz-adv-x="1155" 
d="M340 -451l154 451h-107l-375 1118h295l211 -715l53 -188l60 186l241 717h277l-547 -1569h-262z" />
    <glyph glyph-name="uni0444" unicode="&#x444;" horiz-adv-x="1607" 
d="M670 -451v428q-278 0 -433 149t-155 427q0 283 160.5 436.5t427.5 155.5v399h266v-399q284 0 436 -149t152 -435q0 -143 -45 -255t-125 -182t-185.5 -107.5t-232.5 -39.5v-428h-266zM936 197q309 0 309 364q0 170 -74 267t-235 100v-731zM670 193v735q-312 0 -312 -369
q0 -366 312 -366z" />
    <glyph glyph-name="uni0445" unicode="&#x445;" horiz-adv-x="1136" 
d="M10 0l404 571l-377 547h315l217 -375l219 375h310l-375 -545l407 -573h-327l-234 399l-237 -399h-322z" />
    <glyph glyph-name="uni0446" unicode="&#x446;" horiz-adv-x="1363" 
d="M1061 -301v301h-909v1118h272v-911h438v911h273v-911h178v-508h-252z" />
    <glyph glyph-name="uni0447" unicode="&#x447;" horiz-adv-x="1185" 
d="M762 0v451q-153 -58 -307 -58q-209 0 -296 90.5t-87 292.5v342h270v-321q0 -104 42.5 -147.5t145.5 -43.5q118 0 232 49v463h272v-1118h-272z" />
    <glyph glyph-name="uni0448" unicode="&#x448;" horiz-adv-x="1796" 
d="M152 0v1118h272v-911h338v911h272v-911h338v911h273v-1118h-1493z" />
    <glyph glyph-name="uni0449" unicode="&#x449;" horiz-adv-x="1873" 
d="M1571 -301v301h-1419v1118h272v-911h338v911h272v-911h338v911h273v-911h178v-508h-252z" />
    <glyph glyph-name="uni044A" unicode="&#x44a;" horiz-adv-x="1347" 
d="M369 0v911h-340v207h614v-350h154q233 0 367 -101t134 -288q0 -161 -115 -270t-292 -109h-522zM778 561h-135v-352h172q97 0 151 44.5t54 129.5q0 178 -242 178z" />
    <glyph glyph-name="uni044B" unicode="&#x44b;" horiz-adv-x="1619" 
d="M152 0v1118h272v-350h154q231 0 360 -100.5t129 -288.5q0 -163 -109 -271t-286 -108h-520zM1194 0v1118h274v-1118h-274zM561 561h-137v-352h174q190 0 190 174q0 178 -227 178z" />
    <glyph glyph-name="uni044C" unicode="&#x44c;" horiz-adv-x="1130" 
d="M152 0v1118h272v-350h154q233 0 368 -101t135 -288q0 -161 -115.5 -270t-293.5 -109h-520zM561 561h-137v-352h174q96 0 150.5 44.5t54.5 129.5q0 93 -65.5 135.5t-176.5 42.5z" />
    <glyph glyph-name="uni044D" unicode="&#x44d;" horiz-adv-x="1058" 
d="M418 -20q-196 0 -361 79l74 205q156 -67 285 -67q132 0 200.5 70.5t79.5 197.5h-424v207h422q-18 121 -86.5 188.5t-185.5 67.5q-53 0 -105 -9.5t-83 -19.5t-80 -29l-80 197q153 80 348 80q271 0 411 -145.5t140 -432.5q0 -280 -148 -434.5t-407 -154.5z" />
    <glyph glyph-name="uni044E" unicode="&#x44e;" horiz-adv-x="1818" 
d="M1176 -23q-235 0 -374.5 125.5t-162.5 354.5h-215v-457h-272v1118h272v-452h217q32 227 179 353t372 126q274 0 409.5 -151.5t135.5 -434.5q0 -188 -73.5 -321t-198.5 -197t-289 -64zM1190 197q78 0 132 27t83 78.5t41 113.5t12 143q0 369 -272 369q-78 0 -134 -30
t-86 -84t-43.5 -117t-13.5 -140q0 -81 14 -144t45.5 -113t87.5 -76.5t134 -26.5z" />
    <glyph glyph-name="uni044F" unicode="&#x44f;" horiz-adv-x="1189" 
d="M350 0h-317q7 7 154 206t153 210q-88 38 -142.5 120.5t-54.5 192.5q0 122 60.5 211.5t161 133.5t227.5 44h446v-1118h-272v352h-96q-74 0 -80 2zM641 555h125v356h-150q-90 0 -141 -48t-51 -134q0 -84 62.5 -129t154.5 -45z" />
    <glyph glyph-name="uni0450" unicode="&#x450;" horiz-adv-x="1169" 
d="M657 -25q-135 0 -235.5 27.5t-178 91t-117.5 176t-40 273.5q0 131 27 234t74 171t114.5 113t144.5 64.5t168 19.5q250 0 363 -143.5t113 -419.5v-99h-730q-1 -69 17 -121t47.5 -83t74 -50t91 -25.5t104.5 -6.5q139 0 322 47l43 -207q-180 -62 -402 -62zM367 666h442
q2 131 -50 206.5t-155 75.5q-100 0 -165 -74t-72 -208zM702 1245l-458 228l94 194l450 -256z" />
    <glyph glyph-name="uni0451" unicode="&#x451;" horiz-adv-x="1169" 
d="M457 1337h-260v262h260v-262zM967 1337h-258v262h258v-262zM657 -25q-135 0 -235.5 27.5t-178 91t-117.5 176t-40 273.5q0 131 27 234t74 171t114.5 113t144.5 64.5t168 19.5q250 0 363 -143.5t113 -419.5v-99h-730q-1 -69 17 -121t47.5 -83t74 -50t91 -25.5t104.5 -6.5
q139 0 322 47l43 -207q-180 -62 -402 -62zM367 666h442q2 131 -50 206.5t-155 75.5q-100 0 -165 -74t-72 -208z" />
    <glyph glyph-name="uni0452" unicode="&#x452;" horiz-adv-x="1310" 
d="M791 -451l-183 168q64 65 117 139.5t99 168t72 207t26 235.5q0 144 -58 221.5t-172 77.5q-29 0 -59 -5t-51.5 -11t-49.5 -17.5t-41 -17.5t-38 -19.5t-29 -15.5v-680h-272v1147h-209v196h209v201h272v-201h375v-196h-375v-289q204 150 375 150q88 0 158 -29.5t114.5 -78
t74 -116.5t42 -140t12.5 -152q0 -285 -111.5 -527.5t-297.5 -415.5z" />
    <glyph glyph-name="uni0453" unicode="&#x453;" horiz-adv-x="958" 
d="M342 1245l-82 164l449 254l96 -193zM152 0v1118h782v-209h-510v-909h-272z" />
    <glyph glyph-name="uni0454" unicode="&#x454;" horiz-adv-x="1060" 
d="M705 -20q-332 0 -476.5 137t-144.5 448q0 266 156 424t422 158q202 0 335 -72l-71 -203q-70 27 -122 38.5t-134 11.5q-112 0 -191 -61.5t-104 -184.5h418v-207h-424q15 -140 94.5 -203t259.5 -63q41 0 79 4t81 10.5t67 9.5l39 -211q-162 -36 -284 -36z" />
    <glyph glyph-name="uni0455" unicode="&#x455;" horiz-adv-x="987" 
d="M428 -25q-81 0 -180.5 13t-169.5 35l33 213q208 -37 323 -37q113 0 167 29.5t54 78.5q0 32 -24 57t-64 41.5t-90.5 35.5t-103 37t-103 47t-90.5 64.5t-64 91t-24 124.5q0 111 61.5 190t159.5 115.5t222 36.5q176 0 333 -60l-49 -202q-141 43 -276 43q-92 0 -136.5 -27.5
t-44.5 -73.5q0 -37 31 -65.5t80.5 -48.5t109 -40.5t119 -49.5t109 -66t80.5 -98t31 -140q0 -78 -31 -139t-80 -99t-115.5 -62.5t-132 -34t-135.5 -9.5z" />
    <glyph glyph-name="uni0456" unicode="&#x456;" horiz-adv-x="575" 
d="M152 0v1118h274v-1118h-274zM152 1337v262h272v-262h-272z" />
    <glyph glyph-name="uni0457" unicode="&#x457;" horiz-adv-x="575" 
d="M154 1337h-260v262h260v-262zM664 1337h-258v262h258v-262zM152 0v1118h274v-1118h-274z" />
    <glyph glyph-name="uni0458" unicode="&#x458;" horiz-adv-x="575" 
d="M0 -461q-53 0 -114 13t-103 32l49 215q76 -26 160 -26q88 0 124 50.5t36 166.5v1128h272v-1130q0 -107 -23 -187.5t-60.5 -129.5t-93.5 -79.5t-115 -41.5t-132 -11zM150 1337v262h272v-262h-272z" />
    <glyph glyph-name="uni0459" unicode="&#x459;" horiz-adv-x="1816" 
d="M82 -35l-74 221q170 65 223 160q40 71 68 277.5t37 494.5h774v-350h154q233 0 368 -101t135 -288q0 -161 -115.5 -270t-293.5 -109h-522v911h-271q-28 -295 -60.5 -466t-84.5 -261q-94 -159 -338 -219zM1247 561h-137v-352h174q96 0 150.5 44.5t54.5 129.5
q0 93 -65.5 135.5t-176.5 42.5z" />
    <glyph glyph-name="uni045A" unicode="&#x45a;" horiz-adv-x="1824" 
d="M152 0v1118h274v-416h446v416h275v-416h149q226 0 356 -91.5t130 -262.5q0 -150 -112 -249t-284 -99h-514v496h-446v-496h-274zM1272 496h-125v-287h158q87 0 136.5 36.5t49.5 104.5q0 146 -219 146z" />
    <glyph glyph-name="uni045B" unicode="&#x45b;" horiz-adv-x="1294" 
d="M152 0v1147h-209v196h209v201h272v-201h375v-196h-375v-289q204 150 375 150q72 0 128 -13t93.5 -33.5t64.5 -55t41.5 -68t22.5 -83t10 -89.5t2 -97v-569h-268v547q0 130 -36 175.5t-146 45.5q-114 0 -287 -88v-680h-272z" />
    <glyph glyph-name="uni045C" unicode="&#x45c;" horiz-adv-x="1177" 
d="M440 1245l-82 164l449 254l96 -193zM154 0v1118h272v-532l391 532h295l-424 -516l473 -602h-321l-414 569v-569h-272z" />
    <glyph glyph-name="uni045D" unicode="&#x45d;" horiz-adv-x="1357" 
d="M152 0v1118h272v-592l-6 -164l106 164l410 592h272v-1118h-272v588l4 164l-104 -164l-410 -588h-272zM813 1245l-459 228l95 194l450 -256z" />
    <glyph glyph-name="uni045E" unicode="&#x45e;" horiz-adv-x="1155" 
d="M340 -451l154 451h-107l-375 1118h295l211 -715l53 -188l60 186l241 717h277l-547 -1569h-262zM575 1288q-105 0 -197.5 54t-146.5 147l107 125q105 -121 237 -121q135 0 240 121l107 -125q-54 -93 -147.5 -147t-199.5 -54z" />
    <glyph glyph-name="uni045F" unicode="&#x45f;" horiz-adv-x="1298" 
d="M522 -301v301h-370v1118h272v-911h450v911h273v-1118h-371v-301h-254z" />
    <glyph glyph-name="uni0462" unicode="&#x462;" horiz-adv-x="1464" 
d="M360 0v1047h-356v217h356v184h283v-184h422v-215h-422v-191h158q309 0 460.5 -104t151.5 -328q0 -212 -152 -319t-442 -107h-459zM795 639h-152v-418h170q167 0 239 48t72 161q0 120 -77.5 164.5t-251.5 44.5z" />
    <glyph glyph-name="uni0463" unicode="&#x463;" horiz-adv-x="1294" 
d="M317 0v911h-319v207h319v328h273v-328h368v-207h-368v-186h153q237 0 370.5 -91.5t133.5 -275.5q0 -160 -114 -259t-295 -99h-521zM725 518h-135v-309h174q96 0 150.5 38.5t54.5 114.5q0 156 -244 156z" />
    <glyph glyph-name="uni0472" unicode="&#x472;" horiz-adv-x="1701" 
d="M834 -25q-357 0 -548.5 201.5t-191.5 550.5q0 341 209 542t565 201q185 0 327.5 -56t232 -157.5t135 -236t45.5 -297.5q0 -346 -202.5 -547t-571.5 -201zM840 199q114 0 202 32.5t145 93t89.5 139.5t42.5 177h-938q10 -95 43 -174t88 -139.5t139 -94.5t189 -34zM854 1247
q-216 0 -334.5 -117.5t-138.5 -316.5h938q-23 199 -141 316.5t-324 117.5z" />
    <glyph glyph-name="uni0473" unicode="&#x473;" horiz-adv-x="1267" 
d="M623 -25q-258 0 -399.5 152.5t-141.5 421.5q0 280 152.5 439t408.5 159q270 0 406.5 -152.5t136.5 -433.5q0 -283 -155 -434.5t-408 -151.5zM637 195q131 0 193 74.5t73 207.5h-541q27 -282 275 -282zM635 930q-240 0 -273 -283h541q-29 283 -268 283z" />
    <glyph glyph-name="uni0474" unicode="&#x474;" horiz-adv-x="1492" 
d="M506 0l-506 1448h299l395 -1237l328 883q58 161 128.5 258.5t164.5 154.5l198 -157q-77 -52 -135 -128.5t-112 -215.5l-394 -1006h-366z" />
    <glyph glyph-name="uni0475" unicode="&#x475;" 
d="M397 0l-389 1118h295l205 -667l63 -230l70 232l107 309q102 295 286 409l197 -159q-79 -54 -138.5 -135.5t-109.5 -217.5l-248 -659h-338z" />
    <glyph glyph-name="uni048A" unicode="&#x48a;" horiz-adv-x="1708" 
d="M188 0v1448h279v-860l-6 -203l131 211l571 852h279v-1231h258l-115 -553h-260l68 336h-230v860l6 203l-114 -182l-588 -881h-279zM842 1542q-120 0 -223.5 54t-165.5 151l122 129q114 -125 267 -125q152 0 266 125l123 -129q-62 -97 -165.5 -151t-223.5 -54z" />
    <glyph glyph-name="uni048B" unicode="&#x48b;" horiz-adv-x="1431" 
d="M152 0v1118h272v-592l-6 -164l106 164l410 592h272v-901h213l-114 -553h-261l70 336h-180v588l4 164l-104 -164l-410 -588h-272zM678 1284q-105 0 -197.5 54t-146.5 147l106 125q104 -121 238 -121q136 0 240 121l106 -125q-54 -93 -147 -147t-199 -54z" />
    <glyph glyph-name="uni048C" unicode="&#x48c;" horiz-adv-x="1353" 
d="M74 1118v178h170v152h282v-152h234v-178h-234v-164h144q306 0 467 -121.5t161 -351.5q0 -221 -156 -351t-440 -130h-458v1118h-170zM678 735h-152v-514h172q158 0 234 71t76 193q0 250 -330 250z" />
    <glyph glyph-name="uni048D" unicode="&#x48d;" horiz-adv-x="1177" 
d="M197 0v864h-129v142h129v112h272v-112h258v-142h-258v-96h154q233 0 368 -101t135 -288q0 -161 -115.5 -270t-293.5 -109h-520zM606 561h-137v-352h174q96 0 150.5 44.5t54.5 129.5q0 93 -65.5 135.5t-176.5 42.5z" />
    <glyph glyph-name="uni048E" unicode="&#x48e;" horiz-adv-x="1308" 
d="M188 0v1448h529q237 0 380.5 -130.5t143.5 -361.5q0 -110 -44.5 -206t-131.5 -164l94 -107l-121 -110l-120 135q-133 -51 -308 -51h-141v-453h-281zM676 774l129 111l92 -109q53 68 53 172q0 136 -66 207.5t-212 71.5h-203v-555h154q76 0 131 14z" />
    <glyph glyph-name="uni048F" unicode="&#x48f;" horiz-adv-x="1273" 
d="M152 -451v1569h270v-84q78 56 149 83.5t166 27.5q99 0 180 -32t142 -97t95 -171t34 -245q0 -323 -184 -485l86 -97l-121 -112l-109 121q-117 -47 -266 -47q-60 0 -172 10v-441h-270zM625 291l129 112l82 -96q75 106 75 283q0 325 -264 325q-45 0 -93 -11.5t-66.5 -19
t-65.5 -28.5v-649q3 0 35.5 -5t68.5 -8.5t64 -3.5q52 0 108 17z" />
    <glyph glyph-name="uni0490" unicode="&#x490;" horiz-adv-x="1148" 
d="M188 0v1448h678v330h267l-3 -551h-663v-1227h-279z" />
    <glyph glyph-name="uni0491" unicode="&#x491;" horiz-adv-x="958" 
d="M152 0v1118h528v234h252l2 -443h-512v-909h-270z" />
    <glyph glyph-name="uni0492" unicode="&#x492;" horiz-adv-x="1224" 
d="M88 608v199h162v641h950v-221h-672v-420h353v-199h-353v-608h-278v608h-162z" />
    <glyph glyph-name="uni0493" unicode="&#x493;" horiz-adv-x="1015" 
d="M70 438v193h131v487h782v-209h-510v-278h281v-193h-281v-438h-272v438h-131z" />
    <glyph glyph-name="uni0494" unicode="&#x494;" horiz-adv-x="1374" 
d="M801 -451l-142 185q37 25 74 55.5t93 92t97 128.5t71 163.5t30 199.5q0 133 -67 205.5t-191 72.5q-153 0 -299 -73v-578h-279v1448h875v-223h-596v-430q199 73 362 73q240 0 359 -128.5t119 -350.5q0 -134 -34.5 -251t-104 -219t-157 -189t-210.5 -181z" />
    <glyph glyph-name="uni0495" unicode="&#x495;" horiz-adv-x="1202" 
d="M152 0v1118h835v-209h-563v-284q155 96 307 96q89 0 159 -28.5t114.5 -76t74.5 -114t42 -137t12 -150.5q0 -218 -107 -392.5t-299 -295.5l-139 170q145 107 205.5 223.5t60.5 269.5q0 289 -229 289q-105 0 -201 -51v-428h-272z" />
    <glyph glyph-name="uni0496" unicode="&#x496;" horiz-adv-x="2103" 
d="M10 0l555 764l-510 684h342l473 -676v676h281v-678l473 678h342l-508 -684l395 -547h242v-530h-266v313h-170l-508 733v-733h-281v739l-508 -739h-352z" />
    <glyph glyph-name="uni0497" unicode="&#x497;" horiz-adv-x="1765" 
d="M1757 -313h-266v305q-85 13 -147.5 54t-141.5 147l-233 313v-506h-273v512l-389 -512h-295l439 586l-390 532h299l336 -500v500h273v-487l338 487h299l-389 -532l192 -244q66 -84 121.5 -105.5t179.5 -21.5h47v-528z" />
    <glyph glyph-name="uni0498" unicode="&#x498;" horiz-adv-x="1183" 
d="M537 -16q-282 0 -486 112l92 211q197 -96 371 -96q130 0 208.5 51.5t78.5 161.5q0 205 -305 205h-181v207h181q117 0 183 54t66 148t-60 143.5t-175 49.5q-55 0 -115.5 -12t-96.5 -24t-95 -34l-90 191q200 104 424 104q235 0 363 -102t128 -260q0 -72 -20 -132.5
t-53.5 -101.5t-65.5 -67t-68 -45v-5q31 -9 62 -23t69 -42.5t67 -64t48.5 -90.5t19.5 -120q0 -62 -16 -119t-56.5 -112.5t-101 -96.5t-157.5 -66t-219 -25zM455 -547l-95 162q3 2 22 13.5t23.5 14.5t20.5 14t21.5 16t17.5 15t16.5 17.5t11 17.5t9 20t2.5 21q0 39 -33 132h223
q43 -88 43 -156q0 -167 -282 -287z" />
    <glyph glyph-name="uni0499" unicode="&#x499;" horiz-adv-x="991" 
d="M459 -20q-105 0 -214 24.5t-196 67.5l76 207q61 -33 146 -58.5t167 -25.5q79 0 131 36t52 105q0 70 -55.5 101.5t-143.5 31.5h-156v203h148q88 0 131 40.5t43 94.5t-43 87.5t-121 33.5q-51 0 -103.5 -10t-84.5 -21t-84 -31l-64 195q175 84 383 84q95 0 171.5 -24.5
t123 -66t70.5 -93t24 -107.5q0 -97 -45.5 -163t-120.5 -101q87 -23 152 -92t65 -187q0 -61 -25.5 -118t-77 -105.5t-142 -78t-207.5 -29.5zM360 -547l-94 162q3 2 22 13.5t23.5 14.5t20.5 14t21.5 16t17.5 15t16.5 17.5t11 17.5t9 20t2.5 21q0 39 -33 132h223
q43 -88 43 -156q0 -167 -283 -287z" />
    <glyph glyph-name="uni049A" unicode="&#x49a;" horiz-adv-x="1484" 
d="M188 0v1448h279v-662l547 662h356l-592 -674l451 -557h250v-530h-267v313h-165l-580 766v-766h-279z" />
    <glyph glyph-name="uni049B" unicode="&#x49b;" horiz-adv-x="1232" 
d="M1217 -313h-267v319q-69 20 -132.5 62t-129.5 125l-264 329v-522h-272v1118h272v-506l381 506h305l-432 -524l188 -215q81 -92 146 -129t168 -37h37v-526z" />
    <glyph glyph-name="uni049C" unicode="&#x49c;" horiz-adv-x="1552" 
d="M524 553v403h138v-403h-138zM1174 0l-496 770v14l477 664h356l-520 -674l541 -774h-358zM188 0v1448h279v-1448h-279z" />
    <glyph glyph-name="uni049D" unicode="&#x49d;" horiz-adv-x="1273" 
d="M926 0l-297 567l327 551h273l-336 -532l342 -586h-309zM152 0v1118h272v-1118h-272zM479 373v399h137v-399h-137z" />
    <glyph glyph-name="uni049E" unicode="&#x49e;" horiz-adv-x="1441" 
d="M223 0v1130h-155v150h155v168h279v-168h196v-150h-196v-344l547 662h356l-592 -674l627 -774h-359l-579 766v-766h-279z" />
    <glyph glyph-name="uni049F" unicode="&#x49f;" horiz-adv-x="1208" 
d="M184 0v856h-110v141h110v121h273v-121h125v-141h-125v-270l391 532h295l-424 -516l473 -602h-322l-413 569v-569h-273z" />
    <glyph glyph-name="uni04A0" unicode="&#x4a0;" horiz-adv-x="1576" 
d="M358 0v1227h-370v221h649v-662l547 662h356l-592 -674l627 -774h-358l-580 766v-766h-279z" />
    <glyph glyph-name="uni04A1" unicode="&#x4a1;" horiz-adv-x="1374" 
d="M348 911h-360v207h633v-514l391 514h295l-424 -516l473 -602h-322l-413 549v-549h-273v911z" />
    <glyph glyph-name="uni04A2" unicode="&#x4a2;" horiz-adv-x="1685" 
d="M188 0v1448h279v-612h684v612h279v-1231h206v-530h-266v313h-219v618h-684v-618h-279z" />
    <glyph glyph-name="uni04A3" unicode="&#x4a3;" horiz-adv-x="1423" 
d="M152 0v1118h272v-452h469v452h272v-901h236v-530h-266v313h-242v457h-469v-457h-272z" />
    <glyph glyph-name="uni04A4" unicode="&#x4a4;" horiz-adv-x="1781" 
d="M188 0v1448h279v-612h684v612h639v-223h-360v-1225h-279v618h-684v-618h-279z" />
    <glyph glyph-name="uni04A5" unicode="&#x4a5;" horiz-adv-x="1630" 
d="M891 0v457h-467v-457h-272v1118h272v-452h467v452h782v-209h-508v-909h-274z" />
    <glyph glyph-name="uni04A6" unicode="&#x4a6;" horiz-adv-x="2308" 
d="M1741 -451l-142 185q32 22 60 44.5t74.5 65.5t83.5 95t72 117t55 149t20 174q0 133 -67 205.5t-191 72.5q-154 0 -297 -73v-584h-281v1231h-661v-1231h-279v1448h1221v-647q195 73 360 73q240 0 359 -128.5t119 -350.5q0 -134 -34.5 -251.5t-103.5 -221t-157.5 -192
t-210.5 -181.5z" />
    <glyph glyph-name="uni04A7" unicode="&#x4a7;" horiz-adv-x="1912" 
d="M152 0v1118h993v-461q162 107 295 107q92 0 164.5 -30t118.5 -79.5t76 -118t42 -140.5t12 -152q0 -221 -108 -409.5t-297 -307.5l-139 170q266 196 266 522q0 143 -56 223t-161 80q-120 0 -213 -53v-469h-273v911h-448v-911h-272z" />
    <glyph glyph-name="uni04A8" unicode="&#x4a8;" horiz-adv-x="1648" 
d="M1374 -340q-185 0 -326 83.5t-229 231.5q-351 4 -538 205t-187 547q0 341 211 542t569 201q247 0 439 -88l-76 -206q-106 35 -179 48t-188 13q-125 0 -220.5 -37.5t-154.5 -106t-88.5 -160t-29.5 -204.5q0 -200 90 -349t262 -190q-37 139 -37 299q0 227 122.5 363.5
t344.5 136.5q136 0 235 -57t147 -148.5t48 -205.5q0 -215 -121.5 -364.5t-351.5 -207.5q115 -125 277 -125q32 0 65.5 3.5t52.5 6.5t56.5 10.5l52.5 10.5l39 -211q-119 -41 -285 -41zM948 489q0 -164 53 -296q167 31 252.5 124t85.5 215q0 123 -52.5 184.5t-135.5 61.5
q-100 0 -151.5 -80t-51.5 -209z" />
    <glyph glyph-name="uni04A9" unicode="&#x4a9;" horiz-adv-x="1241" 
d="M535 358q0 203 90 300.5t233 97.5q145 0 222 -88.5t77 -235.5q0 -146 -80 -255t-219 -161q77 -59 184 -59q78 0 185 31l37 -178q-119 -39 -242 -39q-270 0 -395 204h-4q-258 0 -399.5 152.5t-141.5 421.5q0 279 152.5 438.5t404.5 159.5q197 0 338 -74l-76 -194
q-132 57 -237 57q-149 0 -227.5 -98.5t-78.5 -280.5q0 -314 191 -371q-14 89 -14 172zM731 371q0 -112 23 -185q192 45 192 252q0 79 -27.5 115.5t-72.5 36.5q-47 0 -81 -51.5t-34 -167.5z" />
    <glyph glyph-name="uni04AA" unicode="&#x4aa;" horiz-adv-x="1388" 
d="M881 -25q-379 0 -582 195.5t-203 544.5t207 552t569 203q247 0 439 -88l-78 -206q-76 23 -115 32.5t-101 17.5t-140 9q-107 1 -195.5 -29t-156 -89.5t-105 -157t-37.5 -224.5q0 -255 145.5 -387.5t386.5 -132.5q180 0 338 47l62 -215q-100 -37 -198.5 -54.5t-235.5 -17.5
zM739 -547l-94 162q82 51 105 73q38 37 38 76q0 42 -32 132h223q43 -88 43 -156q0 -167 -283 -287z" />
    <glyph glyph-name="uni04AB" unicode="&#x4ab;" horiz-adv-x="1060" 
d="M686 -25q-319 0 -460.5 137.5t-141.5 419.5q0 301 154 458t432 157q190 0 327 -74l-71 -203q-131 52 -242 52q-159 0 -240.5 -88t-81.5 -293q0 -86 16.5 -146.5t56 -106t110 -67.5t174.5 -22q16 0 31 0.5t26.5 1.5t28.5 3t25 3t28.5 4.5t26.5 5t32 6.5t33 6l39 -211
q-67 -16 -94.5 -22.5t-86.5 -13.5t-122 -7zM496 -547l-95 162q3 2 22 13.5t23.5 14.5t20.5 14t21.5 16t17.5 15t16.5 17.5t11 17.5t9 20t2.5 21q0 39 -33 132h223q43 -88 43 -156q0 -167 -282 -287z" />
    <glyph glyph-name="uni04AC" unicode="&#x4ac;" horiz-adv-x="1282" 
d="M489 0v1225h-469v223h1219v-223h-469v-1008h295v-530h-266v313h-310z" />
    <glyph glyph-name="uni04AD" unicode="&#x4ad;" horiz-adv-x="1073" 
d="M389 0v909h-360v209h995v-209h-362v-692h243v-528h-258v311h-258z" />
    <glyph glyph-name="uni04AE" unicode="&#x4ae;" horiz-adv-x="1286" 
d="M489 0v498l-512 950h322l340 -713l362 713h312l-545 -944v-504h-279z" />
    <glyph glyph-name="uni04AF" unicode="&#x4af;" horiz-adv-x="1153" 
d="M424 -451v451l-420 1118h295l205 -618l63 -230l70 232l229 616h287l-457 -1122v-447h-272z" />
    <glyph glyph-name="uni04B0" unicode="&#x4b0;" horiz-adv-x="1331" 
d="M203 418v211h241l-440 819h322l340 -713l362 713h311l-473 -819h238v-211h-309v-418h-279v418h-313z" />
    <glyph glyph-name="uni04B1" unicode="&#x4b1;" horiz-adv-x="1202" 
d="M160 0v207h217l-342 911h295l205 -618l63 -230l70 232l229 616h287l-371 -911h207v-207h-291l-2 -4v-447h-272v451h-295z" />
    <glyph glyph-name="uni04B2" unicode="&#x4b2;" horiz-adv-x="1441" 
d="M4 0l516 752l-446 696h319l289 -483l309 483h312l-474 -692l347 -539h254v-530h-265v313h-174l-325 543l-347 -543h-315z" />
    </font>
</defs>
</svg>
