<?xml version="1.0" standalone="no"?>
<!DOCTYPE svg PUBLIC "-//W3C//DTD SVG 1.1//EN" "http://www.w3.org/Graphics/SVG/1.1/DTD/svg11.dtd" >
<svg xmlns="http://www.w3.org/2000/svg" xmlns:xlink="http://www.w3.org/1999/xlink" version="1.1">
<metadata>
Created by FontForge 20201107 at Fri Jul 26 19:46:25 2024
 By 
Copyright (c) 2005-2009 Typotheque.com All rights reserved.
</metadata>
<defs>
<font id="FedraSansDisStdHeavy" horiz-adv-x="2846" >
  <font-face 
    font-family="FedraSansDisStd Heavy"
    font-weight="850"
    font-stretch="normal"
    units-per-em="2048"
    panose-1="2 1 9 3 6 0 0 2 0 4"
    ascent="1597"
    descent="-451"
    x-height="1118"
    cap-height="1446"
    bbox="-406 -643 5083 2388"
    underline-thickness="102"
    underline-position="-204"
    unicode-range="U+0020-FB06"
  />
<missing-glyph horiz-adv-x="1458" 
d="M625 768v55h55v-55h-55zM778 1075v55h56v-55h-56zM625 1075v55h55v-55h-55zM471 1075v55h55v-55h-55zM164 0v55h55v-55h-55zM317 0v55h56v-55h-56zM471 0v55h55v-55h-55zM625 0v55h55v-55h-55zM778 0v55h56v-55h-56zM164 154v55h55v-55h-55zM164 307v55h55v-55h-55z
M164 461v55h55v-55h-55zM164 614v56h55v-56h-55zM164 768v55h55v-55h-55zM164 922v55h55v-55h-55zM164 1075v55h55v-55h-55zM164 1229v55h55v-55h-55zM164 1382v56h55v-56h-55zM317 1382v56h56v-56h-56zM471 1382v56h55v-56h-55zM625 1382v56h55v-56h-55zM778 1382v56h56
v-56h-56zM932 1382v56h55v-56h-55zM1085 1382v56h56v-56h-56zM1085 0v55h56v-55h-56zM932 0v55h55v-55h-55zM1239 0v55h55v-55h-55zM1239 1382v56h55v-56h-55zM625 614v56h55v-56h-55zM625 307v55h55v-55h-55zM778 768v55h56v-55h-56zM932 768v55h55v-55h-55zM932 922v55h55
v-55h-55zM932 1075v55h55v-55h-55zM1239 1229v55h55v-55h-55zM1239 1075v55h55v-55h-55zM1239 768v55h55v-55h-55zM1239 614v56h55v-56h-55zM1239 307v55h55v-55h-55zM1239 154v55h55v-55h-55zM1239 461v55h55v-55h-55zM1239 922v55h55v-55h-55z" />
    <glyph glyph-name="f_f" unicode="ff" horiz-adv-x="1576" 
d="M1655 1550l-47 -342q-84 17 -160 17q-92 0 -92 -99v-51h217v-323h-217v-752h-457v752h-311v-752h-457v752h-133v323h133v86q0 107 26 186.5t66.5 125t101 72.5t118 35.5t130.5 8.5q93 0 178 -15.5t131.5 -31t131.5 -49.5q111 96 360 96q57 0 127.5 -9.5t112.5 -19.5z
M899 1075v137q-152 23 -199 23q-48 0 -80 -24.5t-32 -73.5v-62h311z" />
    <glyph glyph-name="fi" unicode="fi" horiz-adv-x="1433" 
d="M1331 1595l27 -348q-189 -47 -359 -47q-79 0 -160.5 12.5t-138.5 12.5t-84.5 -23t-27.5 -80v-47h764v-1075h-453v752h-311v-752h-457v752h-133v323h133v78q0 105 26 184t69 127t106.5 77.5t130.5 40.5t149 11q72 0 192.5 -16t196.5 -16q73 0 155.5 8.5t128.5 16.5z" />
    <glyph glyph-name="fl" unicode="fl" horiz-adv-x="1437" 
d="M1356 0h-453v1225h-203q-59 0 -85.5 -22.5t-26.5 -80.5v-47h215v-323h-215v-752h-457v752h-133v323h133v78q0 105 26 183.5t69 126t107 76.5t130 39.5t149 10.5q72 0 195 -14t199 -14q73 0 160.5 9t138.5 18l51 9v-1597z" />
    <glyph glyph-name="f_f_i" unicode="ffi" horiz-adv-x="2211" 
d="M1380 1593q72 0 192.5 -16t196.5 -16q73 0 155.5 8.5t128.5 16.5l46 9l27 -348q-189 -47 -359 -47q-79 0 -160.5 12.5t-138.5 12.5t-84.5 -23t-27.5 -80v-47h764v-1075h-453v752h-311v-752h-457v752h-311v-752h-457v752h-133v323h133v86q0 107 26 186.5t66.5 125
t101 72.5t118 35.5t130.5 8.5q93 0 178 -15.5t131.5 -31t131.5 -49.5q115 100 366 100zM899 1075v137q-152 23 -199 23q-48 0 -80 -24.5t-32 -73.5v-62h311z" />
    <glyph glyph-name="f_f_l" unicode="ffl" horiz-adv-x="2211" 
d="M1356 1122v-47h215v-323h-215v-752h-457v752h-311v-752h-457v752h-133v323h133v86q0 107 26 186.5t66.5 125t101 72.5t118 35.5t130.5 8.5q93 0 178 -15.5t131.5 -31t131.5 -49.5q115 100 366 100q72 0 195 -16t199 -16q73 0 160.5 9t138.5 18l51 9v-1597h-453v1225h-203
q-57 0 -84.5 -23t-27.5 -80zM899 1075v137q-152 23 -199 23q-48 0 -80 -24.5t-32 -73.5v-62h311z" />
    <glyph glyph-name="f_h" unicode="fh" horiz-adv-x="2177" 
d="M2091 0h-453v662q0 76 -23.5 101t-82.5 25q-43 0 -87 -11t-67 -21l-22 -11v-745h-453v1225h-203q-59 0 -85.5 -22.5t-26.5 -80.5v-47h215v-323h-215v-752h-457v752h-133v323h133v78q0 105 26 183.5t69 126t107 76.5t130 39.5t149 10.5q72 0 195 -14t199 -14q73 0 160.5 9
t138.5 18l51 9v-583q6 6 17 15t48.5 33t78.5 42.5t104 33.5t127 15q94 0 161 -24.5t105 -63t59.5 -102.5t28 -125.5t6.5 -149.5v-688z" />
    <glyph glyph-name="f_b" unicode="fb" horiz-adv-x="2152" 
d="M1653 598q0 124 -51.5 176.5t-147.5 52.5q-18 0 -37.5 -4t-38.5 -9.5t-22 -6.5v-490q80 -10 96 -10q94 0 147.5 83.5t53.5 207.5zM2118 612q0 -144 -38 -256.5t-101 -184.5t-152.5 -119t-185.5 -66t-207 -19q-302 0 -519 70l-12 4v1184h-203q-59 0 -85.5 -22.5
t-26.5 -80.5v-47h215v-323h-215v-752h-457v752h-133v323h133v78q0 105 26 183.5t69 126t107 76.5t130 39.5t149 10.5q72 0 195 -14t199 -14q73 0 160.5 9t138.5 18l51 9v-481q1 0 35 9.5t54.5 14t57 10t68.5 5.5q547 0 547 -543z" />
    <glyph glyph-name="f_j" unicode="fj" horiz-adv-x="1443" 
d="M1331 1595l27 -348q-189 -47 -359 -47q-79 0 -160.5 12.5t-138.5 12.5t-84.5 -23t-27.5 -80v-47h764v-1046q0 -264 -119 -372t-381 -108q-74 0 -156 15t-127 30l-45 15l58 301q125 -12 186 -12q73 0 102 29.5t29 103.5v721h-311v-752h-457v752h-133v323h133v78
q0 105 26 184t69 127t106.5 77.5t130.5 40.5t149 11q72 0 192.5 -16t196.5 -16q73 0 155.5 8.5t128.5 16.5z" />
    <glyph glyph-name="f_k" unicode="fk" horiz-adv-x="2082" 
d="M1356 0h-453v1225h-203q-59 0 -85.5 -22.5t-26.5 -80.5v-47h215v-323h-215v-752h-457v752h-133v323h133v78q0 105 26 183.5t69 126t107 76.5t130 39.5t149 10.5q72 0 195 -14t199 -14q73 0 160.5 9t138.5 18l51 9v-854h6l197 375h507l-358 -534l414 -584h-547l-213 414
h-6v-414z" />
    <glyph glyph-name="f_f_j" unicode="ffj" horiz-adv-x="2211" 
d="M1380 1593q72 0 192.5 -16t196.5 -16q73 0 155.5 8.5t128.5 16.5l46 9l27 -348q-189 -47 -359 -47q-79 0 -160.5 12.5t-138.5 12.5t-84.5 -23t-27.5 -80v-47h764v-1046q0 -264 -119 -372t-381 -108q-74 0 -156 15t-127 30l-45 15l58 301q125 -12 186 -12q73 0 102 29.5
t29 103.5v721h-311v-752h-457v752h-311v-752h-457v752h-133v323h133v86q0 107 26 186.5t66.5 125t101 72.5t118 35.5t130.5 8.5q93 0 178 -15.5t131.5 -31t131.5 -49.5q115 100 366 100zM899 1075v137q-152 23 -199 23q-48 0 -80 -24.5t-32 -73.5v-62h311z" />
    <glyph glyph-name="f_f_b" unicode="ffb" horiz-adv-x="2920" 
d="M2886 612q0 -144 -38 -256.5t-101 -184.5t-152.5 -119t-185.5 -66t-207 -19q-302 0 -519 70l-12 4v1184h-203q-59 0 -85.5 -22.5t-26.5 -80.5v-47h215v-323h-215v-752h-457v752h-311v-752h-457v752h-133v323h133v86q0 107 26 186.5t66.5 125t101 72.5t118 35.5t130.5 8.5
q93 0 178 -15.5t131.5 -31t131.5 -49.5q111 96 366 96q72 0 195 -14t199 -14q73 0 160.5 9t138.5 18l51 9v-481q1 0 35 9.5t54.5 14t57 10t68.5 5.5q547 0 547 -543zM2421 598q0 124 -51.5 176.5t-147.5 52.5q-18 0 -37.5 -4t-38.5 -9.5t-22 -6.5v-490q80 -10 96 -10
q94 0 147.5 83.5t53.5 207.5zM899 1075v137q-152 23 -199 23q-48 0 -80 -24.5t-32 -73.5v-62h311z" />
    <glyph glyph-name="f_f_h" unicode="ffh" horiz-adv-x="2945" 
d="M2124 0h-453v1225h-203q-59 0 -85.5 -22.5t-26.5 -80.5v-47h215v-323h-215v-752h-457v752h-311v-752h-457v752h-133v323h133v86q0 107 26 186.5t66.5 125t101 72.5t118 35.5t130.5 8.5q93 0 178 -15.5t131.5 -31t131.5 -49.5q111 96 366 96q72 0 195 -14t199 -14
q73 0 160.5 9t138.5 18l51 9v-583q6 6 17 15t48.5 33t78.5 42.5t104 33.5t127 15q94 0 161 -24.5t105 -63t59.5 -102.5t28 -125.5t6.5 -149.5v-688h-453v662q0 76 -23.5 101t-82.5 25q-43 0 -87 -11t-67 -21l-22 -11v-745zM899 1075v137q-152 23 -199 23q-48 0 -80 -24.5
t-32 -73.5v-62h311z" />
    <glyph glyph-name="f_f_k" unicode="ffk" horiz-adv-x="2850" 
d="M2890 0h-547l-213 414h-6v-414h-453v1225h-203q-59 0 -85.5 -22.5t-26.5 -80.5v-47h215v-323h-215v-752h-457v752h-311v-752h-457v752h-133v323h133v86q0 107 26 186.5t66.5 125t101 72.5t118 35.5t130.5 8.5q93 0 178 -15.5t131.5 -31t131.5 -49.5q111 96 366 96
q72 0 195 -14t199 -14q73 0 160.5 9t138.5 18l51 9v-854h6l197 375h507l-358 -534zM899 1075v137q-152 23 -199 23q-48 0 -80 -24.5t-32 -73.5v-62h311z" />
    <glyph glyph-name=".notdef" horiz-adv-x="1458" 
d="M625 768v55h55v-55h-55zM778 1075v55h56v-55h-56zM625 1075v55h55v-55h-55zM471 1075v55h55v-55h-55zM164 0v55h55v-55h-55zM317 0v55h56v-55h-56zM471 0v55h55v-55h-55zM625 0v55h55v-55h-55zM778 0v55h56v-55h-56zM164 154v55h55v-55h-55zM164 307v55h55v-55h-55z
M164 461v55h55v-55h-55zM164 614v56h55v-56h-55zM164 768v55h55v-55h-55zM164 922v55h55v-55h-55zM164 1075v55h55v-55h-55zM164 1229v55h55v-55h-55zM164 1382v56h55v-56h-55zM317 1382v56h56v-56h-56zM471 1382v56h55v-56h-55zM625 1382v56h55v-56h-55zM778 1382v56h56
v-56h-56zM932 1382v56h55v-56h-55zM1085 1382v56h56v-56h-56zM1085 0v55h56v-55h-56zM932 0v55h55v-55h-55zM1239 0v55h55v-55h-55zM1239 1382v56h55v-56h-55zM625 614v56h55v-56h-55zM625 307v55h55v-55h-55zM778 768v55h56v-55h-56zM932 768v55h55v-55h-55zM932 922v55h55
v-55h-55zM932 1075v55h55v-55h-55zM1239 1229v55h55v-55h-55zM1239 1075v55h55v-55h-55zM1239 768v55h55v-55h-55zM1239 614v56h55v-56h-55zM1239 307v55h55v-55h-55zM1239 154v55h55v-55h-55zM1239 461v55h55v-55h-55zM1239 922v55h55v-55h-55z" />
    <glyph glyph-name=".null" horiz-adv-x="0" 
 />
    <glyph glyph-name="nonmarkingreturn" horiz-adv-x="682" 
 />
    <glyph glyph-name="space" unicode=" " horiz-adv-x="532" 
 />
    <glyph glyph-name="exclam" unicode="!" horiz-adv-x="651" 
d="M547 0h-443v348h443v-348zM555 1446v-510l-33 -475h-391l-35 475v510h459z" />
    <glyph glyph-name="quotedbl" unicode="&#x22;" horiz-adv-x="1069" 
d="M483 1546l-30 -624h-359l-28 624h417zM1004 1544l-29 -622h-359l-30 622h418z" />
    <glyph glyph-name="numbersign" unicode="#" horiz-adv-x="1386" 
d="M788 815h-172l-14 -205h172zM1376 307h-198l-23 -307h-434l22 307h-159l-23 -307h-434l23 307h-140v309h164l14 193h-178v309h203l25 328h434l-25 -328h160l24 328h435l-25 -328h135v-309h-159l-15 -193h174v-309z" />
    <glyph glyph-name="dollar" unicode="$" horiz-adv-x="1187" 
d="M1163 426q0 -89 -30 -162.5t-84 -124.5t-120.5 -85.5t-146.5 -55.5v-176h-374v153q-98 2 -201 23.5t-182 58.5l75 355q208 -68 377 -68q203 0 203 94q0 27 -21.5 49.5t-57.5 40t-82.5 34.5t-98 37.5t-103.5 45.5t-98.5 61t-82.5 81t-57.5 110t-21.5 143q0 85 28.5 155.5
t79 119t111.5 81t134 50.5v172h374v-154q174 -23 324 -78l-88 -342q-176 58 -313 58q-172 0 -172 -80q0 -26 27 -48.5t71 -40t100.5 -40.5t115.5 -47t115.5 -62.5t100.5 -85t71 -117t27 -155.5z" />
    <glyph glyph-name="percent" unicode="%" horiz-adv-x="1628" 
d="M1251 348q0 65 -19 90t-54 25t-54.5 -25t-19.5 -90t19 -90t55 -25q35 0 54 25t19 90zM743 350q0 97 36.5 174t98 123.5t138 71t162.5 24.5q213 0 323.5 -90t110.5 -293q0 -97 -36 -174t-97.5 -123.5t-138 -71t-162.5 -24.5q-435 0 -435 383zM1571 1079l-596 -274v366
l596 275v-367zM524 1083q0 65 -19 90t-54 25t-54.5 -25t-19.5 -90q0 -64 19 -89t55 -25q35 0 54 24.5t19 89.5zM662 274l-596 -274v367l596 274v-367zM16 1085q0 97 36.5 174t98 124t138 71.5t162.5 24.5q213 0 323.5 -90t110.5 -293q0 -97 -36 -174t-97.5 -124t-138 -71.5
t-162.5 -24.5q-435 0 -435 383z" />
    <glyph glyph-name="ampersand" unicode="&#x26;" horiz-adv-x="1333" 
d="M1237 870v-854q-267 -49 -549 -49q-185 0 -315.5 33t-204.5 96.5t-106.5 144t-32.5 185.5q0 117 56.5 207t125.5 129v4q-49 41 -84 115.5t-35 162.5q0 216 151.5 325.5t477.5 109.5q244 0 477 -82l-108 -336q-183 55 -361 55q-73 0 -116.5 -35t-43.5 -94
q0 -54 41.5 -85.5t116.5 -31.5h510zM776 346v240h-63q-201 0 -201 -129q0 -119 188 -119q43 0 76 8z" />
    <glyph glyph-name="quotesingle" unicode="'" horiz-adv-x="548" 
d="M483 1546l-30 -624h-359l-28 624h417z" />
    <glyph glyph-name="parenleft" unicode="(" horiz-adv-x="884" 
d="M606 1587l287 -289q-182 -123 -294 -316.5t-112 -403.5q0 -215 115.5 -412t292.5 -330l-285 -291q-166 106 -294 258.5t-206.5 355t-78.5 419.5q0 147 34.5 283.5t90 243t132 201t154.5 161t164 120.5z" />
    <glyph glyph-name="parenright" unicode=")" horiz-adv-x="884" 
d="M854 555q0 -218 -77 -414.5t-203 -342t-295 -253.5l-287 289q185 135 295 323.5t110 397.5q0 215 -114.5 411.5t-292.5 329.5l284 291q267 -169 423.5 -444t156.5 -588z" />
    <glyph glyph-name="asterisk" unicode="*" horiz-adv-x="860" 
d="M887 1171l-334 -41l-6 -18l254 -233l-209 -152l-146 305h-28l-150 -305l-209 152l254 233l-6 18l-334 41l80 246l297 -170l15 10l-64 332h258l-65 -329l14 -11l301 168z" />
    <glyph glyph-name="plus" unicode="+" horiz-adv-x="1110" 
d="M1055 549h-316v-316h-366v316h-318v358h318v312h366v-312h316v-358z" />
    <glyph glyph-name="comma" unicode="," horiz-adv-x="614" 
d="M537 436v-303q0 -240 -152 -420h-367q26 48 43 145t17 205v373h459z" />
    <glyph glyph-name="hyphen" unicode="-" horiz-adv-x="716" 
d="M664 410h-611v356h611v-356z" />
    <glyph glyph-name="period" unicode="." horiz-adv-x="614" 
d="M537 0h-459v436h459v-436z" />
    <glyph glyph-name="slash" unicode="/" horiz-adv-x="1019" 
d="M993 1544l-647 -1995h-387l653 1995h381z" />
    <glyph glyph-name="zero" unicode="0" horiz-adv-x="1241" 
d="M752 715q0 224 -27 308.5t-111 84.5t-110.5 -84t-26.5 -309t26.5 -309t110.5 -84t111 84.5t27 308.5zM1202 731q0 -84 -5 -153.5t-20 -150.5t-40.5 -144.5t-69.5 -124.5t-104 -101.5t-147 -65t-195 -24.5q-107 0 -194 23.5t-146.5 62t-104 97.5t-70.5 120.5t-41.5 141
t-20.5 149.5t-5 154q0 83 5 153t20 151t40.5 144.5t70 124.5t104.5 101.5t147 65t195 24.5q107 0 193.5 -23.5t146.5 -62t104.5 -97.5t70 -120.5t41 -141t20.5 -149.5t5 -154z" />
    <glyph glyph-name="one" unicode="1" horiz-adv-x="1087" 
d="M1067 0h-983v356h268v731h-270v359l723 33v-1123h262v-356z" />
    <glyph glyph-name="two" unicode="2" horiz-adv-x="1200" 
d="M1130 0h-1067v297l484 500q110 115 110 207q0 56 -42.5 84t-110.5 28q-141 0 -336 -67l-102 325q247 105 503 105q137 0 242.5 -35t169 -96t95.5 -139.5t32 -170.5q0 -70 -18 -137t-45 -120.5t-71.5 -109t-83 -94.5t-95.5 -84t-94 -71t-91 -62v-4h520v-356z" />
    <glyph glyph-name="three" unicode="3" horiz-adv-x="1097" 
d="M1057 408q0 -105 -32.5 -184t-85.5 -127t-130.5 -78t-157.5 -41t-178 -11q-257 0 -453 53l68 347q176 -33 361 -33q155 0 155 121q0 36 -17 62t-45 41t-74.5 23.5t-94 11.5t-115.5 3v291q317 0 317 123q0 51 -37.5 77.5t-105.5 26.5q-148 0 -297 -55l-98 323
q86 40 209 68.5t246 28.5q78 0 149.5 -12t137.5 -40t114.5 -70t77 -105.5t28.5 -141.5q0 -66 -11.5 -119.5t-28.5 -89t-44 -64.5t-51.5 -46t-56.5 -33q27 -11 55.5 -27t65 -47t64 -68t46.5 -91.5t19 -116.5z" />
    <glyph glyph-name="four" unicode="4" horiz-adv-x="1206" 
d="M592 582v485h-6l-246 -485h252zM1182 238h-144v-238h-446v238h-592v335l440 873h598v-864h144v-344z" />
    <glyph glyph-name="five" unicode="5" horiz-adv-x="1155" 
d="M1114 446q0 -118 -46 -211t-127 -150.5t-186.5 -87.5t-228.5 -30q-255 0 -475 60l78 344q170 -37 356 -37q85 0 132 35.5t47 93.5q0 70 -34 100.5t-110 30.5q-154 0 -403 -19v871h921v-348h-506v-172h78q243 0 373.5 -128t130.5 -352z" />
    <glyph glyph-name="six" unicode="6" horiz-adv-x="1206" 
d="M748 494q0 102 -28.5 145t-96.5 43q-42 0 -80.5 -10t-56.5 -20l-17 -9v-35q0 -169 32.5 -236t121.5 -67q125 0 125 189zM1176 494q0 -261 -153 -394t-413 -133q-287 0 -428 167.5t-141 502.5q0 143 24.5 267t79 231t135 182.5t198 118.5t263.5 43q209 0 355 -60l-74 -332
q-116 41 -258 41q-218 0 -287 -204q106 63 223 63q476 0 476 -493z" />
    <glyph glyph-name="seven" unicode="7" horiz-adv-x="1110" 
d="M1100 1171l-580 -1171h-479l549 1085h-537v361h1047v-275z" />
    <glyph glyph-name="eight" unicode="8" horiz-adv-x="1241" 
d="M764 424q0 9 -2.5 17.5t-9 18t-11.5 15.5t-16.5 16.5t-16 14.5t-19 15t-17.5 14l-56 43l-55 -46q-26 -21 -41.5 -35.5t-30 -37t-14.5 -43.5q0 -109 148 -109q141 0 141 117zM741 1053q0 98 -112 98q-127 0 -127 -96q0 -48 65 -97l49 -38l52 38q22 17 34.5 28t25.5 30
t13 37zM1198 391q0 -424 -580 -424q-575 0 -575 412q0 116 57.5 204.5t151.5 147.5l45 29l-49 39q-80 63 -122 131.5t-42 169.5q0 100 45.5 175t124 118.5t172.5 64.5t201 21q85 0 163 -14.5t146 -45t118.5 -73.5t79.5 -103.5t29 -132.5q0 -102 -46 -175.5t-130 -137.5
l-49 -37l45 -31q215 -146 215 -338z" />
    <glyph glyph-name="nine" unicode="9" horiz-adv-x="1193" 
d="M721 795v43q0 150 -31 223.5t-104 73.5q-125 0 -125 -179q0 -113 27.5 -155.5t95.5 -42.5q26 0 52.5 7t51.5 17.5t33 12.5zM1153 805q0 -421 -173 -629.5t-546 -208.5q-96 0 -202 15t-179 41l82 329q153 -39 281 -39q131 0 210 57t93 156q-43 -29 -105 -47t-122 -18
q-108 0 -190 28t-132.5 74t-82.5 112t-44 133.5t-12 147.5q0 251 152 387t415 136q185 0 311.5 -85.5t185 -234.5t58.5 -354z" />
    <glyph glyph-name="colon" unicode=":" horiz-adv-x="614" 
d="M537 682h-459v436h459v-436zM537 0h-459v436h459v-436z" />
    <glyph glyph-name="semicolon" unicode=";" horiz-adv-x="614" 
d="M537 436v-303q0 -240 -152 -420h-367q26 48 43 145t17 205v373h459zM537 682h-459v436h459v-436z" />
    <glyph glyph-name="less" unicode="&#x3c;" horiz-adv-x="1032" 
d="M979 238l-926 331v310l926 331v-368l-479 -119v-6l479 -111v-368z" />
    <glyph glyph-name="equal" unicode="=" horiz-adv-x="1097" 
d="M1024 311h-950v342h950v-342zM1024 776h-950v342h950v-342z" />
    <glyph glyph-name="greater" unicode="&#x3e;" horiz-adv-x="1032" 
d="M979 569l-926 -331v368l479 119v6l-479 111v368l926 -331v-310z" />
    <glyph glyph-name="question" unicode="?" horiz-adv-x="808" 
d="M557 0h-442v348h442v-348zM791 1018q0 -67 -31 -134t-83 -123.5t-103 -99t-107 -79.5l45 -109l-383 -57q-66 100 -66 202q0 39 14 74t36 61t48.5 49.5t53 43.5t48.5 39.5t36 42t14 45.5q0 48 -85.5 87t-198.5 48l80 371q80 -5 143.5 -12t137 -22t129 -36.5t109 -56.5
t87.5 -80.5t55 -110t21 -143.5z" />
    <glyph glyph-name="at" unicode="@" horiz-adv-x="1748" 
d="M1718 840q0 -271 -144 -419.5t-388 -148.5q-56 0 -101 12.5t-70 30.5t-38 34.5t-16 29.5q-20 -33 -72.5 -69t-126.5 -36q-54 0 -98.5 15.5t-83.5 50t-60.5 98t-21.5 152.5q0 184 119 306t327 122q156 0 299 -55l-41 -322q-3 -31 8.5 -50.5t36.5 -19.5q17 0 36 16t36.5 47
t29 86t11.5 124q0 180 -88 260t-256 80q-99 0 -186.5 -19t-168.5 -64.5t-139.5 -115t-93.5 -176.5t-35 -242q0 -116 34 -201.5t97.5 -137t148 -76.5t191.5 -25q144 0 373 29l37 -275q-144 -38 -227 -49.5t-201 -11.5q-194 0 -341.5 41t-255 127.5t-163 230t-55.5 340.5
q0 199 55.5 357.5t149 262.5t223.5 172.5t272 98t301 29.5q148 0 271 -39t216.5 -115.5t146 -200.5t52.5 -284zM897 561l33 201q-58 0 -90.5 -44t-32.5 -106q0 -69 39 -69q16 0 28.5 4.5t17.5 8.5z" />
    <glyph glyph-name="A" unicode="A" horiz-adv-x="1576" 
d="M922 659l-117 437h-8l-121 -437h246zM1587 0h-475l-102 354h-437l-122 -354h-461l545 1446h587z" />
    <glyph glyph-name="B" unicode="B" horiz-adv-x="1415" 
d="M901 477q0 65 -45 95t-156 30h-141v-248h154q188 0 188 123zM672 1102h-113v-230h123q94 0 128 28.5t34 88.5q0 61 -37 87t-135 26zM1384 442q0 -78 -19.5 -142t-67 -121t-121.5 -95.5t-188.5 -61t-262.5 -22.5h-629v1446h596q329 0 479 -102.5t150 -315.5
q0 -85 -34.5 -151.5t-86.5 -110.5v-4q72 -41 128 -122.5t56 -197.5z" />
    <glyph glyph-name="C" unicode="C" horiz-adv-x="1370" 
d="M1239 391l102 -348q-227 -76 -483 -76q-405 0 -612 184.5t-207 567.5q0 382 209.5 571t605.5 189q267 0 485 -82l-112 -344q-173 55 -355 55q-173 0 -268.5 -98t-95.5 -281q0 -186 99.5 -287.5t285.5 -101.5q184 0 346 51z" />
    <glyph glyph-name="D" unicode="D" horiz-adv-x="1589" 
d="M666 1081h-109v-716h129q219 0 308 75.5t89 276.5q0 107 -23.5 177t-76.5 111.5t-128.5 58.5t-188.5 17zM1550 727q0 -163 -41.5 -288t-115.5 -207.5t-185 -135t-241 -74.5t-293 -22h-578v1446h572q163 0 291.5 -20t242 -70.5t188 -131t117.5 -206t43 -291.5z" />
    <glyph glyph-name="E" unicode="E" horiz-adv-x="1234" 
d="M1182 0h-1086v1446h1039v-356h-578v-201h533v-328h-533v-205h625v-356z" />
    <glyph glyph-name="F" unicode="F" horiz-adv-x="1257" 
d="M1208 1090h-651v-234h606v-326h-606v-530h-461v1446h1112v-356z" />
    <glyph glyph-name="G" unicode="G" horiz-adv-x="1452" 
d="M1370 719v-662q-254 -88 -516 -88q-815 0 -815 750q0 386 212 571t611 185q244 0 477 -82l-108 -336q-183 55 -357 55q-176 0 -275 -98t-99 -285q0 -183 102 -288t270 -105l48 4v379h450z" />
    <glyph glyph-name="H" unicode="H" horiz-adv-x="1615" 
d="M1520 0h-461v557h-502v-557h-461v1446h461v-537h502v537h461v-1446z" />
    <glyph glyph-name="I" unicode="I" horiz-adv-x="653" 
d="M557 0h-461v1446h461v-1446z" />
    <glyph glyph-name="J" unicode="J" horiz-adv-x="708" 
d="M616 1446v-1032q0 -98 -20.5 -171t-56 -119t-91 -74t-119.5 -39t-147 -11h-182v358h51q103 0 103 95v993h462z" />
    <glyph glyph-name="K" unicode="K" horiz-adv-x="1587" 
d="M1599 0h-608l-434 670v-670h-461v1446h461v-600l424 600h592l-578 -680z" />
    <glyph glyph-name="L" unicode="L" horiz-adv-x="1200" 
d="M1176 0h-1080v1446h461v-1088h619v-358z" />
    <glyph glyph-name="M" unicode="M" horiz-adv-x="2011" 
d="M1915 0h-451v725h-6l-221 -725h-492l-190 725h-8v-725h-451v1446h621l276 -995h6l308 995h608v-1446z" />
    <glyph glyph-name="N" unicode="N" horiz-adv-x="1607" 
d="M1511 0h-516l-432 762h-6v-762h-461v1446h510l436 -774h7v774h462v-1446z" />
    <glyph glyph-name="O" unicode="O" horiz-adv-x="1693" 
d="M1184 725q0 69 -10 125.5t-33.5 106t-61.5 83t-96.5 53t-134.5 19.5q-97 0 -165 -29t-105.5 -83.5t-53.5 -121.5t-16 -155q0 -87 16 -154t53 -122t103.5 -84t161.5 -29q99 0 167.5 29t106 84t53 122t15.5 156zM838 -33q-394 0 -596.5 187.5t-202.5 566.5
q0 375 213.5 566.5t605.5 191.5q797 0 797 -754q0 -375 -210 -566.5t-607 -191.5z" />
    <glyph glyph-name="P" unicode="P" horiz-adv-x="1335" 
d="M858 889q0 32 -4 58t-16 53.5t-32.5 46.5t-55 31t-80.5 12h-111v-402h86q62 0 106 18t66 49t31.5 63.5t9.5 70.5zM1331 895q0 -115 -44.5 -214.5t-129.5 -176.5t-221.5 -121.5t-308.5 -44.5h-68v-338h-463v1446h619q130 0 243 -38t195.5 -108t130 -174.5t47.5 -230.5z
" />
    <glyph glyph-name="Q" unicode="Q" horiz-adv-x="1693" 
d="M1184 725q0 69 -10 125.5t-33.5 106t-61.5 83t-96.5 53t-134.5 19.5q-97 0 -165 -29t-105.5 -83.5t-53.5 -121.5t-16 -155q0 -87 16 -154t53 -122t103.5 -84t161.5 -29q99 0 167.5 29t106 84t53 122t15.5 156zM838 -33q-394 0 -596.5 187.5t-202.5 566.5
q0 375 213.5 566.5t605.5 191.5q797 0 797 -754q0 -262 -107 -438h140v-312l-437 62q-179 -70 -413 -70z" />
    <glyph glyph-name="R" unicode="R" horiz-adv-x="1492" 
d="M668 1085h-109v-325h84q118 0 167.5 47.5t49.5 118.5q0 74 -40.5 116.5t-151.5 42.5zM1513 0h-552l-269 446q-43 -4 -133 -4v-442h-463v1446h596q138 0 251 -27.5t202 -85.5t138.5 -157.5t49.5 -233.5q0 -70 -21 -137t-54.5 -115.5t-67.5 -82.5t-66 -52z" />
    <glyph glyph-name="S" unicode="S" horiz-adv-x="1206" 
d="M1188 424q0 -100 -37 -179.5t-97.5 -130.5t-143 -85t-168.5 -48t-179 -14q-102 0 -196 9t-154.5 22t-107 26t-67.5 22l-20 9l76 355q24 -8 64 -19t145 -30t189 -19q202 0 202 94q0 27 -22 49t-59 39t-85.5 34t-102 37.5t-106.5 45t-101.5 61.5t-85.5 83t-59 113.5
t-22 148.5q0 94 34.5 169t91.5 123.5t134.5 80.5t157.5 45.5t166 13.5q133 0 257.5 -21.5t182.5 -43.5l58 -21l-89 -342q-200 57 -333 57q-172 0 -172 -80q0 -26 28 -48t73.5 -38t104 -38t119 -45.5t119 -62.5t104 -87t73.5 -121.5t28 -163.5z" />
    <glyph glyph-name="T" unicode="T" horiz-adv-x="1304" 
d="M1309 1090h-426v-1090h-461v1090h-426v356h1313v-356z" />
    <glyph glyph-name="U" unicode="U" horiz-adv-x="1611" 
d="M1532 1446v-821q0 -658 -721 -658q-731 0 -731 611v868h467v-856q0 -124 59.5 -182t204.5 -58q146 0 205 63t59 216v817h457z" />
    <glyph glyph-name="V" unicode="V" horiz-adv-x="1566" 
d="M1585 1446l-506 -1446h-590l-507 1446h495l316 -1051h6l315 1051h471z" />
    <glyph glyph-name="W" unicode="W" horiz-adv-x="2172" 
d="M2173 1446l-324 -1446h-614l-156 791h-6l-172 -791h-620l-281 1446h492l135 -1000h6l227 1000h453l209 -1000h6l158 1000h487z" />
    <glyph glyph-name="X" unicode="X" horiz-adv-x="1505" 
d="M1524 0h-531l-241 483h-7l-249 -483h-525l482 727l-443 719h541l205 -442h6l217 442h534l-456 -717z" />
    <glyph glyph-name="Y" unicode="Y" horiz-adv-x="1572" 
d="M1610 1446l-613 -1034v-412h-460v412l-574 1034h535l280 -627h6l301 627h525z" />
    <glyph glyph-name="Z" unicode="Z" horiz-adv-x="1282" 
d="M1253 0h-1224v289l600 792h-557v365h1138v-277l-612 -804h655v-365z" />
    <glyph glyph-name="bracketleft" unicode="[" horiz-adv-x="727" 
d="M702 -451h-606v1995h606v-366h-153v-1262h153v-367z" />
    <glyph glyph-name="backslash" unicode="\" horiz-adv-x="1019" 
d="M674 -451l-647 1995h381l653 -1995h-387z" />
    <glyph glyph-name="bracketright" unicode="]" horiz-adv-x="727" 
d="M631 -451h-606v367h153v1262h-153v366h606v-1995z" />
    <glyph glyph-name="asciicircum" unicode="^" horiz-adv-x="1173" 
d="M1178 600h-416l-172 543h-6l-172 -543h-416l356 846h471z" />
    <glyph glyph-name="underscore" unicode="_" horiz-adv-x="1021" 
d="M1022 -424h-1022v356h1022v-356z" />
    <glyph glyph-name="grave" unicode="`" horiz-adv-x="909" 
d="M426 1206l-287 391h473l158 -391h-344z" />
    <glyph glyph-name="a" unicode="a" horiz-adv-x="1286" 
d="M700 295v127l-127 -4q-22 -1 -35 -2t-33.5 -6t-31.5 -12.5t-20 -23t-9 -36.5q0 -36 17 -52t53 -16q94 0 186 25zM1247 334l-16 -344q-91 -23 -154 -23q-123 0 -202 41t-95 90q-24 -18 -52 -36t-75 -42t-105.5 -38.5t-117.5 -14.5q-195 0 -293 88t-98 269q0 64 18 115
t46 85t73.5 58.5t89.5 38t105 21t109.5 9.5t113.5 2h106q0 48 -3 70.5t-17.5 43t-43.5 26.5t-81 6q-83 0 -164 -14t-158 -36l-77 -22l-64 313q277 113 512 113q69 0 121 -3t111.5 -12.5t101.5 -26t83.5 -46t67 -70.5t41 -101t15.5 -136v-344q0 -49 25 -64.5t77 -15.5z" />
    <glyph glyph-name="b" unicode="b" horiz-adv-x="1335" 
d="M836 598q0 124 -51.5 176.5t-147.5 52.5q-19 0 -39 -4t-39 -9.5t-22 -6.5v-490q80 -10 98 -10q94 0 147.5 83.5t53.5 207.5zM1300 612q0 -144 -38 -256.5t-101 -184.5t-152.5 -119t-185.5 -66t-207 -19q-319 0 -530 74v1505h451v-430q5 1 27.5 7.5t40 11t43.5 9.5t53 8
t53 3q546 0 546 -543z" />
    <glyph glyph-name="c" unicode="c" horiz-adv-x="1112" 
d="M1092 1077l-105 -325q-138 41 -260 41q-36 0 -67.5 -6.5t-60.5 -23t-49.5 -42t-33 -66.5t-12.5 -94q0 -127 55.5 -182t190.5 -55q125 0 260 22l59 -342q-170 -37 -346 -37q-347 0 -517.5 144t-170.5 450q0 277 181 434.5t486 157.5q221 0 390 -76z" />
    <glyph glyph-name="d" unicode="d" horiz-adv-x="1341" 
d="M803 365v434q-3 0 -22.5 4t-42 7t-42.5 3q-204 0 -204 -233q0 -242 170 -242q68 0 141 27zM1255 0h-421v88q-78 -68 -140 -94.5t-166 -26.5q-77 0 -146 19t-133.5 64.5t-111 114t-74.5 175t-28 240.5q0 125 36.5 225t96 164t141.5 106.5t167.5 60t178.5 17.5
q21 0 46.5 -2t43.5 -4t36.5 -5t21.5 -3v407h452v-1546z" />
    <glyph glyph-name="e" unicode="e" horiz-adv-x="1236" 
d="M1202 477h-715q0 -87 57 -120t179 -33q75 0 198 12.5t195 25.5l55 -339q-258 -56 -471 -56q-128 0 -225.5 15.5t-183 54.5t-140 103.5t-85.5 166t-31 238.5q0 168 44.5 288t129 189t193 100t249.5 31q289 0 420 -150t131 -432v-94zM487 715h254q0 84 -32.5 126t-85.5 42
q-58 0 -97 -41t-39 -127z" />
    <glyph glyph-name="f" unicode="f" horiz-adv-x="808" 
d="M887 1550l-47 -342q-93 17 -160 17q-92 0 -92 -99v-51h217v-323h-217v-752h-457v752h-133v323h133v86q0 108 26.5 187t68 124.5t106 72.5t128 35.5t146.5 8.5q129 0 281 -39z" />
    <glyph glyph-name="g" unicode="g" horiz-adv-x="1331" 
d="M1245 1087v-1005q0 -117 -39.5 -214.5t-113.5 -168.5t-185.5 -110.5t-249.5 -39.5q-306 0 -565 86l66 336q254 -82 399 -82q136 0 187 32t51 114v20q-24 -16 -85.5 -34.5t-127.5 -18.5q-87 0 -159 12t-146.5 48.5t-125.5 95.5t-83.5 160t-32.5 235q0 123 36.5 224
t99.5 169.5t150 115t185.5 68t208.5 21.5q264 0 530 -64zM793 344v459q-48 10 -95 10q-103 0 -153.5 -65.5t-50.5 -182.5q0 -133 48 -185t134 -52q74 0 117 16z" />
    <glyph glyph-name="h" unicode="h" horiz-adv-x="1359" 
d="M1274 0h-453v662q0 76 -23.5 101t-82.5 25q-40 0 -93 -12.5t-83 -30.5v-745h-453v1546h453v-532q69 61 167 100t207 39q68 0 121.5 -12.5t91 -33.5t64.5 -55.5t43 -71t25.5 -87t12.5 -97.5t3 -108v-688z" />
    <glyph glyph-name="i" unicode="i" horiz-adv-x="624" 
d="M539 0h-453v1118h453v-1118zM539 1272h-451v325h451v-325z" />
    <glyph glyph-name="j" unicode="j" horiz-adv-x="624" 
d="M539 1118v-1089q0 -264 -119 -372t-381 -108q-74 0 -156 15t-127 30l-45 15l58 301q125 -12 186 -12q73 0 102 29.5t29 103.5v1087h453zM539 1272h-451v325h451v-325z" />
    <glyph glyph-name="k" unicode="k" horiz-adv-x="1265" 
d="M1305 0h-547l-213 414h-6v-414h-453v1546h453v-803h6l196 375h508l-358 -534z" />
    <glyph glyph-name="l" unicode="l" horiz-adv-x="624" 
d="M539 0h-453v1546h453v-1546z" />
    <glyph glyph-name="m" unicode="m" horiz-adv-x="2048" 
d="M799 0v662q0 76 -22 100t-77 24q-82 0 -161 -41v-745h-453v1118h453v-104q1 1 11.5 9t18 13.5t23.5 16.5t30 19t35 19t40.5 19t45 16.5t50 14t53 9t57.5 3.5q246 0 314 -168q182 168 393 168q69 0 123.5 -14.5t91 -37.5t62.5 -60.5t40.5 -73.5t22.5 -88t10 -93t2 -98
v-688h-453v662q0 76 -22 100t-76 24q-83 0 -162 -41v-745h-450z" />
    <glyph glyph-name="n" unicode="n" horiz-adv-x="1359" 
d="M1274 0h-453v662q0 76 -23.5 101t-82.5 25q-42 0 -93.5 -12t-82.5 -31v-745h-453v1118h453v-104q74 66 173.5 102.5t200.5 36.5q68 0 121.5 -12.5t91 -33.5t64.5 -55.5t43 -71t25.5 -87t12.5 -97.5t3 -108v-688z" />
    <glyph glyph-name="o" unicode="o" horiz-adv-x="1327" 
d="M496 557q0 -123 36.5 -177t131.5 -54q94 0 130.5 54t36.5 177q0 122 -36 181t-131 59q-93 0 -130.5 -59t-37.5 -181zM1292 559q0 -183 -81.5 -318t-225 -204.5t-332.5 -69.5q-296 0 -457 160.5t-161 423.5q0 273 166 437.5t456 164.5q319 0 477 -158t158 -436z" />
    <glyph glyph-name="p" unicode="p" horiz-adv-x="1366" 
d="M680 786q-55 0 -133 -24v-447q74 -12 108 -12q97 0 152 70t55 190q0 123 -44 173t-138 50zM1321 575q0 -137 -38.5 -244.5t-100 -174.5t-146 -110.5t-169.5 -61t-177 -17.5q-73 0 -143 13v-431h-451v1569h420v-88q142 123 315 123q228 0 359 -140t131 -438z" />
    <glyph glyph-name="q" unicode="q" horiz-adv-x="1351" 
d="M803 330v473q-62 8 -96 8q-102 0 -152.5 -72t-50.5 -192q0 -238 170 -238q51 0 129 21zM1255 -451h-452v467q-39 -23 -103 -36t-125 -13q-48 0 -94.5 6t-100.5 23t-100.5 43.5t-90.5 71t-75 102t-50 141t-19 183.5q0 129 36 233t97.5 174.5t148 117.5t184 68t208.5 21
q303 0 536 -70v-1532z" />
    <glyph glyph-name="r" unicode="r" horiz-adv-x="952" 
d="M989 1122l-55 -391q-116 25 -182 25q-96 0 -203 -39v-717h-453v1118h453v-160q111 195 272 195q61 0 168 -31z" />
    <glyph glyph-name="s" unicode="s" horiz-adv-x="1095" 
d="M1059 365q0 -89 -34.5 -159.5t-89 -114.5t-129 -72.5t-148 -40t-152.5 -11.5q-264 0 -463 47l37 316q252 -43 354 -43q168 0 168 55q0 18 -24.5 30.5t-64 19t-90.5 17.5t-103.5 23.5t-103.5 39t-90.5 63t-64 97t-24.5 138.5t30.5 142.5t81.5 108.5t119.5 74t143.5 44
t155 14q249 0 445 -55l-47 -310q-74 18 -175.5 33t-160.5 15q-133 0 -133 -50q0 -20 24 -33.5t64 -21t90.5 -18.5t103 -23t103 -38t90.5 -60.5t64 -93t24 -133.5z" />
    <glyph glyph-name="t" unicode="t" horiz-adv-x="989" 
d="M940 358l35 -342q-159 -49 -316 -49q-55 0 -90 1t-85 5t-82 11.5t-72 21.5t-65.5 34.5t-52 51t-41.5 70t-24.5 92.5t-9.5 117v424h-137v323h141l29 230h422v-230h344v-323h-344v-377q0 -47 25.5 -63.5t78.5 -16.5q64 0 244 20z" />
    <glyph glyph-name="u" unicode="u" horiz-adv-x="1359" 
d="M1274 0h-453v104q-74 -65 -174 -102t-201 -37q-94 0 -161 24.5t-105 63t-59.5 102.5t-28 125.5t-6.5 149.5v688h451v-661q0 -76 24.5 -101.5t83.5 -25.5q84 0 176 43v745h453v-1118z" />
    <glyph glyph-name="v" unicode="v" horiz-adv-x="1343" 
d="M1372 1118l-442 -1118h-516l-443 1118h492l199 -715h16l211 715h483z" />
    <glyph glyph-name="w" unicode="w" horiz-adv-x="1824" 
d="M1851 1118l-284 -1118h-549l-119 698h-16l-117 -698h-530l-263 1118h473l72 -751h17l124 751h508l117 -751h16l84 751h467z" />
    <glyph glyph-name="x" unicode="x" horiz-adv-x="1323" 
d="M1350 0h-541l-139 356h-17l-143 -356h-537l377 571l-342 547h522l123 -332h17l123 332h518l-344 -549z" />
    <glyph glyph-name="y" unicode="y" horiz-adv-x="1339" 
d="M1366 1118l-600 -1569h-465l170 451h-74l-424 1118h486l203 -731h16l215 731h473z" />
    <glyph glyph-name="z" unicode="z" horiz-adv-x="1073" 
d="M1028 0h-983v276l438 484h-420v358h957v-270l-414 -496h422v-352z" />
    <glyph glyph-name="braceleft" unicode="{" horiz-adv-x="788" 
d="M770 -451h-168q-90 0 -163 10t-140.5 36t-112.5 68t-69.5 110t-20.5 157q0 34 6 70l29 248q7 59 -37.5 90t-103.5 31v358q58 0 103 31t38 90l-29 248q-6 36 -6 69q-4 89 20.5 157t69.5 110t112.5 68t140.5 36t163 10h168v-377h-82q-143 0 -129 -98l49 -305q0 -3 1 -16
t1 -15q3 -40 -8 -72.5t-31 -52.5t-39 -33t-38 -23q-5 -2 -7 -3v-6q18 -9 30 -15.5t33 -23.5t33 -35t20.5 -47.5t6.5 -63.5q0 -2 -1 -14.5t-1 -15.5l-49 -305q-7 -50 27 -74.5t102 -24.5h82v-377z" />
    <glyph glyph-name="bar" unicode="|" horiz-adv-x="645" 
d="M549 -451h-453v1995h453v-1995z" />
    <glyph glyph-name="braceright" unicode="}" horiz-adv-x="788" 
d="M799 727v-358q-58 0 -103.5 -31t-38.5 -90l29 -248q6 -36 6 -70q4 -89 -20.5 -157t-69.5 -110t-112.5 -68t-140.5 -36t-163 -10h-168v377h82q68 0 102 24.5t27 74.5l-49 305q0 3 -1 15.5t-1 14.5q-2 25 2.5 47.5t10 37.5t20 31.5t20.5 23.5t26 19.5t22.5 14t21.5 11.5v6
q-24 12 -39 21.5t-39.5 31.5t-36 55.5t-8.5 75.5q0 2 1 15t1 16l49 305q14 98 -129 98h-82v377h168q90 0 163 -10t140.5 -36t112.5 -68t69.5 -110t20.5 -157q0 -33 -6 -69l-29 -248q-7 -59 38 -90t104 -31z" />
    <glyph glyph-name="asciitilde" unicode="~" horiz-adv-x="1220" 
d="M981 938l172 -229q-13 -23 -49.5 -58.5t-88.5 -75t-120.5 -67t-132.5 -27.5q-53 0 -103.5 17t-82 37.5t-71 37.5t-73.5 17q-52 0 -109 -24t-83 -48l-172 238q17 20 39 43.5t61.5 56t80.5 58t95.5 43.5t106.5 18q54 0 102.5 -17t78 -37.5t68.5 -37.5t76 -17q52 0 110.5 20
t94.5 52z" />
    <glyph glyph-name="uni00A0" unicode="&#xa0;" horiz-adv-x="532" 
 />
    <glyph glyph-name="exclamdown" unicode="&#xa1;" horiz-adv-x="651" 
d="M104 1118h443v-348h-443v348zM96 -328v510l33 475h391l35 -475v-510h-459z" />
    <glyph glyph-name="cent" unicode="&#xa2;" horiz-adv-x="1112" 
d="M1087 1241l-106 -326q-115 41 -254 41q-217 0 -217 -229q0 -128 52.5 -180.5t187.5 -52.5q51 0 114.5 5t101.5 10l38 5l61 -342q-107 -23 -207 -31l2 -141h-397l2 162q-216 44 -321 182t-105 381q0 219 112 364.5t314 198.5l-2 158h397l-2 -137q63 -8 120 -25t83 -30z
" />
    <glyph glyph-name="sterling" unicode="&#xa3;" horiz-adv-x="1130" 
d="M1032 1479l17 -369q-96 -6 -155 -13.5t-108 -19.5t-73 -31.5t-36.5 -47t-12.5 -68.5v-135h346v-324h-346q0 -27 -9 -51.5t-21.5 -40t-25 -27.5t-21.5 -17l-9 -5v-6h507v-324h-1011v324q53 11 84 42.5t47 104.5h-150v324h158v227q0 78 13.5 140t46 107.5t68 79t98 56
t116 36t142.5 21.5t157 11t178 6z" />
    <glyph glyph-name="currency" unicode="&#xa4;" horiz-adv-x="1327" 
d="M498 756q0 -123 37 -177.5t131 -54.5q95 0 131.5 54.5t36.5 177.5q0 121 -37.5 180t-130.5 59q-95 0 -131.5 -58.5t-36.5 -180.5zM1102 63l-141 162q-133 -59 -308 -59q-167 0 -291 53l-135 -156l-194 164l123 142q-121 151 -121 381q0 237 127 395l-127 147l192 162
l138 -158q134 56 292 56q182 0 310 -52l135 154l192 -162l-120 -139q118 -144 118 -395q0 -227 -127 -383l131 -148z" />
    <glyph glyph-name="yen" unicode="&#xa5;" horiz-adv-x="1316" 
d="M1343 1446l-266 -655h168v-326h-364v-141h364v-324h-1173v324h348v141h-348v326h151l-250 655h498l160 -639h51l170 639h491z" />
    <glyph glyph-name="brokenbar" unicode="&#xa6;" horiz-adv-x="645" 
d="M549 -451h-453v744h453v-744zM549 801h-453v743h453v-743z" />
    <glyph glyph-name="section" unicode="&#xa7;" horiz-adv-x="1204" 
d="M668 147q0 57 -19 146l-141 653q-12 62 -12 135q0 28 5.5 54t18 52t21 41t27 41.5t22.5 33.5l-4 6q-79 -58 -125.5 -142.5t-46.5 -183.5q0 -76 14 -141l143 -641q13 -57 13 -121q0 -60 -18 -117.5t-72 -132.5l6 -6q61 45 101 108t53.5 115t13.5 100zM1237 1493l-119 -268
q-8 7 -23.5 16.5t-64 26t-98.5 16.5t-74 -29t-24 -77q0 -110 29.5 -250t64.5 -253.5t64.5 -256t29.5 -256.5q0 -173 -112.5 -315t-293.5 -220t-387 -78q-168 0 -311 70l62 283q90 -39 149 -39q49 0 84 37.5t35 83.5q0 105 -29 240t-64.5 245.5t-64.5 248.5t-29 247
q0 133 66 251t175 199.5t253 128.5t297 47q97 0 206.5 -23.5t178.5 -74.5z" />
    <glyph glyph-name="dieresis" unicode="&#xa8;" horiz-adv-x="1181" 
d="M1090 1227h-408v370h408v-370zM498 1227h-406v370h406v-370z" />
    <glyph glyph-name="copyright" unicode="&#xa9;" horiz-adv-x="1640" 
d="M1143 315l-60 252q-89 -24 -178 -24q-174 0 -174 166q0 85 41 125t125 40q113 0 184 -26l60 244q-133 53 -279 53q-205 0 -322.5 -118.5t-117.5 -321.5q0 -209 113.5 -323t328.5 -114q71 0 152.5 14t126.5 33zM811 -33q-371 0 -571.5 192t-200.5 562q0 364 211 561
t581 197q374 0 572.5 -194t198.5 -560q0 -362 -208 -560t-583 -198z" />
    <glyph glyph-name="ordfeminine" unicode="&#xaa;" horiz-adv-x="858" 
d="M457 985v62l-70 -3q-22 -1 -35 -3.5t-23 -11t-10 -23.5q0 -18 7.5 -25.5t27.5 -7.5q54 0 103 12zM774 520h-680v203h680v-203zM788 1010l-10 -209q-67 -15 -108 -15q-40 0 -71.5 7.5t-47.5 18.5t-26.5 22t-13.5 18l-3 8q-12 -8 -32 -20.5t-74.5 -33t-98.5 -20.5
q-233 0 -233 211q0 49 18.5 85.5t46.5 57t70.5 32.5t81.5 16t88 4h82q0 44 -13.5 58t-66.5 14q-48 0 -107.5 -11t-95.5 -21l-35 -11l-41 190q17 8 46 19t110.5 30t153.5 19q40 0 69 -1.5t65 -7t61 -15t50.5 -26.5t41 -41.5t25 -60.5t9.5 -82v-194q0 -23 14.5 -32t44.5 -9z
" />
    <glyph glyph-name="guillemotleft" unicode="&#xab;" horiz-adv-x="1175" 
d="M616 920l-206 -363l204 -356l-327 -119l-287 475l287 475zM1176 920l-207 -363l205 -356l-328 -119l-287 475l287 475z" />
    <glyph glyph-name="logicalnot" unicode="&#xac;" horiz-adv-x="1193" 
d="M1098 233h-367v318h-635v356h1002v-674z" />
    <glyph glyph-name="registered" unicode="&#xae;" horiz-adv-x="1640" 
d="M811 -33q-371 0 -571.5 192t-200.5 562q0 364 211 561t581 197q374 0 572.5 -194t198.5 -560q0 -362 -208 -560t-583 -198zM885 856q0 -49 -24 -72.5t-85 -23.5h-33v174h45q54 0 75.5 -20t21.5 -58zM1325 483l-278 181v4q17 8 35 21t43 37.5t41 64.5t16 88
q0 78 -29.5 131.5t-84.5 80.5t-116 37.5t-141 10.5h-354v-811h286v250h21l168 -177q40 -42 110 -67.5t120 -29.5l50 -5z" />
    <glyph glyph-name="macron" unicode="&#xaf;" horiz-adv-x="915" 
d="M834 1221h-752v376h752v-376z" />
    <glyph glyph-name="degree" unicode="&#xb0;" horiz-adv-x="813" 
d="M461 1141q0 41 -13 57t-42 16q-28 0 -41 -15.5t-13 -57.5q0 -44 12.5 -60t41.5 -16q28 0 41.5 16.5t13.5 59.5zM406 803q-180 0 -280.5 83.5t-100.5 254.5q0 84 32 150.5t86.5 106.5t122 60.5t142.5 20.5q176 0 278 -84.5t102 -253.5q0 -84 -31.5 -150.5t-86 -106.5
t-121.5 -60.5t-143 -20.5z" />
    <glyph glyph-name="plusminus" unicode="&#xb1;" horiz-adv-x="1126" 
d="M1061 0h-995v348h315v211h-315v346h315v314h362v-314h318v-346h-318v-211h318v-348z" />
    <glyph glyph-name="twosuperior" unicode="&#xb2;" horiz-adv-x="792" 
d="M680 770h-567v172l249 217q44 38 44 62q0 39 -54 39q-33 0 -75.5 -8t-68.5 -16l-26 -9l-67 194q41 20 118 39t166 19q140 0 209.5 -62.5t69.5 -161.5q0 -144 -232 -274v-6h234v-205z" />
    <glyph glyph-name="threesuperior" unicode="&#xb3;" horiz-adv-x="790" 
d="M678 991q0 -223 -311 -223q-64 0 -127.5 8.5t-95.5 17.5l-31 9l39 201q141 -21 192 -21q35 0 47 11.5t12 33.5t-41.5 29.5t-130.5 7.5v137q89 0 122.5 9.5t33.5 35.5q0 29 -39 29q-34 0 -77.5 -8t-70.5 -16l-26 -7l-55 195q14 6 38.5 15t92.5 23.5t127 14.5
q118 0 196 -48t78 -149q0 -92 -71 -145q40 -22 69 -63.5t29 -96.5z" />
    <glyph glyph-name="acute" unicode="&#xb4;" horiz-adv-x="921" 
d="M776 1597l-287 -391h-344l158 391h473z" />
    <glyph glyph-name="paragraph" unicode="&#xb6;" horiz-adv-x="1312" 
d="M1217 1446v-1413q0 -85 -14.5 -155t-39.5 -119.5t-62.5 -87t-79.5 -60.5t-95 -37t-104 -19.5t-111 -5.5q-70 0 -165.5 18t-156.5 40l57 350q140 -33 211 -33q61 0 85 26t24 105v1391h451zM678 1448v-1030q-72 0 -109 0.5t-104.5 5t-105.5 13.5t-93.5 26.5t-87.5 43
t-70 65t-57.5 90t-33 120t-13.5 154.5q0 82 13.5 150t35 117.5t57.5 88t72 64t86.5 43t93 26.5t101.5 14.5t101.5 6.5t101.5 2h12z" />
    <glyph glyph-name="periodcentered" unicode="&#xb7;" horiz-adv-x="604" 
d="M522 532h-440v422h440v-422z" />
    <glyph glyph-name="cedilla" unicode="&#xb8;" horiz-adv-x="714" 
d="M639 -289q0 -50 -23 -94t-59.5 -75t-81 -57t-89 -42t-81 -27t-59.5 -16l-23 -4l-147 256q8 2 20.5 5.5t44.5 16t56.5 28t44.5 40.5t20 53l-14 101h336q55 -111 55 -185z" />
    <glyph glyph-name="onesuperior" unicode="&#xb9;" horiz-adv-x="634" 
d="M522 780h-260v471h-149v215l409 13v-699z" />
    <glyph glyph-name="ordmasculine" unicode="&#xba;" horiz-adv-x="892" 
d="M537 1126q0 68 -20 99.5t-73 31.5q-51 0 -72.5 -31t-21.5 -100t20.5 -99t73.5 -30t73 29t20 100zM784 520h-680v203h680v-203zM823 1126q0 -161 -108.5 -255.5t-280.5 -94.5q-177 0 -270.5 94.5t-93.5 251.5q0 161 102.5 259t276.5 98q190 0 282 -94t92 -259z" />
    <glyph glyph-name="guillemotright" unicode="&#xbb;" horiz-adv-x="1175" 
d="M0 920l330 112l286 -475l-286 -475l-328 119l205 356zM559 920l330 112l287 -475l-287 -475l-328 119l205 356z" />
    <glyph glyph-name="onequarter" unicode="&#xbc;" horiz-adv-x="1361" 
d="M1038 1085l-399 -305v307l399 306v-308zM522 780h-260v471h-149v215l409 13v-699zM522 360l-399 -305v307l399 306v-308zM899 514h-6l-94 -215h100v215zM1249 117h-90v-117h-260v117h-281v186l193 391h348v-395h90v-182z" />
    <glyph glyph-name="onehalf" unicode="&#xbd;" horiz-adv-x="1335" 
d="M1038 1085l-399 -305v307l399 306v-308zM522 780h-260v471h-149v215l409 13v-699zM522 360l-399 -305v307l399 306v-308zM1223 0h-568v172l250 217q43 37 43 62q0 38 -53 38q-33 0 -75.5 -8t-68.5 -16l-26 -8l-68 194q40 20 118 39t167 19q140 0 209.5 -62.5t69.5 -161.5
q0 -144 -232 -274v-6h234v-205z" />
    <glyph glyph-name="threequarters" unicode="&#xbe;" horiz-adv-x="1544" 
d="M1221 1085l-400 -305v307l400 306v-308zM705 360l-400 -305v307l400 306v-308zM1081 514h-6l-94 -215h100v215zM1432 117h-91v-117h-260v117h-280v186l192 391h348v-395h91v-182zM678 991q0 -223 -311 -223q-64 0 -127.5 8.5t-95.5 17.5l-31 9l39 201q141 -21 192 -21
q35 0 47 11.5t12 33.5t-41.5 29.5t-130.5 7.5v137q89 0 122.5 9.5t33.5 35.5q0 29 -39 29q-34 0 -77.5 -8t-70.5 -16l-26 -7l-55 195q14 6 38.5 15t92.5 23.5t127 14.5q118 0 196 -48t78 -149q0 -92 -71 -145q40 -22 69 -63.5t29 -96.5z" />
    <glyph glyph-name="questiondown" unicode="&#xbf;" horiz-adv-x="808" 
d="M252 1118h442v-348h-442v348zM18 100q0 67 33.5 137t81 121.5t95 93.5t80.5 64l34 21l-45 108l383 57q7 -11 18 -30t29 -72t18 -100q0 -53 -25.5 -99t-62.5 -77t-73.5 -59t-62 -58.5t-25.5 -61.5q0 -48 85.5 -87t198.5 -48l-80 -370q-80 5 -143.5 12t-137 22t-128.5 36
t-109 56t-88 80.5t-55 110t-21 143.5z" />
    <glyph glyph-name="Agrave" unicode="&#xc0;" horiz-adv-x="1576" 
d="M702 1526l-278 377h473l150 -377h-345zM922 659l-117 437h-8l-121 -437h246zM1587 0h-475l-102 354h-437l-122 -354h-461l545 1446h587z" />
    <glyph glyph-name="Aacute" unicode="&#xc1;" horiz-adv-x="1576" 
d="M1233 1903l-279 -377h-344l150 377h473zM922 659l-117 437h-8l-121 -437h246zM1587 0h-475l-102 354h-437l-122 -354h-461l545 1446h587z" />
    <glyph glyph-name="Acircumflex" unicode="&#xc2;" horiz-adv-x="1576" 
d="M317 1526l248 377h500l252 -377h-412l-88 180l-92 -180h-408zM922 659l-117 437h-8l-121 -437h246zM1587 0h-475l-102 354h-437l-122 -354h-461l545 1446h587z" />
    <glyph glyph-name="Atilde" unicode="&#xc3;" horiz-adv-x="1576" 
d="M1587 0h-475l-102 354h-437l-122 -354h-461l545 1446h587zM1163 1933l146 -211l-15 -16q-14 -17 -24.5 -28t-33.5 -32t-43.5 -36t-51 -33t-60 -29.5t-66.5 -19.5t-75 -8q-46 0 -88.5 14.5t-69 31.5t-62.5 31.5t-71 14.5q-91 0 -176 -74l-151 215q168 205 372 205
q47 0 89 -14.5t68 -31.5t62.5 -31.5t73.5 -14.5q31 0 60 8t44.5 16t40.5 23.5t31 19.5zM922 659l-117 437h-8l-121 -437h246z" />
    <glyph glyph-name="Adieresis" unicode="&#xc4;" horiz-adv-x="1576" 
d="M1319 1528h-408v370h408v-370zM727 1528h-405v370h405v-370zM922 659l-117 437h-8l-121 -437h246zM1587 0h-475l-102 354h-437l-122 -354h-461l545 1446h587z" />
    <glyph glyph-name="Aring" unicode="&#xc5;" horiz-adv-x="1576" 
d="M922 659l-117 494h-8l-121 -494h246zM915 1610q0 63 -88 63q-86 0 -86 -61q0 -66 88 -66q86 0 86 64zM1206 1610q0 -120 -76 -193l457 -1417h-475l-102 354h-437l-122 -354h-461l534 1417q-73 70 -73 191q0 149 103 218.5t273 69.5q61 0 114 -8t102.5 -28.5t85 -52
t56.5 -82t21 -115.5z" />
    <glyph glyph-name="AE" unicode="&#xc6;" horiz-adv-x="2099" 
d="M961 696v394h-68l-150 -394h218zM2046 0h-1085v391h-330l-156 -391h-485l606 1446h1403v-356h-576v-201h531v-328h-531v-205h623v-356z" />
    <glyph glyph-name="Ccedilla" unicode="&#xc7;" horiz-adv-x="1370" 
d="M1239 391l102 -348q-227 -76 -483 -76q-405 0 -612 184.5t-207 567.5q0 382 209.5 571t605.5 189q267 0 485 -82l-112 -344q-173 55 -355 55q-173 0 -268.5 -98t-95.5 -281q0 -186 99.5 -287.5t285.5 -101.5q184 0 346 51zM1079 -289q0 -50 -23 -94t-59.5 -75t-80.5 -57
t-88.5 -42t-81 -27t-59.5 -16l-23 -4l-148 256q8 2 20.5 5.5t44.5 16t56.5 28t44.5 40.5t20 53l-14 101h336q55 -111 55 -185z" />
    <glyph glyph-name="Egrave" unicode="&#xc8;" horiz-adv-x="1234" 
d="M500 1526l-279 377h473l150 -377h-344zM1182 0h-1086v1446h1039v-356h-578v-201h533v-328h-533v-205h625v-356z" />
    <glyph glyph-name="Eacute" unicode="&#xc9;" horiz-adv-x="1234" 
d="M1024 1903l-279 -377h-344l150 377h473zM1182 0h-1086v1446h1039v-356h-578v-201h533v-328h-533v-205h625v-356z" />
    <glyph glyph-name="Ecircumflex" unicode="&#xca;" horiz-adv-x="1234" 
d="M115 1526l247 377h500l252 -377h-412l-88 180l-92 -180h-407zM1182 0h-1086v1446h1039v-356h-578v-201h533v-328h-533v-205h625v-356z" />
    <glyph glyph-name="Edieresis" unicode="&#xcb;" horiz-adv-x="1234" 
d="M1114 1528h-407v370h407v-370zM522 1528h-405v370h405v-370zM1182 0h-1086v1446h1039v-356h-578v-201h533v-328h-533v-205h625v-356z" />
    <glyph glyph-name="Igrave" unicode="&#xcc;" horiz-adv-x="653" 
d="M223 1526l-278 377h473l149 -377h-344zM557 0h-461v1446h461v-1446z" />
    <glyph glyph-name="Iacute" unicode="&#xcd;" horiz-adv-x="653" 
d="M709 1903l-279 -377h-344l150 377h473zM557 0h-461v1446h461v-1446z" />
    <glyph glyph-name="Icircumflex" unicode="&#xce;" horiz-adv-x="653" 
d="M-174 1526l248 377h499l252 -377h-411l-88 180l-93 -180h-407zM557 0h-461v1446h461v-1446z" />
    <glyph glyph-name="Idieresis" unicode="&#xcf;" horiz-adv-x="653" 
d="M825 1528h-407v370h407v-370zM233 1528h-405v370h405v-370zM557 0h-461v1446h461v-1446z" />
    <glyph glyph-name="Eth" unicode="&#xd0;" horiz-adv-x="1589" 
d="M666 1081h-109v-243h203v-252h-203v-221h129q219 0 308 75.5t89 276.5q0 107 -23.5 177t-76.5 111.5t-128.5 58.5t-188.5 17zM1550 727q0 -163 -41.5 -288t-115.5 -207.5t-185 -135t-241 -74.5t-293 -22h-578v586h-116v252h116v608h572q163 0 291.5 -20t242 -70.5
t188 -131t117.5 -206t43 -291.5z" />
    <glyph glyph-name="Ntilde" unicode="&#xd1;" horiz-adv-x="1607" 
d="M1511 0h-516l-432 762h-6v-762h-461v1446h510l436 -774h7v774h462v-1446zM1151 1933l145 -211q-1 -1 -15 -17t-24.5 -27.5t-33 -32t-43 -35.5t-51 -33t-60 -29.5t-66.5 -19.5t-75 -8q-46 0 -88.5 14.5t-69 31.5t-62.5 31.5t-71 14.5q-91 0 -176 -74l-152 215
q168 205 373 205q47 0 89 -14.5t68 -31.5t62.5 -31.5t73.5 -14.5q31 0 60 8t44.5 16t40.5 23.5t31 19.5z" />
    <glyph glyph-name="Ograve" unicode="&#xd2;" horiz-adv-x="1693" 
d="M711 1526l-279 377h473l150 -377h-344zM1184 725q0 69 -10 125.5t-33.5 106t-61.5 83t-96.5 53t-134.5 19.5q-97 0 -165 -29t-105.5 -83.5t-53.5 -121.5t-16 -155q0 -87 16 -154t53 -122t103.5 -84t161.5 -29q99 0 167.5 29t106 84t53 122t15.5 156zM838 -33
q-394 0 -596.5 187.5t-202.5 566.5q0 375 213.5 566.5t605.5 191.5q797 0 797 -754q0 -375 -210 -566.5t-607 -191.5z" />
    <glyph glyph-name="Oacute" unicode="&#xd3;" horiz-adv-x="1693" 
d="M1235 1903l-279 -377h-344l150 377h473zM1184 725q0 69 -10 125.5t-33.5 106t-61.5 83t-96.5 53t-134.5 19.5q-97 0 -165 -29t-105.5 -83.5t-53.5 -121.5t-16 -155q0 -87 16 -154t53 -122t103.5 -84t161.5 -29q99 0 167.5 29t106 84t53 122t15.5 156zM838 -33
q-394 0 -596.5 187.5t-202.5 566.5q0 375 213.5 566.5t605.5 191.5q797 0 797 -754q0 -375 -210 -566.5t-607 -191.5z" />
    <glyph glyph-name="Ocircumflex" unicode="&#xd4;" horiz-adv-x="1693" 
d="M346 1526l248 377h500l252 -377h-412l-88 180l-92 -180h-408zM1184 725q0 69 -10 125.5t-33.5 106t-61.5 83t-96.5 53t-134.5 19.5q-97 0 -165 -29t-105.5 -83.5t-53.5 -121.5t-16 -155q0 -87 16 -154t53 -122t103.5 -84t161.5 -29q99 0 167.5 29t106 84t53 122t15.5 156
zM838 -33q-394 0 -596.5 187.5t-202.5 566.5q0 375 213.5 566.5t605.5 191.5q797 0 797 -754q0 -375 -210 -566.5t-607 -191.5z" />
    <glyph glyph-name="Otilde" unicode="&#xd5;" horiz-adv-x="1693" 
d="M838 -33q-394 0 -596.5 187.5t-202.5 566.5q0 375 213.5 566.5t605.5 191.5q797 0 797 -754q0 -375 -210 -566.5t-607 -191.5zM1184 725q0 69 -10 125.5t-33.5 106t-61.5 83t-96.5 53t-134.5 19.5q-97 0 -165 -29t-105.5 -83.5t-53.5 -121.5t-16 -155q0 -87 16 -154
t53 -122t103.5 -84t161.5 -29q99 0 167.5 29t106 84t53 122t15.5 156zM1194 1933l145 -211q-1 -1 -15 -17t-24.5 -27.5t-33 -32t-43 -35.5t-51 -33t-60 -29.5t-66.5 -19.5t-75 -8q-46 0 -88.5 14.5t-69 31.5t-62.5 31.5t-71 14.5q-91 0 -176 -74l-152 215q168 205 373 205
q47 0 89 -14.5t68 -31.5t62.5 -31.5t73.5 -14.5q31 0 60 8t44.5 16t40.5 23.5t31 19.5z" />
    <glyph glyph-name="Odieresis" unicode="&#xd6;" horiz-adv-x="1693" 
d="M1346 1528h-408v370h408v-370zM754 1528h-406v370h406v-370zM1184 725q0 69 -10 125.5t-33.5 106t-61.5 83t-96.5 53t-134.5 19.5q-97 0 -165 -29t-105.5 -83.5t-53.5 -121.5t-16 -155q0 -87 16 -154t53 -122t103.5 -84t161.5 -29q99 0 167.5 29t106 84t53 122t15.5 156z
M838 -33q-394 0 -596.5 187.5t-202.5 566.5q0 375 213.5 566.5t605.5 191.5q797 0 797 -754q0 -375 -210 -566.5t-607 -191.5z" />
    <glyph glyph-name="multiply" unicode="&#xd7;" horiz-adv-x="1159" 
d="M1081 473l-245 -250l-256 256l-252 -254l-250 250l252 254l-252 252l246 250l256 -256l251 254l250 -250l-252 -254z" />
    <glyph glyph-name="Oslash" unicode="&#xd8;" horiz-adv-x="1693" 
d="M1184 725q0 69 -10 125.5t-33.5 106t-61.5 83t-96.5 53t-134.5 19.5q-97 0 -165 -29t-105.5 -83.5t-53.5 -121.5t-16 -155q0 -87 16 -154t53 -122t103.5 -84t161.5 -29q99 0 167.5 29t106 84t53 122t15.5 156zM1655 725q0 -375 -210 -566.5t-607 -191.5q-234 0 -402 68
l-166 -193l-213 185l146 168q-164 185 -164 526q0 375 213.5 566.5t605.5 191.5q232 0 397 -64l166 193l215 -183l-147 -170q166 -187 166 -530z" />
    <glyph glyph-name="Ugrave" unicode="&#xd9;" horiz-adv-x="1611" 
d="M688 1526l-278 377h473l149 -377h-344zM1532 1446v-821q0 -658 -721 -658q-731 0 -731 611v868h467v-856q0 -124 59.5 -182t204.5 -58q146 0 205 63t59 216v817h457z" />
    <glyph glyph-name="Uacute" unicode="&#xda;" horiz-adv-x="1611" 
d="M1190 1903l-279 -377h-344l150 377h473zM1532 1446v-821q0 -658 -721 -658q-731 0 -731 611v868h467v-856q0 -124 59.5 -182t204.5 -58q146 0 205 63t59 216v817h457z" />
    <glyph glyph-name="Ucircumflex" unicode="&#xdb;" horiz-adv-x="1611" 
d="M305 1526l248 377h500l252 -377h-412l-88 180l-92 -180h-408zM1532 1446v-821q0 -658 -721 -658q-731 0 -731 611v868h467v-856q0 -124 59.5 -182t204.5 -58q146 0 205 63t59 216v817h457z" />
    <glyph glyph-name="Udieresis" unicode="&#xdc;" horiz-adv-x="1611" 
d="M1305 1528h-408v370h408v-370zM713 1528h-406v370h406v-370zM1532 1446v-821q0 -658 -721 -658q-731 0 -731 611v868h467v-856q0 -124 59.5 -182t204.5 -58q146 0 205 63t59 216v817h457z" />
    <glyph glyph-name="Yacute" unicode="&#xdd;" horiz-adv-x="1572" 
d="M1202 1903l-278 -377h-344l149 377h473zM1610 1446l-613 -1034v-412h-460v412l-574 1034h535l280 -627h6l301 627h525z" />
    <glyph glyph-name="Thorn" unicode="&#xde;" horiz-adv-x="1345" 
d="M858 721q0 203 -188 203h-111v-404h86q62 0 106 18t66 49t31.5 63.5t9.5 70.5zM1331 729q0 -114 -44.5 -214t-129 -177t-217.5 -121.5t-299 -44.5h-82v-172h-463v1448h463v-168h156q130 0 243 -38t195.5 -108t130 -174.5t47.5 -230.5z" />
    <glyph glyph-name="germandbls" unicode="&#xdf;" horiz-adv-x="1439" 
d="M1423 354q0 -86 -34.5 -154.5t-88 -111t-124 -71t-137.5 -39.5t-134 -11q-81 0 -162 7.5t-122 15.5l-41 8l36 313q137 -24 205 -24q146 0 146 71q0 30 -26 56t-65.5 45t-85 45.5t-85 55.5t-65.5 78.5t-26 111.5q0 46 19 88.5t46 74.5t54.5 61.5t46.5 63t19 66.5
q0 62 -37.5 93.5t-87.5 31.5q-70 0 -103.5 -42.5t-33.5 -131.5v-1055h-451v1053q0 536 592 536q118 0 223.5 -25t188 -72.5t130.5 -123.5t48 -170q0 -60 -24 -114t-58.5 -93.5t-69 -73.5t-58.5 -68t-24 -63q0 -25 21.5 -47t56 -41t75.5 -39.5t82.5 -48t76 -61t56 -84
t21.5 -111.5z" />
    <glyph glyph-name="agrave" unicode="&#xe0;" horiz-adv-x="1286" 
d="M492 1206l-287 391h473l158 -391h-344zM723 295v127l-127 -4q-22 -1 -35 -2t-33.5 -6t-31.5 -12.5t-20 -23t-9 -36.5q0 -36 17 -52t53 -16q94 0 186 25zM1270 334l-17 -344q-90 -23 -153 -23q-123 0 -202 41t-95 90q-24 -18 -52 -36t-75 -42t-105.5 -38.5t-117.5 -14.5
q-392 0 -392 357q0 64 18 115t46 85t73.5 58.5t89.5 38t105 21t109.5 9.5t113.5 2h107q0 48 -3 70.5t-17.5 43t-43.5 26.5t-81 6q-64 0 -134 -10t-114.5 -21t-92.5 -25t-59 -16l-63 313q277 113 512 113q53 0 94.5 -1.5t89 -6.5t84 -14t75.5 -24t67 -35.5t53.5 -50.5
t41.5 -67.5t25.5 -87t9.5 -108.5v-344q0 -48 25.5 -64t77.5 -16z" />
    <glyph glyph-name="aacute" unicode="&#xe1;" horiz-adv-x="1286" 
d="M723 295v127l-127 -4q-22 -1 -35 -2t-33.5 -6t-31.5 -12.5t-20 -23t-9 -36.5q0 -36 17 -52t53 -16q94 0 186 25zM1270 334l-17 -344q-90 -23 -153 -23q-123 0 -202 41t-95 90q-24 -18 -52 -36t-75 -42t-105.5 -38.5t-117.5 -14.5q-392 0 -392 357q0 64 18 115t46 85
t73.5 58.5t89.5 38t105 21t109.5 9.5t113.5 2h107q0 48 -3 70.5t-17.5 43t-43.5 26.5t-81 6q-64 0 -134 -10t-114.5 -21t-92.5 -25t-59 -16l-63 313q277 113 512 113q53 0 94.5 -1.5t89 -6.5t84 -14t75.5 -24t67 -35.5t53.5 -50.5t41.5 -67.5t25.5 -87t9.5 -108.5v-344
q0 -48 25.5 -64t77.5 -16zM1032 1597l-287 -391h-344l158 391h473z" />
    <glyph glyph-name="acircumflex" unicode="&#xe2;" horiz-adv-x="1286" 
d="M723 295v127l-127 -4q-22 -1 -35 -2t-33.5 -6t-31.5 -12.5t-20 -23t-9 -36.5q0 -36 17 -52t53 -16q94 0 186 25zM1270 334l-17 -344q-90 -23 -153 -23q-123 0 -202 41t-95 90q-24 -18 -52 -36t-75 -42t-105.5 -38.5t-117.5 -14.5q-392 0 -392 357q0 64 18 115t46 85
t73.5 58.5t89.5 38t105 21t109.5 9.5t113.5 2h107q0 48 -3 70.5t-17.5 43t-43.5 26.5t-81 6q-64 0 -134 -10t-114.5 -21t-92.5 -25t-59 -16l-63 313q277 113 512 113q53 0 94.5 -1.5t89 -6.5t84 -14t75.5 -24t67 -35.5t53.5 -50.5t41.5 -67.5t25.5 -87t9.5 -108.5v-344
q0 -48 25.5 -64t77.5 -16zM121 1206l256 391h500l260 -391h-412l-96 195l-101 -195h-407z" />
    <glyph glyph-name="atilde" unicode="&#xe3;" horiz-adv-x="1286" 
d="M1270 334l-17 -344q-90 -23 -153 -23q-123 0 -202 41t-95 90q-24 -18 -52 -36t-75 -42t-105.5 -38.5t-117.5 -14.5q-392 0 -392 357q0 64 18 115t46 85t73.5 58.5t89.5 38t105 21t109.5 9.5t113.5 2h107q0 48 -3 70.5t-17.5 43t-43.5 26.5t-81 6q-64 0 -134 -10
t-114.5 -21t-92.5 -25t-59 -16l-63 313q277 113 512 113q53 0 94.5 -1.5t89 -6.5t84 -14t75.5 -24t67 -35.5t53.5 -50.5t41.5 -67.5t25.5 -87t9.5 -108.5v-344q0 -48 25.5 -64t77.5 -16zM973 1630l151 -221q-1 -1 -15 -17t-25 -27.5t-33 -32t-43 -36t-51 -33.5t-59.5 -29.5
t-66.5 -19.5t-75 -8q-46 0 -88.5 14.5t-69 31.5t-62.5 31.5t-71 14.5q-92 0 -176 -73l-158 225q168 205 373 205q47 0 89 -14.5t68 -31.5t62.5 -31.5t73.5 -14.5q31 0 60 8t44.5 16t40.5 23.5t31 19.5zM723 295v127l-127 -4q-22 -1 -35 -2t-33.5 -6t-31.5 -12.5t-20 -23
t-9 -36.5q0 -36 17 -52t53 -16q94 0 186 25z" />
    <glyph glyph-name="adieresis" unicode="&#xe4;" horiz-adv-x="1286" 
d="M723 295v127l-127 -4q-22 -1 -35 -2t-33.5 -6t-31.5 -12.5t-20 -23t-9 -36.5q0 -36 17 -52t53 -16q94 0 186 25zM1270 334l-17 -344q-90 -23 -153 -23q-123 0 -202 41t-95 90q-24 -18 -52 -36t-75 -42t-105.5 -38.5t-117.5 -14.5q-392 0 -392 357q0 64 18 115t46 85
t73.5 58.5t89.5 38t105 21t109.5 9.5t113.5 2h107q0 48 -3 70.5t-17.5 43t-43.5 26.5t-81 6q-64 0 -134 -10t-114.5 -21t-92.5 -25t-59 -16l-63 313q277 113 512 113q53 0 94.5 -1.5t89 -6.5t84 -14t75.5 -24t67 -35.5t53.5 -50.5t41.5 -67.5t25.5 -87t9.5 -108.5v-344
q0 -48 25.5 -64t77.5 -16zM1118 1227h-407v370h407v-370zM526 1227h-405v370h405v-370z" />
    <glyph glyph-name="aring" unicode="&#xe5;" horiz-adv-x="1286" 
d="M723 295v127l-127 -4q-22 -1 -35 -2t-33.5 -6t-31.5 -12.5t-20 -23t-9 -36.5q0 -36 17 -52t53 -16q94 0 186 25zM1270 334l-17 -344q-90 -23 -153 -23q-123 0 -202 41t-95 90q-24 -18 -52 -36t-75 -42t-105.5 -38.5t-117.5 -14.5q-392 0 -392 357q0 64 18 115t46 85
t73.5 58.5t89.5 38t105 21t109.5 9.5t113.5 2h107q0 48 -3 70.5t-17.5 43t-43.5 26.5t-81 6q-64 0 -134 -10t-114.5 -21t-92.5 -25t-59 -16l-63 313q277 113 512 113q53 0 94.5 -1.5t89 -6.5t84 -14t75.5 -24t67 -35.5t53.5 -50.5t41.5 -67.5t25.5 -87t9.5 -108.5v-344
q0 -48 25.5 -64t77.5 -16zM709 1481q0 63 -88 63q-89 0 -89 -61q0 -66 89 -66q88 0 88 64zM999 1481q0 -147 -102 -215t-274 -68q-379 0 -379 281q0 77 29 133.5t81.5 90t119 49t147.5 15.5q77 0 141 -14t119.5 -45t86.5 -89t31 -138z" />
    <glyph glyph-name="ae" unicode="&#xe6;" horiz-adv-x="1898" 
d="M821 133q-96 -80 -189 -123t-202 -43q-195 0 -293 88t-98 269q0 64 18 115t46 85t73.5 58.5t89.5 38t105 21t109.5 9.5t113.5 2h106q0 48 -3 70.5t-17.5 43t-43.5 26.5t-81 6q-83 0 -164 -14t-158 -36l-77 -22l-64 313q4 2 13 5q280 108 499 108q137 0 225 -17t162 -57
q83 38 152 56t170 18q289 0 420 -150t131 -432v-94h-715q-1 -89 57.5 -121t177.5 -32q61 0 159.5 9.5t166.5 18.5l68 10l55 -339q-27 -6 -73 -15.5t-170.5 -25t-227.5 -15.5q-192 0 -325.5 37.5t-215.5 128.5zM727 303q-16 57 -25 119l-129 -4q-22 -1 -35 -2t-33.5 -6
t-31.5 -12.5t-20 -23t-9 -36.5q0 -36 17 -52t53 -16q113 0 213 33zM1149 715h254q0 84 -33 126t-86 42q-58 0 -96.5 -41t-38.5 -127z" />
    <glyph glyph-name="ccedilla" unicode="&#xe7;" horiz-adv-x="1112" 
d="M1092 1077l-105 -325q-138 41 -260 41q-36 0 -67.5 -6.5t-60.5 -23t-49.5 -42t-33 -66.5t-12.5 -94q0 -127 55.5 -182t190.5 -55q125 0 260 22l59 -342q-170 -37 -346 -37q-347 0 -517.5 144t-170.5 450q0 277 181 434.5t486 157.5q221 0 390 -76zM909 -289
q0 -50 -23 -94t-59.5 -75t-80.5 -57t-88.5 -42t-81 -27t-59.5 -16l-23 -4l-148 256q8 2 20.5 5.5t44.5 16t56.5 28t44.5 40.5t20 53l-14 101h336q55 -111 55 -185z" />
    <glyph glyph-name="egrave" unicode="&#xe8;" horiz-adv-x="1236" 
d="M483 1206l-286 391h473l157 -391h-344zM1202 477h-715q0 -87 57 -120t179 -33q75 0 198 12.5t195 25.5l55 -339q-258 -56 -471 -56q-128 0 -225.5 15.5t-183 54.5t-140 103.5t-85.5 166t-31 238.5q0 168 44.5 288t129 189t193 100t249.5 31q289 0 420 -150t131 -432v-94z
M487 715h254q0 84 -32.5 126t-85.5 42q-58 0 -97 -41t-39 -127z" />
    <glyph glyph-name="eacute" unicode="&#xe9;" horiz-adv-x="1236" 
d="M1202 477h-715q0 -87 57 -120t179 -33q75 0 198 12.5t195 25.5l55 -339q-258 -56 -471 -56q-128 0 -225.5 15.5t-183 54.5t-140 103.5t-85.5 166t-31 238.5q0 168 44.5 288t129 189t193 100t249.5 31q289 0 420 -150t131 -432v-94zM487 715h254q0 84 -32.5 126t-85.5 42
q-58 0 -97 -41t-39 -127zM1016 1597l-287 -391h-344l158 391h473z" />
    <glyph glyph-name="ecircumflex" unicode="&#xea;" horiz-adv-x="1236" 
d="M1202 477h-715q0 -87 57 -120t179 -33q75 0 198 12.5t195 25.5l55 -339q-258 -56 -471 -56q-128 0 -225.5 15.5t-183 54.5t-140 103.5t-85.5 166t-31 238.5q0 168 44.5 288t129 189t193 100t249.5 31q289 0 420 -150t131 -432v-94zM487 715h254q0 84 -32.5 126t-85.5 42
q-58 0 -97 -41t-39 -127zM125 1206l256 391h500l260 -391h-412l-96 195l-101 -195h-407z" />
    <glyph glyph-name="edieresis" unicode="&#xeb;" horiz-adv-x="1236" 
d="M1202 477h-715q0 -87 57 -120t179 -33q75 0 198 12.5t195 25.5l55 -339q-258 -56 -471 -56q-128 0 -225.5 15.5t-183 54.5t-140 103.5t-85.5 166t-31 238.5q0 168 44.5 288t129 189t193 100t249.5 31q289 0 420 -150t131 -432v-94zM487 715h254q0 84 -32.5 126t-85.5 42
q-58 0 -97 -41t-39 -127zM1133 1227h-408v370h408v-370zM541 1227h-406v370h406v-370z" />
    <glyph glyph-name="igrave" unicode="&#xec;" horiz-adv-x="624" 
d="M205 1206l-287 391h473l158 -391h-344zM539 0h-453v1118h453v-1118z" />
    <glyph glyph-name="iacute" unicode="&#xed;" horiz-adv-x="624" 
d="M707 1597l-287 -391h-344l157 391h474zM539 0h-453v1118h453v-1118z" />
    <glyph glyph-name="icircumflex" unicode="&#xee;" horiz-adv-x="624" 
d="M-197 1206l256 391h500l260 -391h-411l-97 195l-100 -195h-408zM539 0h-453v1118h453v-1118z" />
    <glyph glyph-name="idieresis" unicode="&#xef;" horiz-adv-x="624" 
d="M811 1227h-408v370h408v-370zM219 1227h-405v370h405v-370zM539 0h-453v1118h453v-1118z" />
    <glyph glyph-name="eth" unicode="&#xf0;" horiz-adv-x="1327" 
d="M344 1329l119 41q-39 57 -72 101t-46 59l-13 16h456l39 -49l207 72v-197l-86 -31q144 -190 186 -255q119 -184 147 -372q11 -73 11 -155q0 -184 -83.5 -319t-229 -204t-334.5 -69q-149 0 -266 43.5t-192 121.5t-113.5 184t-38.5 235q0 165 72.5 300.5t205 214.5t299.5 79
l-43 65l-225 -77v196zM492 557q0 -123 37.5 -177t132.5 -54q94 0 129.5 55t35.5 178q0 122 -36.5 180t-131.5 58q-93 0 -130 -59t-37 -181z" />
    <glyph glyph-name="ntilde" unicode="&#xf1;" horiz-adv-x="1359" 
d="M1274 0h-453v662q0 76 -23.5 101t-82.5 25q-42 0 -93.5 -12t-82.5 -31v-745h-453v1118h453v-104q74 66 173.5 102.5t200.5 36.5q68 0 121.5 -12.5t91 -33.5t64.5 -55.5t43 -71t25.5 -87t12.5 -97.5t3 -108v-688zM1022 1630l152 -221q-1 -1 -15 -17t-25 -27.5t-33.5 -32
t-43 -36t-51 -33.5t-60 -29.5t-66.5 -19.5t-75 -8q-46 0 -88.5 14.5t-69 31.5t-62.5 31.5t-71 14.5q-92 0 -176 -73l-158 225q168 205 373 205q47 0 89 -14.5t68 -31.5t62.5 -31.5t73.5 -14.5q31 0 60 8t44.5 16t40.5 23.5t31 19.5z" />
    <glyph glyph-name="ograve" unicode="&#xf2;" horiz-adv-x="1327" 
d="M526 1206l-286 391h473l157 -391h-344zM496 557q0 -123 36.5 -177t131.5 -54q94 0 130.5 54t36.5 177q0 122 -36 181t-131 59q-93 0 -130.5 -59t-37.5 -181zM1292 559q0 -183 -81.5 -318t-225 -204.5t-332.5 -69.5q-296 0 -457 160.5t-161 423.5q0 273 166 437.5
t456 164.5q319 0 477 -158t158 -436z" />
    <glyph glyph-name="oacute" unicode="&#xf3;" horiz-adv-x="1327" 
d="M496 557q0 -123 36.5 -177t131.5 -54q94 0 130.5 54t36.5 177q0 122 -36 181t-131 59q-93 0 -130.5 -59t-37.5 -181zM1292 559q0 -183 -81.5 -318t-225 -204.5t-332.5 -69.5q-296 0 -457 160.5t-161 423.5q0 273 166 437.5t456 164.5q319 0 477 -158t158 -436zM1065 1597
l-287 -391h-344l158 391h473z" />
    <glyph glyph-name="ocircumflex" unicode="&#xf4;" horiz-adv-x="1327" 
d="M496 557q0 -123 36.5 -177t131.5 -54q94 0 130.5 54t36.5 177q0 122 -36 181t-131 59q-93 0 -130.5 -59t-37.5 -181zM1292 559q0 -183 -81.5 -318t-225 -204.5t-332.5 -69.5q-296 0 -457 160.5t-161 423.5q0 273 166 437.5t456 164.5q319 0 477 -158t158 -436zM156 1206
l256 391h499l260 -391h-411l-96 195l-101 -195h-407z" />
    <glyph glyph-name="otilde" unicode="&#xf5;" horiz-adv-x="1327" 
d="M1292 559q0 -183 -81.5 -318t-225 -204.5t-332.5 -69.5q-296 0 -457 160.5t-161 423.5q0 273 166 437.5t456 164.5q319 0 477 -158t158 -436zM997 1630l152 -221q-1 -1 -15 -17t-25 -27.5t-33.5 -32t-43 -36t-51 -33.5t-60 -29.5t-66.5 -19.5t-75 -8q-46 0 -88.5 14.5
t-69 31.5t-62.5 31.5t-71 14.5q-92 0 -176 -73l-157 225q168 205 372 205q47 0 89 -14.5t68 -31.5t62.5 -31.5t73.5 -14.5q31 0 60 8t44.5 16t40.5 23.5t31 19.5zM496 557q0 -123 36.5 -177t131.5 -54q94 0 130.5 54t36.5 177q0 122 -36 181t-131 59q-93 0 -130.5 -59
t-37.5 -181z" />
    <glyph glyph-name="odieresis" unicode="&#xf6;" horiz-adv-x="1327" 
d="M496 557q0 -123 36.5 -177t131.5 -54q94 0 130.5 54t36.5 177q0 122 -36 181t-131 59q-93 0 -130.5 -59t-37.5 -181zM1292 559q0 -183 -81.5 -318t-225 -204.5t-332.5 -69.5q-296 0 -457 160.5t-161 423.5q0 273 166 437.5t456 164.5q319 0 477 -158t158 -436zM1163 1227
h-407v370h407v-370zM571 1227h-405v370h405v-370z" />
    <glyph glyph-name="divide" unicode="&#xf7;" horiz-adv-x="1064" 
d="M737 164h-411v303h411v-303zM1030 569h-995v310h995v-310zM737 977h-411v303h411v-303z" />
    <glyph glyph-name="oslash" unicode="&#xf8;" horiz-adv-x="1327" 
d="M831 557q0 122 -36 181t-131 59q-93 0 -130.5 -59t-37.5 -181q0 -123 36.5 -177t131.5 -54q94 0 130.5 54t36.5 177zM1294 1094l-120 -140q118 -144 118 -395q0 -184 -81.5 -319t-225 -204t-332.5 -69q-167 0 -291 53l-135 -155l-194 164l123 141q-121 151 -121 381
q0 273 166 437.5t456 164.5q185 0 310 -51l135 153z" />
    <glyph glyph-name="ugrave" unicode="&#xf9;" horiz-adv-x="1359" 
d="M539 1206l-287 391h473l158 -391h-344zM1274 0h-453v104q-74 -65 -174 -102t-201 -37q-94 0 -161 24.5t-105 63t-59.5 102.5t-28 125.5t-6.5 149.5v688h451v-661q0 -76 24.5 -101.5t83.5 -25.5q84 0 176 43v745h453v-1118z" />
    <glyph glyph-name="uacute" unicode="&#xfa;" horiz-adv-x="1359" 
d="M1274 0h-453v104q-74 -65 -174 -102t-201 -37q-94 0 -161 24.5t-105 63t-59.5 102.5t-28 125.5t-6.5 149.5v688h451v-661q0 -76 24.5 -101.5t83.5 -25.5q84 0 176 43v745h453v-1118zM1087 1597l-286 -391h-344l157 391h473z" />
    <glyph glyph-name="ucircumflex" unicode="&#xfb;" horiz-adv-x="1359" 
d="M1274 0h-453v104q-74 -65 -174 -102t-201 -37q-94 0 -161 24.5t-105 63t-59.5 102.5t-28 125.5t-6.5 149.5v688h451v-661q0 -76 24.5 -101.5t83.5 -25.5q84 0 176 43v745h453v-1118zM170 1206l256 391h500l260 -391h-412l-96 195l-100 -195h-408z" />
    <glyph glyph-name="udieresis" unicode="&#xfc;" horiz-adv-x="1359" 
d="M1274 0h-453v104q-74 -65 -174 -102t-201 -37q-94 0 -161 24.5t-105 63t-59.5 102.5t-28 125.5t-6.5 149.5v688h451v-661q0 -76 24.5 -101.5t83.5 -25.5q84 0 176 43v745h453v-1118zM1178 1227h-408v370h408v-370zM586 1227h-406v370h406v-370z" />
    <glyph glyph-name="yacute" unicode="&#xfd;" horiz-adv-x="1339" 
d="M1366 1118l-600 -1569h-465l170 451h-74l-424 1118h486l203 -731h16l215 731h473zM1087 1597l-286 -391h-344l157 391h473z" />
    <glyph glyph-name="thorn" unicode="&#xfe;" horiz-adv-x="1343" 
d="M680 786q-26 0 -59.5 -6t-53.5 -12l-20 -6v-447q65 -12 108 -12q97 0 152 70t55 190q0 123 -44 173t-138 50zM1321 575q0 -137 -38.5 -244.5t-100 -174.5t-146 -110.5t-169.5 -61t-177 -17.5q-25 0 -61 3.5t-59 6.5l-23 3v-431h-451v1997h451v-516q64 67 127.5 95
t156.5 28q228 0 359 -140t131 -438z" />
    <glyph glyph-name="ydieresis" unicode="&#xff;" horiz-adv-x="1339" 
d="M1366 1118l-600 -1569h-465l170 451h-74l-424 1118h486l203 -731h16l215 731h473zM1171 1227h-407v370h407v-370zM580 1227h-406v370h406v-370z" />
    <glyph glyph-name="Amacron" unicode="&#x100;" horiz-adv-x="1576" 
d="M1204 1526h-751v377h751v-377zM922 659l-117 437h-8l-121 -437h246zM1587 0h-475l-102 354h-437l-122 -354h-461l545 1446h587z" />
    <glyph glyph-name="amacron" unicode="&#x101;" horiz-adv-x="1286" 
d="M723 295v127l-127 -4q-22 -1 -35 -2t-33.5 -6t-31.5 -12.5t-20 -23t-9 -36.5q0 -36 17 -52t53 -16q94 0 186 25zM1270 334l-17 -344q-90 -23 -153 -23q-123 0 -202 41t-95 90q-24 -18 -52 -36t-75 -42t-105.5 -38.5t-117.5 -14.5q-392 0 -392 357q0 64 18 115t46 85
t73.5 58.5t89.5 38t105 21t109.5 9.5t113.5 2h107q0 48 -3 70.5t-17.5 43t-43.5 26.5t-81 6q-64 0 -134 -10t-114.5 -21t-92.5 -25t-59 -16l-63 313q277 113 512 113q53 0 94.5 -1.5t89 -6.5t84 -14t75.5 -24t67 -35.5t53.5 -50.5t41.5 -67.5t25.5 -87t9.5 -108.5v-344
q0 -48 25.5 -64t77.5 -16zM1018 1221h-752v376h752v-376z" />
    <glyph glyph-name="Abreve" unicode="&#x102;" horiz-adv-x="1576" 
d="M1587 0h-475l-102 354h-437l-122 -354h-461l545 1446h587zM1141 1976l145 -227q-17 -24 -34 -45t-59.5 -57.5t-89 -62t-119.5 -45t-155 -19.5t-155.5 19.5t-121 45.5t-88.5 61.5t-60 58.5t-33 46l149 227q26 -24 58.5 -45.5t102 -44t148.5 -22.5q115 0 195 35t117 75z
M922 659l-117 437h-8l-121 -437h246z" />
    <glyph glyph-name="abreve" unicode="&#x103;" horiz-adv-x="1286" 
d="M1270 334l-17 -344q-90 -23 -153 -23q-123 0 -202 41t-95 90q-24 -18 -52 -36t-75 -42t-105.5 -38.5t-117.5 -14.5q-392 0 -392 357q0 64 18 115t46 85t73.5 58.5t89.5 38t105 21t109.5 9.5t113.5 2h107q0 48 -3 70.5t-17.5 43t-43.5 26.5t-81 6q-64 0 -134 -10
t-114.5 -21t-92.5 -25t-59 -16l-63 313q277 113 512 113q53 0 94.5 -1.5t89 -6.5t84 -14t75.5 -24t67 -35.5t53.5 -50.5t41.5 -67.5t25.5 -87t9.5 -108.5v-344q0 -48 25.5 -64t77.5 -16zM946 1700l156 -238q-14 -22 -33.5 -47t-62.5 -63.5t-92.5 -67.5t-124 -50.5
t-156.5 -21.5t-157 21t-125 50.5t-92 67t-62.5 64t-32.5 47.5l158 240q141 -133 311 -133q106 0 188.5 43.5t124.5 87.5zM723 295v127l-127 -4q-22 -1 -35 -2t-33.5 -6t-31.5 -12.5t-20 -23t-9 -36.5q0 -36 17 -52t53 -16q94 0 186 25z" />
    <glyph glyph-name="Aogonek" unicode="&#x104;" horiz-adv-x="1576" 
d="M1548 -225l66 -269q-143 -75 -324 -75q-142 0 -230.5 71t-88.5 215q0 150 145 269l-106 368h-437l-122 -354h-461l545 1446h587l465 -1446q-117 -43 -186.5 -95.5t-69.5 -99.5q0 -63 84 -63q64 0 133 33zM922 659l-117 437h-8l-121 -437h246z" />
    <glyph glyph-name="aogonek" unicode="&#x105;" horiz-adv-x="1286" 
d="M700 295v127l-127 -4q-22 -1 -35 -2t-33.5 -6t-31.5 -12.5t-20 -23t-9 -36.5q0 -36 17 -52t53 -16q94 0 186 25zM1247 334l-16 -344q-104 -39 -170 -90t-66 -95q0 -63 84 -63q64 0 133 33l66 -269q-143 -75 -324 -75q-143 0 -231 72t-88 221q0 175 215 299q-58 37 -70 75
q-24 -18 -52 -36t-75 -42t-105.5 -38.5t-117.5 -14.5q-195 0 -293 88t-98 269q0 64 18 115t46 85t73.5 58.5t89.5 38t105 21t109.5 9.5t113.5 2h106q0 48 -3 70.5t-17.5 43t-43.5 26.5t-81 6q-83 0 -164 -14t-158 -36l-77 -22l-64 313q4 2 13 5q280 108 499 108q69 0 121 -3
t111.5 -12.5t101.5 -26t83.5 -46t67 -70.5t41 -101t15.5 -136v-344q0 -49 25 -64.5t77 -15.5z" />
    <glyph glyph-name="Cacute" unicode="&#x106;" horiz-adv-x="1370" 
d="M1198 1903l-278 -377h-345l150 377h473zM1239 391l102 -348q-227 -76 -483 -76q-405 0 -612 184.5t-207 567.5q0 382 209.5 571t605.5 189q267 0 485 -82l-112 -344q-173 55 -355 55q-173 0 -268.5 -98t-95.5 -281q0 -186 99.5 -287.5t285.5 -101.5q184 0 346 51z" />
    <glyph glyph-name="cacute" unicode="&#x107;" horiz-adv-x="1112" 
d="M1092 1077l-105 -325q-138 41 -260 41q-36 0 -67.5 -6.5t-60.5 -23t-49.5 -42t-33 -66.5t-12.5 -94q0 -127 55.5 -182t190.5 -55q125 0 260 22l59 -342q-170 -37 -346 -37q-347 0 -517.5 144t-170.5 450q0 277 181 434.5t486 157.5q221 0 390 -76zM1034 1597l-286 -391
h-345l158 391h473z" />
    <glyph glyph-name="Ccircumflex" unicode="&#x108;" horiz-adv-x="1370" 
d="M305 1526l248 377h500l252 -377h-412l-88 180l-92 -180h-408zM1239 391l102 -348q-227 -76 -483 -76q-405 0 -612 184.5t-207 567.5q0 382 209.5 571t605.5 189q267 0 485 -82l-112 -344q-173 55 -355 55q-173 0 -268.5 -98t-95.5 -281q0 -186 99.5 -287.5t285.5 -101.5
q184 0 346 51z" />
    <glyph glyph-name="ccircumflex" unicode="&#x109;" horiz-adv-x="1112" 
d="M1092 1077l-105 -325q-138 41 -260 41q-36 0 -67.5 -6.5t-60.5 -23t-49.5 -42t-33 -66.5t-12.5 -94q0 -127 55.5 -182t190.5 -55q125 0 260 22l59 -342q-170 -37 -346 -37q-347 0 -517.5 144t-170.5 450q0 277 181 434.5t486 157.5q221 0 390 -76zM117 1206l256 391h499
l261 -391h-412l-96 195l-101 -195h-407z" />
    <glyph glyph-name="Cdotaccent" unicode="&#x10a;" horiz-adv-x="1370" 
d="M1014 1530h-406v371h406v-371zM1239 391l102 -348q-227 -76 -483 -76q-405 0 -612 184.5t-207 567.5q0 382 209.5 571t605.5 189q267 0 485 -82l-112 -344q-173 55 -355 55q-173 0 -268.5 -98t-95.5 -281q0 -186 99.5 -287.5t285.5 -101.5q184 0 346 51z" />
    <glyph glyph-name="cdotaccent" unicode="&#x10b;" horiz-adv-x="1112" 
d="M1092 1077l-105 -325q-138 41 -260 41q-36 0 -67.5 -6.5t-60.5 -23t-49.5 -42t-33 -66.5t-12.5 -94q0 -127 55.5 -182t190.5 -55q125 0 260 22l59 -342q-170 -37 -346 -37q-347 0 -517.5 144t-170.5 450q0 277 181 434.5t486 157.5q221 0 390 -76zM842 1227h-406v370h406
v-370z" />
    <glyph glyph-name="Ccaron" unicode="&#x10c;" horiz-adv-x="1370" 
d="M569 1526l-247 377h407l92 -181l88 181h412l-252 -377h-500zM1239 391l102 -348q-227 -76 -483 -76q-405 0 -612 184.5t-207 567.5q0 382 209.5 571t605.5 189q267 0 485 -82l-112 -344q-173 55 -355 55q-173 0 -268.5 -98t-95.5 -281q0 -186 99.5 -287.5t285.5 -101.5
q184 0 346 51z" />
    <glyph glyph-name="ccaron" unicode="&#x10d;" horiz-adv-x="1112" 
d="M1092 1077l-105 -325q-138 41 -260 41q-36 0 -67.5 -6.5t-60.5 -23t-49.5 -42t-33 -66.5t-12.5 -94q0 -127 55.5 -182t190.5 -55q125 0 260 22l59 -342q-170 -37 -346 -37q-347 0 -517.5 144t-170.5 450q0 277 181 434.5t486 157.5q221 0 390 -76zM371 1206l-256 391h407
l101 -194l96 194h411l-260 -391h-499z" />
    <glyph glyph-name="Dcaron" unicode="&#x10e;" horiz-adv-x="1589" 
d="M391 1526l-248 377h408l92 -181l88 181h412l-252 -377h-500zM666 1081h-109v-716h129q219 0 308 75.5t89 276.5q0 107 -23.5 177t-76.5 111.5t-128.5 58.5t-188.5 17zM1550 727q0 -163 -41.5 -288t-115.5 -207.5t-185 -135t-241 -74.5t-293 -22h-578v1446h572
q163 0 291.5 -20t242 -70.5t188 -131t117.5 -206t43 -291.5z" />
    <glyph glyph-name="dcaron" unicode="&#x10f;" horiz-adv-x="1615" 
d="M803 365v434q-3 0 -22.5 4t-42 7t-42.5 3q-204 0 -204 -233q0 -242 170 -242q68 0 141 27zM1255 0h-421v88q-78 -68 -140 -94.5t-166 -26.5q-77 0 -146 19t-133.5 64.5t-111 114t-74.5 175t-28 240.5q0 125 36.5 225t96 164t141.5 106.5t167.5 60t178.5 17.5
q21 0 46.5 -2t43.5 -4t36.5 -5t21.5 -3v407h452v-1546zM1335 1546h287v-106q0 -73 -9.5 -125.5t-30 -87t-33.5 -48.5t-40 -38h-211q20 53 28.5 110.5t8.5 159.5v135z" />
    <glyph glyph-name="Dcroat" unicode="&#x110;" horiz-adv-x="1589" 
d="M666 1081h-109v-243h203v-252h-203v-221h129q219 0 308 75.5t89 276.5q0 107 -23.5 177t-76.5 111.5t-128.5 58.5t-188.5 17zM1550 727q0 -163 -41.5 -288t-115.5 -207.5t-185 -135t-241 -74.5t-293 -22h-578v586h-116v252h116v608h572q163 0 291.5 -20t242 -70.5
t188 -131t117.5 -206t43 -291.5z" />
    <glyph glyph-name="dcroat" unicode="&#x111;" horiz-adv-x="1341" 
d="M803 365v434q-3 0 -22.5 4t-42 7t-42.5 3q-204 0 -204 -233q0 -242 170 -242q68 0 141 27zM1255 0h-421v88q-78 -68 -140 -94.5t-166 -26.5q-77 0 -146 19t-133.5 64.5t-111 114t-74.5 175t-28 240.5q0 125 36.5 225t96 164t141.5 106.5t167.5 60t178.5 17.5
q21 0 46.5 -2t43.5 -4t36.5 -5t21.5 -3v61h-152v283h152v63h452v-63h101v-283h-101v-1200z" />
    <glyph glyph-name="Emacron" unicode="&#x112;" horiz-adv-x="1234" 
d="M991 1526h-751v377h751v-377zM1182 0h-1086v1446h1039v-356h-578v-201h533v-328h-533v-205h625v-356z" />
    <glyph glyph-name="emacron" unicode="&#x113;" horiz-adv-x="1236" 
d="M1202 477h-715q0 -87 57 -120t179 -33q75 0 198 12.5t195 25.5l55 -339q-258 -56 -471 -56q-128 0 -225.5 15.5t-183 54.5t-140 103.5t-85.5 166t-31 238.5q0 168 44.5 288t129 189t193 100t249.5 31q289 0 420 -150t131 -432v-94zM487 715h254q0 84 -32.5 126t-85.5 42
q-58 0 -97 -41t-39 -127zM989 1221h-751v376h751v-376z" />
    <glyph glyph-name="Ebreve" unicode="&#x114;" horiz-adv-x="1234" 
d="M1182 0h-1086v1446h1039v-356h-578v-201h533v-328h-533v-205h625v-356zM928 1976l145 -227q-17 -24 -34 -45t-59.5 -57.5t-89 -62t-119.5 -45t-155 -19.5t-155.5 19.5t-121 45.5t-88.5 61.5t-60 58.5t-33 46l149 227q26 -24 58.5 -45.5t102 -44t148.5 -22.5q115 0 195 35
t117 75z" />
    <glyph glyph-name="ebreve" unicode="&#x115;" horiz-adv-x="1236" 
d="M1202 477h-715q0 -87 57 -120t179 -33q75 0 198 12.5t195 25.5l55 -339q-258 -56 -471 -56q-128 0 -225.5 15.5t-183 54.5t-140 103.5t-85.5 166t-31 238.5q0 168 44.5 288t129 189t193 100t249.5 31q289 0 420 -150t131 -432v-94zM942 1700l156 -238q-14 -22 -33.5 -47
t-62.5 -63.5t-92.5 -67.5t-124 -50.5t-156.5 -21.5t-157 21t-125 50.5t-92 67t-62.5 64t-32.5 47.5l157 240q141 -133 312 -133q106 0 188.5 43.5t124.5 87.5zM487 715h254q0 84 -32.5 126t-85.5 42q-58 0 -97 -41t-39 -127z" />
    <glyph glyph-name="Edotaccent" unicode="&#x116;" horiz-adv-x="1234" 
d="M817 1530h-405v371h405v-371zM1182 0h-1086v1446h1039v-356h-578v-201h533v-328h-533v-205h625v-356z" />
    <glyph glyph-name="edotaccent" unicode="&#x117;" horiz-adv-x="1236" 
d="M1202 477h-715q0 -87 57 -120t179 -33q75 0 198 12.5t195 25.5l55 -339q-258 -56 -471 -56q-128 0 -225.5 15.5t-183 54.5t-140 103.5t-85.5 166t-31 238.5q0 168 44.5 288t129 189t193 100t249.5 31q289 0 420 -150t131 -432v-94zM487 715h254q0 84 -32.5 126t-85.5 42
q-58 0 -97 -41t-39 -127zM819 1227h-405v370h405v-370z" />
    <glyph glyph-name="Eogonek" unicode="&#x118;" horiz-adv-x="1234" 
d="M1141 -225l65 -269q-143 -75 -323 -75q-143 0 -231.5 71.5t-88.5 214.5q0 164 185 283h-652v1446h1039v-356h-578v-201h533v-328h-533v-205h625v-356q-116 -42 -187 -95t-71 -100q0 -63 84 -63q64 0 133 33z" />
    <glyph glyph-name="eogonek" unicode="&#x119;" horiz-adv-x="1236" 
d="M1202 477h-715q-1 -89 58 -121t178 -32q61 0 159 9.5t166 18.5l68 10l55 -339q-106 -50 -182 -109.5t-76 -108.5q0 -63 84 -63q64 0 133 33l66 -269q-143 -75 -324 -75q-143 0 -231 72t-88 221q0 127 109 243q-100 2 -180 14.5t-152.5 38.5t-125 70t-91.5 106.5
t-58.5 150t-19.5 198.5q0 168 44.5 288t129 189t193 100t249.5 31q289 0 420 -150t131 -432v-94zM487 715h254q0 84 -32.5 126t-85.5 42q-58 0 -97 -41t-39 -127z" />
    <glyph glyph-name="Ecaron" unicode="&#x11a;" horiz-adv-x="1234" 
d="M362 1526l-247 377h407l92 -181l88 181h412l-252 -377h-500zM1182 0h-1086v1446h1039v-356h-578v-201h533v-328h-533v-205h625v-356z" />
    <glyph glyph-name="ecaron" unicode="&#x11b;" horiz-adv-x="1236" 
d="M1202 477h-715q0 -87 57 -120t179 -33q75 0 198 12.5t195 25.5l55 -339q-258 -56 -471 -56q-128 0 -225.5 15.5t-183 54.5t-140 103.5t-85.5 166t-31 238.5q0 168 44.5 288t129 189t193 100t249.5 31q289 0 420 -150t131 -432v-94zM487 715h254q0 84 -32.5 126t-85.5 42
q-58 0 -97 -41t-39 -127zM365 1206l-256 391h407l100 -194l97 194h411l-260 -391h-499z" />
    <glyph glyph-name="Gcircumflex" unicode="&#x11c;" horiz-adv-x="1452" 
d="M313 1526l248 377h500l252 -377h-412l-88 180l-92 -180h-408zM1370 719v-662q-254 -88 -516 -88q-815 0 -815 750q0 386 212 571t611 185q244 0 477 -82l-108 -336q-183 55 -357 55q-176 0 -275 -98t-99 -285q0 -183 102 -288t270 -105l48 4v379h450z" />
    <glyph glyph-name="gcircumflex" unicode="&#x11d;" horiz-adv-x="1331" 
d="M1245 1087v-1005q0 -117 -39.5 -214.5t-113.5 -168.5t-185.5 -110.5t-249.5 -39.5q-306 0 -565 86l66 336q254 -82 399 -82q136 0 187 32t51 114v20q-24 -16 -85.5 -34.5t-127.5 -18.5q-87 0 -159 12t-146.5 48.5t-125.5 95.5t-83.5 160t-32.5 235q0 123 36.5 224
t99.5 169.5t150 115t185.5 68t208.5 21.5q264 0 530 -64zM793 344v459q-48 10 -95 10q-103 0 -153.5 -65.5t-50.5 -182.5q0 -133 48 -185t134 -52q74 0 117 16zM205 1206l256 391h500l260 -391h-412l-96 195l-101 -195h-407z" />
    <glyph glyph-name="Gbreve" unicode="&#x11e;" horiz-adv-x="1452" 
d="M1370 719v-662q-254 -88 -516 -88q-815 0 -815 750q0 386 212 571t611 185q244 0 477 -82l-108 -336q-183 55 -357 55q-176 0 -275 -98t-99 -285q0 -183 102 -288t270 -105l48 4v379h450zM1110 1976l145 -227q-160 -229 -456 -229q-82 0 -156 19.5t-121.5 45.5
t-88.5 61.5t-60 58.5t-33 46l149 227q25 -24 58.5 -45.5t103 -44t148.5 -22.5q115 0 194 35t117 75z" />
    <glyph glyph-name="gbreve" unicode="&#x11f;" horiz-adv-x="1331" 
d="M1245 1087v-1005q0 -117 -39.5 -214.5t-113.5 -168.5t-185.5 -110.5t-249.5 -39.5q-306 0 -565 86l66 336q254 -82 399 -82q136 0 187 32t51 114v20q-24 -16 -85.5 -34.5t-127.5 -18.5q-87 0 -159 12t-146.5 48.5t-125.5 95.5t-83.5 160t-32.5 235q0 123 36.5 224
t99.5 169.5t150 115t185.5 68t208.5 21.5q264 0 530 -64zM1024 1700l156 -238q-14 -22 -33.5 -47t-62.5 -63.5t-92.5 -67.5t-124 -50.5t-156.5 -21.5t-157 21t-125 50.5t-92 67t-62.5 64t-32.5 47.5l157 240q141 -133 312 -133q106 0 188.5 43.5t124.5 87.5zM793 344v459
q-48 10 -95 10q-103 0 -153.5 -65.5t-50.5 -182.5q0 -133 48 -185t134 -52q74 0 117 16z" />
    <glyph glyph-name="Gdotaccent" unicode="&#x120;" horiz-adv-x="1452" 
d="M1020 1530h-406v371h406v-371zM1370 719v-662q-254 -88 -516 -88q-815 0 -815 750q0 386 212 571t611 185q244 0 477 -82l-108 -336q-183 55 -357 55q-176 0 -275 -98t-99 -285q0 -183 102 -288t270 -105l48 4v379h450z" />
    <glyph glyph-name="gdotaccent" unicode="&#x121;" horiz-adv-x="1331" 
d="M1245 1087v-1005q0 -117 -39.5 -214.5t-113.5 -168.5t-185.5 -110.5t-249.5 -39.5q-306 0 -565 86l66 336q254 -82 399 -82q136 0 187 32t51 114v20q-24 -16 -85.5 -34.5t-127.5 -18.5q-87 0 -159 12t-146.5 48.5t-125.5 95.5t-83.5 160t-32.5 235q0 123 36.5 224
t99.5 169.5t150 115t185.5 68t208.5 21.5q264 0 530 -64zM793 344v459q-48 10 -95 10q-103 0 -153.5 -65.5t-50.5 -182.5q0 -133 48 -185t134 -52q74 0 117 16zM905 1227h-405v370h405v-370z" />
    <glyph glyph-name="Gcommaaccent" unicode="&#x122;" horiz-adv-x="1452" 
d="M1370 719v-662q-254 -88 -516 -88q-815 0 -815 750q0 386 212 571t611 185q244 0 477 -82l-108 -336q-183 55 -357 55q-176 0 -275 -98t-99 -285q0 -183 102 -288t270 -105l48 4v379h450zM1065 -100v-72q0 -79 -15 -147.5t-42 -119t-44.5 -76t-41.5 -54.5h-359
q28 50 48 148t20 202v119h434z" />
    <glyph glyph-name="gcommaaccent" unicode="&#x123;" horiz-adv-x="1331" 
d="M1245 1087v-1005q0 -117 -39.5 -214.5t-113.5 -168.5t-185.5 -110.5t-249.5 -39.5q-306 0 -565 86l66 336q254 -82 399 -82q136 0 187 32t51 114v20q-24 -16 -85.5 -34.5t-127.5 -18.5q-87 0 -159 12t-146.5 48.5t-125.5 95.5t-83.5 160t-32.5 235q0 123 36.5 224
t99.5 169.5t150 115t185.5 68t208.5 21.5q264 0 530 -64zM469 1227v71q0 228 143 398h359q-28 -50 -48 -148t-20 -202v-119h-434zM793 344v459q-48 10 -95 10q-103 0 -153.5 -65.5t-50.5 -182.5q0 -133 48 -185t134 -52q74 0 117 16z" />
    <glyph glyph-name="Hcircumflex" unicode="&#x124;" horiz-adv-x="1615" 
d="M307 1526l248 377h500l252 -377h-412l-88 180l-92 -180h-408zM1520 0h-461v557h-502v-557h-461v1446h461v-537h502v537h461v-1446z" />
    <glyph glyph-name="hcircumflex" unicode="&#x125;" horiz-adv-x="1359" 
d="M1274 0h-453v662q0 76 -23.5 101t-82.5 25q-40 0 -93 -12.5t-83 -30.5v-745h-453v1546h453v-532q69 61 167 100t207 39q68 0 121.5 -12.5t91 -33.5t64.5 -55.5t43 -71t25.5 -87t12.5 -97.5t3 -108v-688zM-188 1606l247 376h500l252 -376h-412l-88 180l-92 -180h-407z" />
    <glyph glyph-name="Hbar" unicode="&#x126;" horiz-adv-x="1615" 
d="M557 909h502v113h-502v-113zM1520 0h-461v557h-502v-557h-461v1022h-116v307h116v117h461v-117h502v117h461v-117h116v-307h-116v-1022z" />
    <glyph glyph-name="hbar" unicode="&#x127;" horiz-adv-x="1359" 
d="M1274 0h-453v662q0 76 -23.5 101t-82.5 25q-43 0 -87 -11t-66 -21l-23 -11v-745h-453v1200h-100v283h100v63h453v-63h151v-283h-151v-186q6 6 17 15t48.5 33t78 42.5t103.5 33.5t127 15q68 0 121.5 -12.5t91 -33.5t64.5 -55.5t43 -71t25.5 -87t12.5 -97.5t3 -108v-688z
" />
    <glyph glyph-name="Itilde" unicode="&#x128;" horiz-adv-x="653" 
d="M557 0h-461v1446h461v-1446zM672 1933l145 -211q-1 -1 -15 -17t-24.5 -27.5t-33 -32t-43 -35.5t-51 -33t-60 -29.5t-66.5 -19.5t-75 -8q-46 0 -88.5 14.5t-69 31.5t-62.5 31.5t-71 14.5q-91 0 -176 -74l-152 215q168 205 373 205q47 0 89 -14.5t68 -31.5t62.5 -31.5
t73.5 -14.5q31 0 60 8t44.5 16t40.5 23.5t31 19.5z" />
    <glyph glyph-name="itilde" unicode="&#x129;" horiz-adv-x="624" 
d="M539 0h-453v1118h453v-1118zM647 1630l152 -221q-1 -1 -15 -17t-25 -27.5t-33.5 -32t-43 -36t-51 -33.5t-60 -29.5t-66.5 -19.5t-75 -8q-46 0 -88.5 14.5t-69 31.5t-62.5 31.5t-71 14.5q-92 0 -176 -73l-158 225q168 205 373 205q47 0 89 -14.5t68 -31.5t62.5 -31.5
t73.5 -14.5q31 0 60 8t44.5 16t40.5 23.5t31 19.5z" />
    <glyph glyph-name="Imacron" unicode="&#x12a;" horiz-adv-x="653" 
d="M702 1526h-751v377h751v-377zM557 0h-461v1446h461v-1446z" />
    <glyph glyph-name="imacron" unicode="&#x12b;" horiz-adv-x="624" 
d="M688 1221h-751v376h751v-376zM539 0h-453v1118h453v-1118z" />
    <glyph glyph-name="Ibreve" unicode="&#x12c;" horiz-adv-x="653" 
d="M557 0h-461v1446h461v-1446zM639 1976l145 -227q-160 -229 -456 -229q-82 0 -156 19.5t-121.5 45.5t-88.5 61.5t-60 58.5t-33 46l149 227q25 -24 58.5 -45.5t103 -44t148.5 -22.5q115 0 194 35t117 75z" />
    <glyph glyph-name="ibreve" unicode="&#x12d;" horiz-adv-x="624" 
d="M539 0h-453v1118h453v-1118zM625 1700l155 -238q-14 -22 -33.5 -47t-62.5 -63.5t-92.5 -67.5t-124 -50.5t-156.5 -21.5t-157 21t-125 50.5t-92 67t-62.5 64t-32.5 47.5l158 240q141 -133 311 -133q106 0 189 43.5t125 87.5z" />
    <glyph glyph-name="Iogonek" unicode="&#x12e;" horiz-adv-x="653" 
d="M516 -225l66 -269q-143 -75 -324 -75q-142 0 -230.5 71t-88.5 215q0 71 43 145.5t114 125.5v1458h461v-1446q-115 -42 -186.5 -95.5t-71.5 -99.5q0 -63 84 -63q64 0 133 33z" />
    <glyph glyph-name="iogonek" unicode="&#x12f;" horiz-adv-x="624" 
d="M502 -225l65 -269q-143 -75 -323 -75q-143 0 -231.5 71.5t-88.5 214.5q0 76 42.5 148.5t119.5 126.5v1126h453v-1118q-114 -43 -184 -96.5t-70 -98.5q0 -63 84 -63q64 0 133 33zM539 1272h-451v325h451v-325z" />
    <glyph glyph-name="Idotaccent" unicode="&#x130;" horiz-adv-x="653" 
d="M528 1530h-405v371h405v-371zM557 0h-461v1446h461v-1446z" />
    <glyph glyph-name="dotlessi" unicode="&#x131;" horiz-adv-x="624" 
d="M539 0h-453v1118h453v-1118z" />
    <glyph glyph-name="IJ" unicode="&#x132;" horiz-adv-x="1366" 
d="M557 0h-461v1446h461v-1446zM1270 1446v-1032q0 -98 -20.5 -171t-56 -119t-91 -74t-119.5 -39t-147 -11h-183v358h52q102 0 102 95v993h463z" />
    <glyph glyph-name="ij" unicode="&#x133;" horiz-adv-x="1224" 
d="M1139 1118v-1089q0 -264 -119 -372t-381 -108q-74 0 -156 15t-127 30l-45 15l58 301q125 -12 186 -12q73 0 102 29.5t29 103.5v1087h453zM539 0h-453v1118h453v-1118zM539 1272h-451v325h451v-325zM1139 1272h-451v325h451v-325z" />
    <glyph glyph-name="Jcircumflex" unicode="&#x134;" horiz-adv-x="708" 
d="M-115 1526l248 377h500l252 -377h-412l-88 180l-92 -180h-408zM616 1446v-1032q0 -98 -20.5 -171t-56 -119t-91 -74t-119.5 -39t-147 -11h-182v358h51q103 0 103 95v993h462z" />
    <glyph glyph-name="jcircumflex" unicode="&#x135;" horiz-adv-x="624" 
d="M539 1118v-1089q0 -264 -119 -372t-381 -108q-74 0 -156 15t-127 30l-45 15l58 301q125 -12 186 -12q73 0 102 29.5t29 103.5v1087h453zM-197 1206l256 391h500l260 -391h-411l-97 195l-100 -195h-408z" />
    <glyph glyph-name="Kcommaaccent" unicode="&#x136;" horiz-adv-x="1587" 
d="M1599 0h-608l-434 670v-670h-461v1446h461v-600l424 600h592l-578 -680zM1001 -104v-72q0 -79 -15 -147.5t-42 -119t-44.5 -76t-41.5 -54.5h-358q28 50 47.5 148t19.5 202v119h434z" />
    <glyph glyph-name="kcommaaccent" unicode="&#x137;" horiz-adv-x="1265" 
d="M1305 0h-547l-213 414h-6v-414h-453v1546h453v-803h6l196 375h508l-358 -534zM883 -104v-72q0 -79 -15 -147.5t-42.5 -119t-44.5 -76t-42 -54.5h-358q28 50 48 148t20 202v119h434z" />
    <glyph glyph-name="Lacute" unicode="&#x139;" horiz-adv-x="1200" 
d="M719 1903l-279 -377h-344l150 377h473zM1176 0h-1080v1446h461v-1088h619v-358z" />
    <glyph glyph-name="lacute" unicode="&#x13a;" horiz-adv-x="624" 
d="M539 0h-453v1546h453v-1546zM698 2003l-278 -377h-344l149 377h473z" />
    <glyph glyph-name="Lcommaaccent" unicode="&#x13b;" horiz-adv-x="1200" 
d="M1176 0h-1080v1446h461v-1088h619v-358zM846 -104v-72q0 -79 -15 -147.5t-42.5 -119t-44.5 -76t-42 -54.5h-358q28 50 48 148t20 202v119h434z" />
    <glyph glyph-name="lcommaaccent" unicode="&#x13c;" horiz-adv-x="624" 
d="M539 0h-453v1546h453v-1546zM530 -104v-72q0 -79 -15 -147.5t-42 -119t-44.5 -76t-41.5 -54.5h-358q28 50 47.5 148t19.5 202v119h434z" />
    <glyph glyph-name="Lcaron" unicode="&#x13d;" horiz-adv-x="1200" 
d="M1176 0h-1080v1446h461v-1088h619v-358zM682 1546h287v-106q0 -73 -9.5 -125.5t-30 -87t-33.5 -48.5t-40 -38h-211q20 53 28.5 110.5t8.5 159.5v135z" />
    <glyph glyph-name="lcaron" unicode="&#x13e;" horiz-adv-x="899" 
d="M539 0h-453v1546h453v-1546zM618 1546h287v-106q0 -59 -7.5 -106.5t-17 -74.5t-28 -53.5t-28.5 -36t-31 -28.5h-211q20 52 28 109.5t8 160.5v135z" />
    <glyph glyph-name="Ldot" unicode="&#x13f;" horiz-adv-x="1200" 
d="M1112 575h-375v359h375v-359zM1176 0h-1080v1446h461v-1088h619v-358z" />
    <glyph glyph-name="ldot" unicode="&#x140;" horiz-adv-x="987" 
d="M993 575h-375v359h375v-359zM539 0h-453v1546h453v-1546z" />
    <glyph glyph-name="Lslash" unicode="&#x141;" horiz-adv-x="1200" 
d="M1176 0h-1080v440l-112 -65v293l112 65v713h461v-449l219 125v-291l-219 -126v-347h619v-358z" />
    <glyph glyph-name="lslash" unicode="&#x142;" horiz-adv-x="624" 
d="M539 0h-453v483q-63 -35 -133 -77l-2 292l135 78v770h453v-514l133 78v-293q-92 -56 -133 -78v-739z" />
    <glyph glyph-name="Nacute" unicode="&#x143;" horiz-adv-x="1607" 
d="M1186 1903l-279 -377h-344l150 377h473zM1511 0h-516l-432 762h-6v-762h-461v1446h510l436 -774h7v774h462v-1446z" />
    <glyph glyph-name="nacute" unicode="&#x144;" horiz-adv-x="1359" 
d="M1274 0h-453v662q0 76 -23.5 101t-82.5 25q-42 0 -93.5 -12t-82.5 -31v-745h-453v1118h453v-104q74 66 173.5 102.5t200.5 36.5q68 0 121.5 -12.5t91 -33.5t64.5 -55.5t43 -71t25.5 -87t12.5 -97.5t3 -108v-688zM1044 1597l-286 -391h-344l157 391h473z" />
    <glyph glyph-name="Ncommaaccent" unicode="&#x145;" horiz-adv-x="1607" 
d="M1511 0h-516l-432 762h-6v-762h-461v1446h510l436 -774h7v774h462v-1446zM999 -104v-72q0 -79 -15 -147.5t-42 -119t-44.5 -76t-41.5 -54.5h-358q28 50 47.5 148t19.5 202v119h434z" />
    <glyph glyph-name="ncommaaccent" unicode="&#x146;" horiz-adv-x="1359" 
d="M1274 0h-453v662q0 76 -23.5 101t-82.5 25q-42 0 -93.5 -12t-82.5 -31v-745h-453v1118h453v-104q74 66 173.5 102.5t200.5 36.5q68 0 121.5 -12.5t91 -33.5t64.5 -55.5t43 -71t25.5 -87t12.5 -97.5t3 -108v-688zM911 -104v-72q0 -79 -15 -147.5t-42 -119t-44.5 -76
t-41.5 -54.5h-358q28 50 47.5 148t19.5 202v119h434z" />
    <glyph glyph-name="Ncaron" unicode="&#x147;" horiz-adv-x="1607" 
d="M541 1526l-248 377h407l93 -181l88 181h411l-252 -377h-499zM1511 0h-516l-432 762h-6v-762h-461v1446h510l436 -774h7v774h462v-1446z" />
    <glyph glyph-name="ncaron" unicode="&#x148;" horiz-adv-x="1359" 
d="M1274 0h-453v662q0 76 -23.5 101t-82.5 25q-42 0 -93.5 -12t-82.5 -31v-745h-453v1118h453v-104q74 66 173.5 102.5t200.5 36.5q68 0 121.5 -12.5t91 -33.5t64.5 -55.5t43 -71t25.5 -87t12.5 -97.5t3 -108v-688zM416 1206l-256 391h407l101 -194l96 194h412l-261 -391
h-499z" />
    <glyph glyph-name="napostrophe" unicode="&#x149;" horiz-adv-x="1509" 
d="M1423 0h-452v662q0 76 -24 101t-83 25q-42 0 -93.5 -12t-82.5 -31v-745h-452v1118h452v-104q74 66 173.5 102.5t201.5 36.5q94 0 161 -24.5t105 -63t59.5 -102.5t28 -125.5t6.5 -149.5v-688zM373 1733v-236q0 -188 -119 -321h-281q20 38 33.5 113t13.5 157v287h353z" />
    <glyph glyph-name="Eng" unicode="&#x14a;" horiz-adv-x="1607" 
d="M1511 1446v-1417q0 -264 -118.5 -372t-380.5 -108q-74 0 -156 15t-127 30l-45 15l57 301q126 -12 187 -12q65 0 95 23.5t34 78.5h-62l-432 762h-6v-762h-461v1446h510l436 -774h7v774h462z" />
    <glyph glyph-name="eng" unicode="&#x14b;" horiz-adv-x="1359" 
d="M1274 688v-659q0 -264 -119 -372t-381 -108q-74 0 -156 15t-127 30l-45 15l58 301q125 -12 186 -12q73 0 102 29.5t29 103.5v631q0 76 -23.5 101t-82.5 25q-43 0 -87 -11t-66 -21l-23 -11v-745h-453v1118h453v-104q6 6 17 15t48.5 33t78 42.5t103.5 33.5t127 15
q68 0 121.5 -12.5t91 -33.5t64.5 -55.5t43 -71t25.5 -87t12.5 -97.5t3 -108z" />
    <glyph glyph-name="Omacron" unicode="&#x14c;" horiz-adv-x="1693" 
d="M1223 1526h-752v377h752v-377zM1184 725q0 69 -10 125.5t-33.5 106t-61.5 83t-96.5 53t-134.5 19.5q-97 0 -165 -29t-105.5 -83.5t-53.5 -121.5t-16 -155q0 -87 16 -154t53 -122t103.5 -84t161.5 -29q99 0 167.5 29t106 84t53 122t15.5 156zM838 -33q-394 0 -596.5 187.5
t-202.5 566.5q0 375 213.5 566.5t605.5 191.5q797 0 797 -754q0 -375 -210 -566.5t-607 -191.5z" />
    <glyph glyph-name="omacron" unicode="&#x14d;" horiz-adv-x="1327" 
d="M496 557q0 -123 36.5 -177t131.5 -54q94 0 130.5 54t36.5 177q0 122 -36 181t-131 59q-93 0 -130.5 -59t-37.5 -181zM1292 559q0 -183 -81.5 -318t-225 -204.5t-332.5 -69.5q-296 0 -457 160.5t-161 423.5q0 273 166 437.5t456 164.5q319 0 477 -158t158 -436zM1040 1221
h-751v376h751v-376z" />
    <glyph glyph-name="Obreve" unicode="&#x14e;" horiz-adv-x="1693" 
d="M838 -33q-394 0 -596.5 187.5t-202.5 566.5q0 375 213.5 566.5t605.5 191.5q797 0 797 -754q0 -375 -210 -566.5t-607 -191.5zM1184 725q0 69 -10 125.5t-33.5 106t-61.5 83t-96.5 53t-134.5 19.5q-97 0 -165 -29t-105.5 -83.5t-53.5 -121.5t-16 -155q0 -87 16 -154
t53 -122t103.5 -84t161.5 -29q99 0 167.5 29t106 84t53 122t15.5 156zM1159 1976l146 -227q-17 -24 -34 -45t-59.5 -57.5t-89 -62t-119.5 -45t-155 -19.5t-156 19.5t-121.5 45.5t-88.5 61.5t-60 58.5t-33 46l150 227q26 -24 58.5 -45.5t102 -44t148.5 -22.5q115 0 194 35
t117 75z" />
    <glyph glyph-name="obreve" unicode="&#x14f;" horiz-adv-x="1327" 
d="M1292 559q0 -183 -81.5 -318t-225 -204.5t-332.5 -69.5q-296 0 -457 160.5t-161 423.5q0 273 166 437.5t456 164.5q319 0 477 -158t158 -436zM977 1700l156 -238q-14 -22 -33.5 -47t-62.5 -63.5t-92.5 -67.5t-124 -50.5t-156.5 -21.5t-157 21t-125 50.5t-92 67t-62.5 64
t-32.5 47.5l157 240q141 -133 312 -133q106 0 188.5 43.5t124.5 87.5zM496 557q0 -123 36.5 -177t131.5 -54q94 0 130.5 54t36.5 177q0 122 -36 181t-131 59q-93 0 -130.5 -59t-37.5 -181z" />
    <glyph glyph-name="Ohungarumlaut" unicode="&#x150;" horiz-adv-x="1693" 
d="M1563 1903l-336 -377h-344l211 377h469zM965 1903l-211 -377h-344l86 377h469zM1184 725q0 69 -10 125.5t-33.5 106t-61.5 83t-96.5 53t-134.5 19.5q-97 0 -165 -29t-105.5 -83.5t-53.5 -121.5t-16 -155q0 -87 16 -154t53 -122t103.5 -84t161.5 -29q99 0 167.5 29t106 84
t53 122t15.5 156zM838 -33q-394 0 -596.5 187.5t-202.5 566.5q0 375 213.5 566.5t605.5 191.5q797 0 797 -754q0 -375 -210 -566.5t-607 -191.5z" />
    <glyph glyph-name="ohungarumlaut" unicode="&#x151;" horiz-adv-x="1327" 
d="M496 557q0 -123 36.5 -177t131.5 -54q94 0 130.5 54t36.5 177q0 122 -36 181t-131 59q-93 0 -130.5 -59t-37.5 -181zM1292 559q0 -183 -81.5 -318t-225 -204.5t-332.5 -69.5q-296 0 -457 160.5t-161 423.5q0 273 166 437.5t456 164.5q319 0 477 -158t158 -436zM1364 1597
l-342 -391h-344l217 391h469zM766 1597l-217 -391h-344l92 391h469z" />
    <glyph glyph-name="OE" unicode="&#x152;" horiz-adv-x="2260" 
d="M1122 438v572q-3 4 -9 11t-29 24.5t-51 31t-78 24.5t-107 11q-97 0 -165 -29t-105.5 -83.5t-53.5 -121.5t-16 -155q0 -87 16 -154t53 -122t103.5 -84t161.5 -29q58 0 108 10.5t80.5 26t52 31t30.5 26.5zM2208 0h-1028q-195 -33 -392 -33q-171 0 -307.5 46.5t-235.5 138.5
t-152.5 236.5t-53.5 332.5q0 187 56.5 332t159 238t243 140.5t311.5 47.5q76 0 173 -8.5t156 -16.5l58 -8h965v-356h-576v-201h531v-328h-531v-205h623v-356z" />
    <glyph glyph-name="oe" unicode="&#x153;" horiz-adv-x="2029" 
d="M1995 477h-715q0 -84 54 -116.5t182 -32.5q61 0 159 10t166 20l68 9l55 -340q-67 -20 -199 -40t-272 -20q-292 0 -449 113q-159 -113 -399 -113q-149 0 -266 43.5t-192 121.5t-113.5 184t-38.5 235q0 272 170 437t461 165q259 0 401 -106q148 106 377 106q289 0 420 -150
t131 -432v-94zM827 559q0 122 -36.5 180t-131.5 58q-93 0 -130 -59t-37 -181q0 -123 37.5 -177t132.5 -54q94 0 129.5 55t35.5 178zM1280 715h254q0 84 -33 126t-86 42q-58 0 -96.5 -41t-38.5 -127z" />
    <glyph glyph-name="Racute" unicode="&#x154;" horiz-adv-x="1492" 
d="M1065 1903l-279 -377h-344l150 377h473zM668 1085h-109v-325h84q118 0 167.5 47.5t49.5 118.5q0 74 -40.5 116.5t-151.5 42.5zM1513 0h-552l-269 446q-43 -4 -133 -4v-442h-463v1446h596q138 0 251 -27.5t202 -85.5t138.5 -157.5t49.5 -233.5q0 -70 -21 -137
t-54.5 -115.5t-67.5 -82.5t-66 -52z" />
    <glyph glyph-name="racute" unicode="&#x155;" horiz-adv-x="952" 
d="M989 1122l-55 -391q-116 25 -182 25q-96 0 -203 -39v-717h-453v1118h453v-160q111 195 272 195q61 0 168 -31zM938 1597l-287 -391h-344l158 391h473z" />
    <glyph glyph-name="Rcommaaccent" unicode="&#x156;" horiz-adv-x="1492" 
d="M1513 0h-552l-269 446q-43 -4 -133 -4v-442h-463v1446h596q138 0 251 -27.5t202 -85.5t138.5 -157.5t49.5 -233.5q0 -70 -21 -137t-54.5 -115.5t-67.5 -82.5t-66 -52zM977 -104v-72q0 -79 -15 -147.5t-42 -119t-44.5 -76t-41.5 -54.5h-359q28 50 48 148t20 202v119h434z
M668 1085h-109v-325h84q118 0 167.5 47.5t49.5 118.5q0 74 -40.5 116.5t-151.5 42.5z" />
    <glyph glyph-name="rcommaaccent" unicode="&#x157;" horiz-adv-x="952" 
d="M989 1122l-55 -391q-116 25 -182 25q-96 0 -203 -39v-717h-453v1118h453v-160q111 195 272 195q61 0 168 -31zM563 -104v-72q0 -79 -15 -147.5t-42 -119t-44.5 -76t-41.5 -54.5h-359q28 50 48 148t20 202v119h434z" />
    <glyph glyph-name="Rcaron" unicode="&#x158;" horiz-adv-x="1492" 
d="M375 1526l-248 377h408l92 -181l88 181h411l-252 -377h-499zM668 1085h-109v-325h84q118 0 167.5 47.5t49.5 118.5q0 74 -40.5 116.5t-151.5 42.5zM1513 0h-552l-269 446q-43 -4 -133 -4v-442h-463v1446h596q138 0 251 -27.5t202 -85.5t138.5 -157.5t49.5 -233.5
q0 -70 -21 -137t-54.5 -115.5t-67.5 -82.5t-66 -52z" />
    <glyph glyph-name="rcaron" unicode="&#x159;" horiz-adv-x="952" 
d="M989 1122l-55 -391q-116 25 -182 25q-96 0 -203 -39v-717h-453v1118h453v-160q111 195 272 195q61 0 168 -31zM289 1206l-256 391h407l101 -194l96 194h412l-261 -391h-499z" />
    <glyph glyph-name="Sacute" unicode="&#x15a;" horiz-adv-x="1206" 
d="M1022 1903l-279 -377h-344l150 377h473zM1188 424q0 -100 -37 -179.5t-97.5 -130.5t-143 -85t-168.5 -48t-179 -14q-102 0 -196 9t-154.5 22t-107 26t-67.5 22l-20 9l76 355q24 -8 64 -19t145 -30t189 -19q202 0 202 94q0 27 -22 49t-59 39t-85.5 34t-102 37.5t-106.5 45
t-101.5 61.5t-85.5 83t-59 113.5t-22 148.5q0 94 34.5 169t91.5 123.5t134.5 80.5t157.5 45.5t166 13.5q133 0 257.5 -21.5t182.5 -43.5l58 -21l-89 -342q-200 57 -333 57q-172 0 -172 -80q0 -26 28 -48t73.5 -38t104 -38t119 -45.5t119 -62.5t104 -87t73.5 -121.5
t28 -163.5z" />
    <glyph glyph-name="sacute" unicode="&#x15b;" horiz-adv-x="1095" 
d="M1059 365q0 -89 -34.5 -159.5t-89 -114.5t-129 -72.5t-148 -40t-152.5 -11.5q-264 0 -463 47l37 316q252 -43 354 -43q168 0 168 55q0 18 -24.5 30.5t-64 19t-90.5 17.5t-103.5 23.5t-103.5 39t-90.5 63t-64 97t-24.5 138.5t30.5 142.5t81.5 108.5t119.5 74t143.5 44
t155 14q249 0 445 -55l-47 -310q-74 18 -175.5 33t-160.5 15q-133 0 -133 -50q0 -20 24 -33.5t64 -21t90.5 -18.5t103 -23t103 -38t90.5 -60.5t64 -93t24 -133.5zM948 1597l-286 -391h-345l158 391h473z" />
    <glyph glyph-name="Scircumflex" unicode="&#x15c;" horiz-adv-x="1206" 
d="M127 1526l248 377h499l252 -377h-411l-88 180l-92 -180h-408zM1188 424q0 -100 -37 -179.5t-97.5 -130.5t-143 -85t-168.5 -48t-179 -14q-102 0 -196 9t-154.5 22t-107 26t-67.5 22l-20 9l76 355q24 -8 64 -19t145 -30t189 -19q202 0 202 94q0 27 -22 49t-59 39t-85.5 34
t-102 37.5t-106.5 45t-101.5 61.5t-85.5 83t-59 113.5t-22 148.5q0 94 34.5 169t91.5 123.5t134.5 80.5t157.5 45.5t166 13.5q133 0 257.5 -21.5t182.5 -43.5l58 -21l-89 -342q-200 57 -333 57q-172 0 -172 -80q0 -26 28 -48t73.5 -38t104 -38t119 -45.5t119 -62.5t104 -87
t73.5 -121.5t28 -163.5z" />
    <glyph glyph-name="scircumflex" unicode="&#x15d;" horiz-adv-x="1095" 
d="M1059 365q0 -89 -34.5 -159.5t-89 -114.5t-129 -72.5t-148 -40t-152.5 -11.5q-264 0 -463 47l37 316q252 -43 354 -43q168 0 168 55q0 18 -24.5 30.5t-64 19t-90.5 17.5t-103.5 23.5t-103.5 39t-90.5 63t-64 97t-24.5 138.5t30.5 142.5t81.5 108.5t119.5 74t143.5 44
t155 14q249 0 445 -55l-47 -310q-74 18 -175.5 33t-160.5 15q-133 0 -133 -50q0 -20 24 -33.5t64 -21t90.5 -18.5t103 -23t103 -38t90.5 -60.5t64 -93t24 -133.5zM43 1206l256 391h500l260 -391h-412l-96 195l-100 -195h-408z" />
    <glyph glyph-name="Scedilla" unicode="&#x15e;" horiz-adv-x="1206" 
d="M1188 424q0 -100 -37 -179.5t-97.5 -130.5t-143 -85t-168.5 -48t-179 -14q-102 0 -196 9t-154.5 22t-107 26t-67.5 22l-20 9l76 355q24 -8 64 -19t145 -30t189 -19q202 0 202 94q0 27 -22 49t-59 39t-85.5 34t-102 37.5t-106.5 45t-101.5 61.5t-85.5 83t-59 113.5
t-22 148.5q0 94 34.5 169t91.5 123.5t134.5 80.5t157.5 45.5t166 13.5q133 0 257.5 -21.5t182.5 -43.5l58 -21l-89 -342q-200 57 -333 57q-172 0 -172 -80q0 -26 28 -48t73.5 -38t104 -38t119 -45.5t119 -62.5t104 -87t73.5 -121.5t28 -163.5zM889 -289q0 -50 -23 -94
t-59.5 -75t-81 -57t-89 -42t-81 -27t-59.5 -16l-23 -4l-147 256q8 2 20.5 5.5t44.5 16t56.5 28t44.5 40.5t20 53l-14 101h336q55 -111 55 -185z" />
    <glyph glyph-name="scedilla" unicode="&#x15f;" horiz-adv-x="1095" 
d="M1059 365q0 -89 -34.5 -159.5t-89 -114.5t-129 -72.5t-148 -40t-152.5 -11.5q-264 0 -463 47l37 316q252 -43 354 -43q168 0 168 55q0 18 -24.5 30.5t-64 19t-90.5 17.5t-103.5 23.5t-103.5 39t-90.5 63t-64 97t-24.5 138.5t30.5 142.5t81.5 108.5t119.5 74t143.5 44
t155 14q249 0 445 -55l-47 -310q-74 18 -175.5 33t-160.5 15q-133 0 -133 -50q0 -20 24 -33.5t64 -21t90.5 -18.5t103 -23t103 -38t90.5 -60.5t64 -93t24 -133.5zM834 -289q0 -50 -23 -94t-59.5 -75t-81 -57t-89 -42t-81 -27t-59.5 -16l-23 -4l-148 256q8 2 20.5 5.5
t44.5 16t57 28t45 40.5t20 53l-15 101h336q56 -111 56 -185z" />
    <glyph glyph-name="Scaron" unicode="&#x160;" horiz-adv-x="1206" 
d="M354 1526l-248 377h408l92 -181l88 181h412l-252 -377h-500zM1188 424q0 -100 -37 -179.5t-97.5 -130.5t-143 -85t-168.5 -48t-179 -14q-102 0 -196 9t-154.5 22t-107 26t-67.5 22l-20 9l76 355q24 -8 64 -19t145 -30t189 -19q202 0 202 94q0 27 -22 49t-59 39t-85.5 34
t-102 37.5t-106.5 45t-101.5 61.5t-85.5 83t-59 113.5t-22 148.5q0 94 34.5 169t91.5 123.5t134.5 80.5t157.5 45.5t166 13.5q133 0 257.5 -21.5t182.5 -43.5l58 -21l-89 -342q-200 57 -333 57q-172 0 -172 -80q0 -26 28 -48t73.5 -38t104 -38t119 -45.5t119 -62.5t104 -87
t73.5 -121.5t28 -163.5z" />
    <glyph glyph-name="scaron" unicode="&#x161;" horiz-adv-x="1095" 
d="M1059 365q0 -89 -34.5 -159.5t-89 -114.5t-129 -72.5t-148 -40t-152.5 -11.5q-264 0 -463 47l37 316q252 -43 354 -43q168 0 168 55q0 18 -24.5 30.5t-64 19t-90.5 17.5t-103.5 23.5t-103.5 39t-90.5 63t-64 97t-24.5 138.5t30.5 142.5t81.5 108.5t119.5 74t143.5 44
t155 14q249 0 445 -55l-47 -310q-74 18 -175.5 33t-160.5 15q-133 0 -133 -50q0 -20 24 -33.5t64 -21t90.5 -18.5t103 -23t103 -38t90.5 -60.5t64 -93t24 -133.5zM299 1206l-256 391h408l100 -194l96 194h412l-260 -391h-500z" />
    <glyph glyph-name="Tcommaaccent" unicode="&#x162;" horiz-adv-x="1304" 
d="M1309 1090h-426v-1090h-461v1090h-426v356h1313v-356zM870 -104v-72q0 -79 -15 -147.5t-42 -119t-44.5 -76t-41.5 -54.5h-358q28 50 47.5 148t19.5 202v119h434z" />
    <glyph glyph-name="tcommaaccent" unicode="&#x163;" horiz-adv-x="989" 
d="M940 358l35 -342q-159 -49 -316 -49q-55 0 -90 1t-85 5t-82 11.5t-72 21.5t-65.5 34.5t-52 51t-41.5 70t-24.5 92.5t-9.5 117v424h-137v323h141l29 230h422v-230h344v-323h-344v-377q0 -47 25.5 -63.5t78.5 -16.5q64 0 244 20zM791 -104v-72q0 -79 -15 -147.5t-42.5 -119
t-44.5 -76t-42 -54.5h-358q28 50 47.5 148t19.5 202v119h435z" />
    <glyph glyph-name="Tcaron" unicode="&#x164;" horiz-adv-x="1304" 
d="M399 1526l-247 377h407l92 -181l88 181h412l-252 -377h-500zM1309 1090h-426v-1090h-461v1090h-426v356h1313v-356z" />
    <glyph glyph-name="tcaron" unicode="&#x165;" horiz-adv-x="989" 
d="M940 358l35 -342q-159 -49 -316 -49q-55 0 -90 1t-85 5t-82 11.5t-72 21.5t-65.5 34.5t-52 51t-41.5 70t-24.5 92.5t-9.5 117v424h-137v323h141l29 230h422v-230h344v-323h-344v-377q0 -47 25.5 -63.5t78.5 -16.5q64 0 244 20zM686 1624h287v-106q0 -73 -9.5 -125.5
t-30 -87t-33.5 -48.5t-40 -38h-211q20 53 28.5 110.5t8.5 159.5v135z" />
    <glyph glyph-name="Tbar" unicode="&#x166;" horiz-adv-x="1304" 
d="M1309 1090h-426v-306h252v-307h-252v-477h-461v477h-252v307h252v306h-426v356h1313v-356z" />
    <glyph glyph-name="tbar" unicode="&#x167;" horiz-adv-x="989" 
d="M940 358l35 -342q-159 -49 -316 -49q-55 0 -90 1t-85 5t-82 11.5t-72 21.5t-65.5 34.5t-52 51t-41.5 70t-24.5 92.5t-9.5 117v71h-112v283h112v70h-137v323h141l29 230h422v-230h344v-323h-344v-70h266v-283h-266v-24q0 -47 25.5 -63.5t78.5 -16.5q35 0 96 5t104 10z" />
    <glyph glyph-name="Utilde" unicode="&#x168;" horiz-adv-x="1611" 
d="M1532 1446v-821q0 -658 -721 -658q-731 0 -731 611v868h467v-856q0 -124 59.5 -182t204.5 -58q146 0 205 63t59 216v817h457zM1153 1933l145 -211q-1 -1 -15 -17t-24.5 -27.5t-33 -32t-43 -35.5t-51 -33t-60 -29.5t-66.5 -19.5t-75 -8q-46 0 -88.5 14.5t-69 31.5
t-62.5 31.5t-71 14.5q-91 0 -176 -74l-152 215q168 205 373 205q47 0 89 -14.5t68 -31.5t62.5 -31.5t73.5 -14.5q31 0 60 8t44.5 16t40.5 23.5t31 19.5z" />
    <glyph glyph-name="utilde" unicode="&#x169;" horiz-adv-x="1359" 
d="M1274 0h-453v104q-74 -65 -174 -102t-201 -37q-94 0 -161 24.5t-105 63t-59.5 102.5t-28 125.5t-6.5 149.5v688h451v-661q0 -76 24.5 -101.5t83.5 -25.5q84 0 176 43v745h453v-1118zM1022 1630l152 -221q-1 -1 -15 -17t-25 -27.5t-33.5 -32t-43 -36t-51 -33.5t-60 -29.5
t-66.5 -19.5t-75 -8q-46 0 -88.5 14.5t-69 31.5t-62.5 31.5t-71 14.5q-92 0 -176 -73l-158 225q168 205 373 205q47 0 89 -14.5t68 -31.5t62.5 -31.5t73.5 -14.5q31 0 60 8t44.5 16t40.5 23.5t31 19.5z" />
    <glyph glyph-name="Umacron" unicode="&#x16a;" horiz-adv-x="1611" 
d="M1182 1526h-752v377h752v-377zM1532 1446v-821q0 -658 -721 -658q-731 0 -731 611v868h467v-856q0 -124 59.5 -182t204.5 -58q146 0 205 63t59 216v817h457z" />
    <glyph glyph-name="umacron" unicode="&#x16b;" horiz-adv-x="1359" 
d="M1274 0h-453v104q-74 -65 -174 -102t-201 -37q-94 0 -161 24.5t-105 63t-59.5 102.5t-28 125.5t-6.5 149.5v688h451v-661q0 -76 24.5 -101.5t83.5 -25.5q84 0 176 43v745h453v-1118zM1055 1221h-752v376h752v-376z" />
    <glyph glyph-name="Ubreve" unicode="&#x16c;" horiz-adv-x="1611" 
d="M1532 1446v-821q0 -658 -721 -658q-731 0 -731 611v868h467v-856q0 -124 59.5 -182t204.5 -58q146 0 205 63t59 216v817h457zM1118 1976l146 -227q-17 -24 -34 -45t-59.5 -57.5t-89 -62t-119.5 -45t-155 -19.5t-156 19.5t-121.5 45.5t-88.5 61.5t-60 58.5t-33 46l150 227
q26 -24 58.5 -45.5t102 -44t148.5 -22.5q115 0 194 35t117 75z" />
    <glyph glyph-name="ubreve" unicode="&#x16d;" horiz-adv-x="1359" 
d="M1274 0h-453v104q-74 -65 -174 -102t-201 -37q-94 0 -161 24.5t-105 63t-59.5 102.5t-28 125.5t-6.5 149.5v688h451v-661q0 -76 24.5 -101.5t83.5 -25.5q84 0 176 43v745h453v-1118zM991 1700l156 -238q-14 -22 -33.5 -47t-62.5 -63.5t-92.5 -67.5t-124 -50.5
t-156.5 -21.5t-157 21t-125 50.5t-92 67t-62.5 64t-32.5 47.5l158 240q141 -133 311 -133q106 0 188.5 43.5t124.5 87.5z" />
    <glyph glyph-name="Uring" unicode="&#x16e;" horiz-adv-x="1611" 
d="M897 1729q0 63 -88 63t-88 -61q0 -66 88 -66t88 64zM1188 1729q0 -100 -51 -165t-132.5 -91.5t-193.5 -26.5q-379 0 -379 280q0 149 103.5 219t273.5 70q61 0 114 -8t102.5 -28.5t85 -52t56.5 -82t21 -115.5zM1532 1446v-821q0 -658 -721 -658q-731 0 -731 611v868h467
v-856q0 -124 59.5 -182t204.5 -58q146 0 205 63t59 216v817h457z" />
    <glyph glyph-name="uring" unicode="&#x16f;" horiz-adv-x="1359" 
d="M1274 0h-453v104q-74 -65 -174 -102t-201 -37q-94 0 -161 24.5t-105 63t-59.5 102.5t-28 125.5t-6.5 149.5v688h451v-661q0 -76 24.5 -101.5t83.5 -25.5q84 0 176 43v745h453v-1118zM766 1481q0 63 -88 63t-88 -61q0 -66 88 -66t88 64zM1057 1481q0 -100 -51 -165
t-132.5 -91.5t-193.5 -26.5q-379 0 -379 281q0 77 29 133.5t81.5 90t119 49t147.5 15.5q61 0 114 -8t102.5 -28.5t85 -52t56.5 -82t21 -115.5z" />
    <glyph glyph-name="Uhungarumlaut" unicode="&#x170;" horiz-adv-x="1611" 
d="M1491 1903l-336 -377h-344l211 377h469zM893 1903l-211 -377h-344l86 377h469zM1532 1446v-821q0 -658 -721 -658q-731 0 -731 611v868h467v-856q0 -124 59.5 -182t204.5 -58q146 0 205 63t59 216v817h457z" />
    <glyph glyph-name="uhungarumlaut" unicode="&#x171;" horiz-adv-x="1359" 
d="M1274 0h-453v104q-74 -65 -174 -102t-201 -37q-94 0 -161 24.5t-105 63t-59.5 102.5t-28 125.5t-6.5 149.5v688h451v-661q0 -76 24.5 -101.5t83.5 -25.5q84 0 176 43v745h453v-1118zM1393 1597l-342 -391h-344l217 391h469zM795 1597l-217 -391h-345l93 391h469z" />
    <glyph glyph-name="Uogonek" unicode="&#x172;" horiz-adv-x="1611" 
d="M1130 -225l66 -269q-143 -75 -324 -75q-143 0 -231 72t-88 221q0 131 115 249q-588 55 -588 605v868h467v-856q0 -124 59.5 -182t204.5 -58q146 0 205 63t59 216v817h457v-821q0 -455 -348 -596q-90 -36 -180.5 -104.5t-90.5 -119.5q0 -63 84 -63q64 0 133 33z" />
    <glyph glyph-name="uogonek" unicode="&#x173;" horiz-adv-x="1359" 
d="M1237 -225l66 -269q-143 -75 -324 -75q-143 0 -231.5 72t-88.5 221q0 148 162 270v110q-6 -6 -17 -15t-48.5 -33t-78.5 -42.5t-104 -33.5t-127 -15q-94 0 -161 24.5t-105 63t-59.5 102.5t-28 125.5t-6.5 149.5v688h451v-661q0 -76 24.5 -101.5t83.5 -25.5q36 0 80 11
t70 21l26 11v745h453v-1118q-114 -43 -184 -96.5t-70 -98.5q0 -63 84 -63q64 0 133 33z" />
    <glyph glyph-name="Wcircumflex" unicode="&#x174;" horiz-adv-x="2172" 
d="M586 1526l248 377h499l252 -377h-411l-89 180l-92 -180h-407zM2173 1446l-324 -1446h-614l-156 791h-6l-172 -791h-620l-281 1446h492l135 -1000h6l227 1000h453l209 -1000h6l158 1000h487z" />
    <glyph glyph-name="wcircumflex" unicode="&#x175;" horiz-adv-x="1824" 
d="M1851 1118l-284 -1118h-549l-119 698h-16l-117 -698h-530l-263 1118h473l72 -751h17l124 751h508l117 -751h16l84 751h467zM406 1206l256 391h499l260 -391h-411l-97 195l-100 -195h-407z" />
    <glyph glyph-name="Ycircumflex" unicode="&#x176;" horiz-adv-x="1572" 
d="M283 1526l247 377h500l252 -377h-412l-88 180l-92 -180h-407zM1610 1446l-613 -1034v-412h-460v412l-574 1034h535l280 -627h6l301 627h525z" />
    <glyph glyph-name="ycircumflex" unicode="&#x177;" horiz-adv-x="1339" 
d="M1366 1118l-600 -1569h-465l170 451h-74l-424 1118h486l203 -731h16l215 731h473zM162 1206l256 391h500l260 -391h-412l-96 195l-101 -195h-407z" />
    <glyph glyph-name="Ydieresis" unicode="&#x178;" horiz-adv-x="1572" 
d="M1280 1528h-408v370h408v-370zM688 1528h-405v370h405v-370zM1610 1446l-613 -1034v-412h-460v412l-574 1034h535l280 -627h6l301 627h525z" />
    <glyph glyph-name="Zacute" unicode="&#x179;" horiz-adv-x="1282" 
d="M1040 1903l-278 -377h-344l149 377h473zM1253 0h-1224v289l600 792h-557v365h1138v-277l-612 -804h655v-365z" />
    <glyph glyph-name="zacute" unicode="&#x17a;" horiz-adv-x="1073" 
d="M1028 0h-983v276l438 484h-420v358h957v-270l-414 -496h422v-352zM944 1597l-287 -391h-344l158 391h473z" />
    <glyph glyph-name="Zdotaccent" unicode="&#x17b;" horiz-adv-x="1282" 
d="M844 1530h-406v371h406v-371zM1253 0h-1224v289l600 792h-557v365h1138v-277l-612 -804h655v-365z" />
    <glyph glyph-name="zdotaccent" unicode="&#x17c;" horiz-adv-x="1073" 
d="M1028 0h-983v276l438 484h-420v358h957v-270l-414 -496h422v-352zM743 1227h-405v370h405v-370z" />
    <glyph glyph-name="Zcaron" unicode="&#x17d;" horiz-adv-x="1282" 
d="M395 1526l-248 377h408l92 -181l88 181h412l-252 -377h-500zM1253 0h-1224v289l600 792h-557v365h1138v-277l-612 -804h655v-365z" />
    <glyph glyph-name="zcaron" unicode="&#x17e;" horiz-adv-x="1073" 
d="M1028 0h-983v276l438 484h-420v358h957v-270l-414 -496h422v-352zM293 1206l-256 391h407l101 -194l96 194h412l-260 -391h-500z" />
    <glyph glyph-name="florin" unicode="&#x192;" horiz-adv-x="1128" 
d="M74 766h227l16 231q7 90 33.5 161.5t66 121.5t98.5 86.5t121 58t144.5 34t158 16.5t171.5 4l31 -383q-189 -13 -253 -31q-109 -30 -119 -111q-1 -5 -1 -10l-12 -178h219v-356h-244l-24 -367q-4 -60 -13 -107.5t-31 -101t-56.5 -93t-92.5 -77.5t-135 -62t-188 -38.5
t-248 -14.5l-15 375q34 2 55.5 3.5t58 5.5t60.5 10t53 17t47 25.5t31 36t15 48.5l24 340h-198v356z" />
    <glyph glyph-name="uni01C4" unicode="&#x1c4;" horiz-adv-x="2871" 
d="M1985 1526l-248 377h407l92 -181l88 181h412l-252 -377h-499zM2843 0h-1225v289l600 792h-557v365h1139v-277l-613 -804h656v-365zM666 1081h-109v-716h129q219 0 308 75.5t89 276.5q0 107 -23.5 177t-76.5 111.5t-128.5 58.5t-188.5 17zM1550 727q0 -163 -41.5 -288
t-115.5 -207.5t-185 -135t-241 -74.5t-293 -22h-578v1446h572q163 0 291.5 -20t242 -70.5t188 -131t117.5 -206t43 -291.5z" />
    <glyph glyph-name="uni01C5" unicode="&#x1c5;" horiz-adv-x="2662" 
d="M2617 0h-983v276l439 484h-420v358h956v-270l-414 -496h422v-352zM1882 1206l-256 391h408l100 -194l96 194h412l-260 -391h-500zM666 1081h-109v-716h129q219 0 308 75.5t89 276.5q0 107 -23.5 177t-76.5 111.5t-128.5 58.5t-188.5 17zM1550 727q0 -163 -41.5 -288
t-115.5 -207.5t-185 -135t-241 -74.5t-293 -22h-578v1446h572q163 0 291.5 -20t242 -70.5t188 -131t117.5 -206t43 -291.5z" />
    <glyph glyph-name="uni01C6" unicode="&#x1c6;" horiz-adv-x="2414" 
d="M2370 0h-984v276l439 484h-420v358h956v-270l-413 -496h422v-352zM1634 1206l-256 391h408l100 -194l96 194h412l-260 -391h-500zM803 365v434q-3 0 -22.5 4t-42 7t-42.5 3q-204 0 -204 -233q0 -242 170 -242q68 0 141 27zM1255 0h-421v88q-78 -68 -140 -94.5t-166 -26.5
q-77 0 -146 19t-133.5 64.5t-111 114t-74.5 175t-28 240.5q0 125 36.5 225t96 164t141.5 106.5t167.5 60t178.5 17.5q21 0 46.5 -2t43.5 -4t36.5 -5t21.5 -3v407h452v-1546z" />
    <glyph glyph-name="uni01C7" unicode="&#x1c7;" horiz-adv-x="1908" 
d="M1176 0h-1080v1446h461v-1088h619v-358zM1817 1446v-1032q0 -122 -30 -205t-90 -128t-135 -63t-180 -18h-182v358h51q103 0 103 95v993h463z" />
    <glyph glyph-name="uni01C8" unicode="&#x1c8;" horiz-adv-x="1824" 
d="M1176 0h-1080v1446h461v-1088h619v-358zM1739 1118v-1089q0 -264 -119 -372t-381 -108q-74 0 -156 15t-127 30l-45 15l58 301q125 -12 186 -12q73 0 102 29.5t29 103.5v1087h453zM1739 1272h-451v325h451v-325z" />
    <glyph glyph-name="uni01C9" unicode="&#x1c9;" horiz-adv-x="1249" 
d="M539 0h-453v1546h453v-1546zM1163 1118v-1089q0 -264 -118.5 -372t-380.5 -108q-74 0 -156 15t-127 30l-45 15l57 301q126 -12 187 -12q73 0 102 29.5t29 103.5v1087h452zM1163 1272h-450v325h450v-325z" />
    <glyph glyph-name="uni01CA" unicode="&#x1ca;" horiz-adv-x="2316" 
d="M1511 0h-516l-432 762h-6v-762h-461v1446h510l436 -774h7v774h462v-1446zM2224 1446v-1032q0 -98 -20.5 -171t-56 -119t-91 -74t-119.5 -39t-147 -11h-182v358h51q102 0 102 95v993h463z" />
    <glyph glyph-name="uni01CB" unicode="&#x1cb;" horiz-adv-x="2232" 
d="M1511 0h-516l-432 762h-6v-762h-461v1446h510l436 -774h7v774h462v-1446zM2146 1118v-1089q0 -264 -118.5 -372t-380.5 -108q-74 0 -156 15t-127 30l-45 15l57 301q126 -12 187 -12q73 0 102 29.5t29 103.5v1087h452zM2146 1272h-450v325h450v-325z" />
    <glyph glyph-name="uni01CC" unicode="&#x1cc;" horiz-adv-x="1984" 
d="M1274 0h-453v662q0 76 -23.5 101t-82.5 25q-42 0 -93.5 -12t-82.5 -31v-745h-453v1118h453v-104q74 66 173.5 102.5t200.5 36.5q68 0 121.5 -12.5t91 -33.5t64.5 -55.5t43 -71t25.5 -87t12.5 -97.5t3 -108v-688zM1898 1118v-1089q0 -264 -118.5 -372t-380.5 -108
q-74 0 -156 15t-127 30l-45 15l57 301q126 -12 187 -12q73 0 102 29.5t29 103.5v1087h452zM1898 1272h-450v325h450v-325z" />
    <glyph glyph-name="uni01E2" unicode="&#x1e2;" horiz-adv-x="2099" 
d="M1595 1526h-751v377h751v-377zM961 696v394h-68l-150 -394h218zM2046 0h-1085v391h-330l-156 -391h-485l606 1446h1403v-356h-576v-201h531v-328h-531v-205h623v-356z" />
    <glyph glyph-name="uni01E3" unicode="&#x1e3;" horiz-adv-x="1898" 
d="M821 133q-96 -80 -189 -123t-202 -43q-195 0 -293 88t-98 269q0 64 18 115t46 85t73.5 58.5t89.5 38t105 21t109.5 9.5t113.5 2h106q0 48 -3 70.5t-17.5 43t-43.5 26.5t-81 6q-83 0 -164 -14t-158 -36l-77 -22l-64 313q4 2 13 5q280 108 499 108q137 0 225 -17t162 -57
q83 38 152 56t170 18q289 0 420 -150t131 -432v-94h-715q-1 -89 57.5 -121t177.5 -32q61 0 159.5 9.5t166.5 18.5l68 10l55 -339q-27 -6 -73 -15.5t-170.5 -25t-227.5 -15.5q-192 0 -325.5 37.5t-215.5 128.5zM1360 1223h-752v376h752v-376zM727 303q-16 57 -25 119l-129 -4
q-22 -1 -35 -2t-33.5 -6t-31.5 -12.5t-20 -23t-9 -36.5q0 -36 17 -52t53 -16q113 0 213 33zM1149 715h254q0 84 -33 126t-86 42q-58 0 -96.5 -41t-38.5 -127z" />
    <glyph glyph-name="uni01F1" unicode="&#x1f1;" horiz-adv-x="2871" 
d="M666 1081h-109v-716h129q219 0 308 75.5t89 276.5q0 107 -23.5 177t-76.5 111.5t-128.5 58.5t-188.5 17zM1550 727q0 -163 -41.5 -288t-115.5 -207.5t-185 -135t-241 -74.5t-293 -22h-578v1446h572q163 0 291.5 -20t242 -70.5t188 -131t117.5 -206t43 -291.5zM2843 0
h-1225v289l600 792h-557v365h1139v-277l-613 -804h656v-365z" />
    <glyph glyph-name="uni01F2" unicode="&#x1f2;" horiz-adv-x="2662" 
d="M666 1081h-109v-716h129q219 0 308 75.5t89 276.5q0 107 -23.5 177t-76.5 111.5t-128.5 58.5t-188.5 17zM1550 727q0 -163 -41.5 -288t-115.5 -207.5t-185 -135t-241 -74.5t-293 -22h-578v1446h572q163 0 291.5 -20t242 -70.5t188 -131t117.5 -206t43 -291.5zM2617 0
h-983v276l439 484h-420v358h956v-270l-414 -496h422v-352z" />
    <glyph glyph-name="uni01F3" unicode="&#x1f3;" horiz-adv-x="2414" 
d="M803 365v434q-3 0 -22.5 4t-42 7t-42.5 3q-204 0 -204 -233q0 -242 170 -242q68 0 141 27zM1255 0h-421v88q-78 -68 -140 -94.5t-166 -26.5q-77 0 -146 19t-133.5 64.5t-111 114t-74.5 175t-28 240.5q0 125 36.5 225t96 164t141.5 106.5t167.5 60t178.5 17.5
q21 0 46.5 -2t43.5 -4t36.5 -5t21.5 -3v407h452v-1546zM2370 0h-984v276l439 484h-420v358h956v-270l-413 -496h422v-352z" />
    <glyph glyph-name="AEacute" unicode="&#x1fc;" horiz-adv-x="2099" 
d="M1651 1903l-279 -377h-344l150 377h473zM961 696v394h-68l-150 -394h218zM2046 0h-1085v391h-330l-156 -391h-485l606 1446h1403v-356h-576v-201h531v-328h-531v-205h623v-356z" />
    <glyph glyph-name="aeacute" unicode="&#x1fd;" horiz-adv-x="1898" 
d="M821 133q-96 -80 -189 -123t-202 -43q-195 0 -293 88t-98 269q0 64 18 115t46 85t73.5 58.5t89.5 38t105 21t109.5 9.5t113.5 2h106q0 48 -3 70.5t-17.5 43t-43.5 26.5t-81 6q-83 0 -164 -14t-158 -36l-77 -22l-64 313q4 2 13 5q280 108 499 108q137 0 225 -17t162 -57
q83 38 152 56t170 18q289 0 420 -150t131 -432v-94h-715q-1 -89 57.5 -121t177.5 -32q61 0 159.5 9.5t166.5 18.5l68 10l55 -339q-27 -6 -73 -15.5t-170.5 -25t-227.5 -15.5q-192 0 -325.5 37.5t-215.5 128.5zM1317 1597l-287 -391h-344l158 391h473zM727 303
q-16 57 -25 119l-129 -4q-22 -1 -35 -2t-33.5 -6t-31.5 -12.5t-20 -23t-9 -36.5q0 -36 17 -52t53 -16q113 0 213 33zM1149 715h254q0 84 -33 126t-86 42q-58 0 -96.5 -41t-38.5 -127z" />
    <glyph glyph-name="Oslashacute" unicode="&#x1fe;" horiz-adv-x="1693" 
d="M1235 1903l-279 -377h-344l150 377h473zM1184 725q0 69 -10 125.5t-33.5 106t-61.5 83t-96.5 53t-134.5 19.5q-97 0 -165 -29t-105.5 -83.5t-53.5 -121.5t-16 -155q0 -87 16 -154t53 -122t103.5 -84t161.5 -29q99 0 167.5 29t106 84t53 122t15.5 156zM1655 725
q0 -375 -210 -566.5t-607 -191.5q-234 0 -402 68l-166 -193l-213 185l146 168q-164 185 -164 526q0 375 213.5 566.5t605.5 191.5q232 0 397 -64l166 193l215 -183l-147 -170q166 -187 166 -530z" />
    <glyph glyph-name="oslashacute" unicode="&#x1ff;" horiz-adv-x="1327" 
d="M1065 1597l-287 -391h-344l158 391h473zM831 557q0 122 -36 181t-131 59q-93 0 -130.5 -59t-37.5 -181q0 -123 36.5 -177t131.5 -54q94 0 130.5 54t36.5 177zM1294 1094l-120 -140q118 -144 118 -395q0 -184 -81.5 -319t-225 -204t-332.5 -69q-167 0 -291 53l-135 -155
l-194 164l123 141q-121 151 -121 381q0 273 166 437.5t456 164.5q185 0 310 -51l135 153z" />
    <glyph glyph-name="Scommaaccent" unicode="&#x218;" horiz-adv-x="1206" 
d="M1188 424q0 -100 -37 -179.5t-97.5 -130.5t-143 -85t-168.5 -48t-179 -14q-102 0 -196 9t-154.5 22t-107 26t-67.5 22l-20 9l76 355q24 -8 64 -19t145 -30t189 -19q202 0 202 94q0 27 -22 49t-59 39t-85.5 34t-102 37.5t-106.5 45t-101.5 61.5t-85.5 83t-59 113.5
t-22 148.5q0 94 34.5 169t91.5 123.5t134.5 80.5t157.5 45.5t166 13.5q133 0 257.5 -21.5t182.5 -43.5l58 -21l-89 -342q-200 57 -333 57q-172 0 -172 -80q0 -26 28 -48t73.5 -38t104 -38t119 -45.5t119 -62.5t104 -87t73.5 -121.5t28 -163.5zM852 -104v-72
q0 -79 -15 -147.5t-42 -119t-44.5 -76t-41.5 -54.5h-359q28 50 48 148t20 202v119h434z" />
    <glyph glyph-name="scommaaccent" unicode="&#x219;" horiz-adv-x="1095" 
d="M1059 365q0 -89 -34.5 -159.5t-89 -114.5t-129 -72.5t-148 -40t-152.5 -11.5q-264 0 -463 47l37 316q252 -43 354 -43q168 0 168 55q0 18 -24.5 30.5t-64 19t-90.5 17.5t-103.5 23.5t-103.5 39t-90.5 63t-64 97t-24.5 138.5t30.5 142.5t81.5 108.5t119.5 74t143.5 44
t155 14q249 0 445 -55l-47 -310q-74 18 -175.5 33t-160.5 15q-133 0 -133 -50q0 -20 24 -33.5t64 -21t90.5 -18.5t103 -23t103 -38t90.5 -60.5t64 -93t24 -133.5zM811 -104v-72q0 -79 -15 -147.5t-42 -119t-44.5 -76t-41.5 -54.5h-359q28 50 48 148t20 202v119h434z" />
    <glyph glyph-name="uni021A" unicode="&#x21a;" horiz-adv-x="1304" 
d="M1309 1090h-426v-1090h-461v1090h-426v356h1313v-356zM905 -104v-72q0 -79 -15 -147.5t-42 -119t-44.5 -76t-41.5 -54.5h-359q28 50 48 148t20 202v119h434z" />
    <glyph glyph-name="uni021B" unicode="&#x21b;" horiz-adv-x="989" 
d="M940 358l35 -342q-159 -49 -316 -49q-55 0 -90 1t-85 5t-82 11.5t-72 21.5t-65.5 34.5t-52 51t-41.5 70t-24.5 92.5t-9.5 117v424h-137v323h141l29 230h422v-230h344v-323h-344v-377q0 -47 25.5 -63.5t78.5 -16.5q64 0 244 20zM791 -104v-72q0 -79 -15 -147.5t-42.5 -119
t-44.5 -76t-42 -54.5h-358q28 50 47.5 148t19.5 202v119h435z" />
    <glyph glyph-name="circumflex" unicode="&#x2c6;" horiz-adv-x="1155" 
d="M70 1206l256 391h499l260 -391h-411l-96 195l-101 -195h-407z" />
    <glyph glyph-name="caron" unicode="&#x2c7;" horiz-adv-x="1155" 
d="M326 1206l-256 391h407l101 -194l96 194h411l-260 -391h-499z" />
    <glyph glyph-name="breve" unicode="&#x2d8;" horiz-adv-x="1134" 
d="M881 1700l155 -238q-14 -22 -33.5 -47t-62.5 -63.5t-92.5 -67.5t-124 -50.5t-156.5 -21.5t-157 21t-125 50.5t-92 67t-62.5 64t-32.5 47.5l158 240q141 -133 311 -133q106 0 189 43.5t125 87.5z" />
    <glyph glyph-name="dotaccent" unicode="&#x2d9;" horiz-adv-x="573" 
d="M489 1227h-405v370h405v-370z" />
    <glyph glyph-name="ring" unicode="&#x2da;" horiz-adv-x="919" 
d="M547 1481q0 63 -88 63t-88 -61q0 -66 88 -66t88 64zM838 1481q0 -100 -51 -165t-132.5 -91.5t-193.5 -26.5q-379 0 -379 281q0 77 29 133.5t81.5 90t119 49t147.5 15.5q61 0 114 -8t102.5 -28.5t85 -52t56.5 -82t21 -115.5z" />
    <glyph glyph-name="ogonek" unicode="&#x2db;" horiz-adv-x="790" 
d="M645 -225l66 -269q-143 -75 -324 -75q-143 0 -231 72t-88 221q0 72 35.5 140.5t88.5 120.5t126 100t137 79.5t133 58.5l133 -184q-115 -51 -204 -116t-89 -118q0 -63 84 -63q64 0 133 33z" />
    <glyph glyph-name="tilde" unicode="&#x2dc;" horiz-adv-x="1202" 
d="M946 1630l152 -221q-1 -1 -15 -17t-25 -27.5t-33.5 -32t-43 -36t-51 -33.5t-60 -29.5t-66.5 -19.5t-75 -8q-46 0 -88.5 14.5t-69 31.5t-62.5 31.5t-71 14.5q-92 0 -176 -73l-158 225q168 205 373 205q47 0 89 -14.5t68 -31.5t62.5 -31.5t73.5 -14.5q31 0 60 8t44.5 16
t40.5 23.5t31 19.5z" />
    <glyph glyph-name="hungarumlaut" unicode="&#x2dd;" horiz-adv-x="1409" 
d="M1284 1597l-342 -391h-344l217 391h469zM686 1597l-217 -391h-344l92 391h469z" />
    <glyph glyph-name="gravecmb" unicode="&#x300;" horiz-adv-x="909" 
d="M426 1206l-287 391h473l158 -391h-344z" />
    <glyph glyph-name="acutecmb" unicode="&#x301;" horiz-adv-x="921" 
d="M776 1597l-287 -391h-344l158 391h473z" />
    <glyph glyph-name="uni0302" unicode="&#x302;" horiz-adv-x="1155" 
d="M70 1206l256 391h499l260 -391h-411l-96 195l-101 -195h-407z" />
    <glyph glyph-name="tildecmb" unicode="&#x303;" horiz-adv-x="1202" 
d="M946 1630l152 -221q-1 -1 -15 -17t-25 -27.5t-33.5 -32t-43 -36t-51 -33.5t-60 -29.5t-66.5 -19.5t-75 -8q-46 0 -88.5 14.5t-69 31.5t-62.5 31.5t-71 14.5q-92 0 -176 -73l-158 225q168 205 373 205q47 0 89 -14.5t68 -31.5t62.5 -31.5t73.5 -14.5q31 0 60 8t44.5 16
t40.5 23.5t31 19.5z" />
    <glyph glyph-name="uni0304" unicode="&#x304;" horiz-adv-x="956" 
d="M854 1221h-752v376h752v-376z" />
    <glyph glyph-name="uni0306" unicode="&#x306;" horiz-adv-x="1134" 
d="M881 1700l155 -238q-14 -22 -33.5 -47t-62.5 -63.5t-92.5 -67.5t-124 -50.5t-156.5 -21.5t-157 21t-125 50.5t-92 67t-62.5 64t-32.5 47.5l158 240q141 -133 311 -133q106 0 189 43.5t125 87.5z" />
    <glyph glyph-name="uni0307" unicode="&#x307;" horiz-adv-x="610" 
d="M508 1227h-406v370h406v-370z" />
    <glyph glyph-name="uni0308" unicode="&#x308;" horiz-adv-x="1181" 
d="M1090 1227h-408v370h408v-370zM498 1227h-406v370h406v-370z" />
    <glyph glyph-name="hookcmb" unicode="&#x309;" horiz-adv-x="630" 
d="M631 1579q0 -58 -22.5 -111t-56 -90.5t-79.5 -71t-84.5 -53.5t-79.5 -36l-147 223q112 46 112 119q0 30 -20.5 45.5t-52.5 15.5q-5 0 -72 -10l-27 227q85 27 187 27q153 0 247.5 -72.5t94.5 -212.5z" />
    <glyph glyph-name="uni030A" unicode="&#x30a;" horiz-adv-x="919" 
d="M547 1481q0 63 -88 63t-88 -61q0 -66 88 -66t88 64zM838 1481q0 -100 -51 -165t-132.5 -91.5t-193.5 -26.5q-379 0 -379 281q0 77 29 133.5t81.5 90t119 49t147.5 15.5q61 0 114 -8t102.5 -28.5t85 -52t56.5 -82t21 -115.5z" />
    <glyph glyph-name="uni030B" unicode="&#x30b;" horiz-adv-x="1409" 
d="M1284 1597l-342 -391h-344l217 391h469zM686 1597l-217 -391h-344l92 391h469z" />
    <glyph glyph-name="uni030C" unicode="&#x30c;" horiz-adv-x="1155" 
d="M326 1206l-256 391h407l101 -194l96 194h411l-260 -391h-499z" />
    <glyph glyph-name="uni0310" unicode="&#x310;" horiz-adv-x="1142" 
d="M885 1700l155 -238q-14 -22 -33.5 -47t-62.5 -63.5t-92.5 -67.5t-124 -50.5t-156.5 -21.5t-157 21t-125 50.5t-92 67t-62.5 64t-32.5 47.5l158 240q141 -133 311 -133q106 0 189 43.5t125 87.5zM780 1702h-405v371h405v-371z" />
    <glyph glyph-name="dotbelowcmb" unicode="&#x323;" horiz-adv-x="645" 
d="M543 -532h-441v421h441v-421z" />
    <glyph glyph-name="uni0324" unicode="&#x324;" horiz-adv-x="1085" 
d="M1090 -512h-408v371h408v-371zM498 -512h-406v371h406v-371z" />
    <glyph glyph-name="uni0325" unicode="&#x325;" horiz-adv-x="960" 
d="M567 -360q0 63 -88 63t-88 -61q0 -66 88 -66t88 64zM858 -360q0 -100 -51 -165t-132.5 -91.5t-193.5 -26.5q-379 0 -379 281q0 77 29 133.5t81.5 90t119 49t147.5 15.5q61 0 114 -8t102.5 -28.5t85 -52t56.5 -82t21 -115.5z" />
    <glyph glyph-name="uni0327" unicode="&#x327;" horiz-adv-x="714" 
d="M639 -289q0 -50 -23 -94t-59.5 -75t-81 -57t-89 -42t-81 -27t-59.5 -16l-23 -4l-147 256q8 2 20.5 5.5t44.5 16t56.5 28t44.5 40.5t20 53l-14 101h336q55 -111 55 -185z" />
    <glyph glyph-name="uni0328" unicode="&#x328;" horiz-adv-x="790" 
d="M645 -225l66 -269q-143 -75 -324 -75q-143 0 -231 72t-88 221q0 72 35.5 140.5t88.5 120.5t126 100t137 79.5t133 58.5l133 -184q-115 -51 -204 -116t-89 -118q0 -63 84 -63q64 0 133 33z" />
    <glyph glyph-name="uni032E" unicode="&#x32e;" horiz-adv-x="1142" 
d="M885 -47l155 -238q-14 -22 -33.5 -47t-62.5 -63.5t-92.5 -67.5t-124 -50.5t-156.5 -21.5t-157 21t-125 50.5t-92 67t-62.5 64t-32.5 47.5l158 240q141 -133 311 -133q106 0 189 43.5t125 87.5z" />
    <glyph glyph-name="uni0331" unicode="&#x331;" horiz-adv-x="876" 
d="M102 -553v346h672v-346h-672z" />
    <glyph glyph-name="alpha" unicode="&#x3b1;" horiz-adv-x="1378" 
d="M1081 -33q-48 0 -87.5 11t-74 37t-54.5 75t-21 117h-6q-7 -18 -22.5 -44t-47 -61.5t-70 -64.5t-97 -49.5t-122.5 -20.5q-60 0 -118 16t-118 57.5t-105 104t-73.5 163t-29.5 227.5q0 299 136.5 458.5t360.5 159.5q106 0 189.5 -49.5t101.5 -87.5h11v102h421v-727
q0 -40 18.5 -53.5t53.5 -13.5v-322q-107 -35 -246 -35zM803 543v137q-9 36 -55.5 74.5t-98.5 38.5q-78 0 -117.5 -59t-39.5 -187q0 -213 135 -213q75 0 125.5 62t50.5 147z" />
    <glyph glyph-name="beta" unicode="&#x3b2;" horiz-adv-x="1431" 
d="M1401 438q0 -119 -51 -212.5t-135 -148t-182 -82.5t-202 -28q-88 0 -170 17t-124 32v-467h-453v1467q0 268 161.5 418.5t450.5 150.5q144 0 259 -36.5t184.5 -97t106 -135.5t36.5 -157q0 -70 -26 -131t-67.5 -102t-75 -65t-66.5 -40v-10q127 -36 195 -79
q159 -102 159 -294zM938 477q0 63 -40 105.5t-99 60t-137 19.5v212q52 6 110.5 60t58.5 133q0 70 -40 115t-105 45q-71 0 -110 -51.5t-39 -151.5v-690q114 -37 192 -37q102 0 155.5 45.5t53.5 134.5z" />
    <glyph glyph-name="gamma" unicode="&#x3b3;" horiz-adv-x="1335" 
d="M864 1118h484q-4 -136 -163 -488t-339 -646q28 -144 28 -273q0 -37 -2.5 -70t-6 -61.5t-3.5 -30.5h-440q-1 6 -6.5 42t-8.5 62t-6.5 67.5t-3.5 76.5q0 34 3.5 69t10 80t7.5 50q-25 119 -65 249.5t-79 234.5t-88.5 219t-82 182.5t-71 146t-44.5 90.5h493q17 -34 32.5 -71
t30.5 -80t27 -77.5t26.5 -84.5t22.5 -78t21 -81t17.5 -69.5t16.5 -68.5t13 -55h17q50 104 99 286.5t60 378.5z" />
    <glyph glyph-name="delta" unicode="&#x3b4;" horiz-adv-x="1339" 
d="M1305 524q0 -174 -89.5 -302.5t-235.5 -191.5t-327 -63q-286 0 -453 141t-167 375q0 139 80.5 243.5t208.5 158.5v8q-160 110 -160 309q0 176 160 279.5t411 103.5q45 0 91 -3.5t89.5 -11t80 -14.5t75 -17t60 -16t50 -14.5t31.5 -9.5l-75 -309q-210 55 -355 55
q-80 0 -118.5 -18t-38.5 -60q0 -22 13.5 -39.5t46 -34.5t62.5 -29t88 -33.5t97 -37.5q72 -28 134.5 -68.5t119 -97.5t89 -135t32.5 -168zM844 498q0 25 -7.5 47.5t-17 39.5t-29.5 35t-33.5 28t-42 25t-41 21t-44.5 19.5t-41 17.5q-56 -44 -77.5 -95t-21.5 -116
q0 -217 179 -217q85 0 130.5 51.5t45.5 143.5z" />
    <glyph glyph-name="Wgrave" unicode="&#x1e80;" horiz-adv-x="2172" 
d="M971 1526l-279 377h473l150 -377h-344zM2173 1446l-324 -1446h-614l-156 791h-6l-172 -791h-620l-281 1446h492l135 -1000h6l227 1000h453l209 -1000h6l158 1000h487z" />
    <glyph glyph-name="wgrave" unicode="&#x1e81;" horiz-adv-x="1824" 
d="M793 1206l-287 391h473l158 -391h-344zM1851 1118l-284 -1118h-549l-119 698h-16l-117 -698h-530l-263 1118h473l72 -751h17l124 751h508l117 -751h16l84 751h467z" />
    <glyph glyph-name="Wacute" unicode="&#x1e82;" horiz-adv-x="2172" 
d="M1483 1903l-279 -377h-344l150 377h473zM2173 1446l-324 -1446h-614l-156 791h-6l-172 -791h-620l-281 1446h492l135 -1000h6l227 1000h453l209 -1000h6l158 1000h487z" />
    <glyph glyph-name="wacute" unicode="&#x1e83;" horiz-adv-x="1824" 
d="M1851 1118l-284 -1118h-549l-119 698h-16l-117 -698h-530l-263 1118h473l72 -751h17l124 751h508l117 -751h16l84 751h467zM1313 1597l-287 -391h-344l158 391h473z" />
    <glyph glyph-name="Wdieresis" unicode="&#x1e84;" horiz-adv-x="2172" 
d="M1585 1528h-407v370h407v-370zM993 1528h-405v370h405v-370zM2173 1446l-324 -1446h-614l-156 791h-6l-172 -791h-620l-281 1446h492l135 -1000h6l227 1000h453l209 -1000h6l158 1000h487z" />
    <glyph glyph-name="wdieresis" unicode="&#x1e85;" horiz-adv-x="1824" 
d="M1851 1118l-284 -1118h-549l-119 698h-16l-117 -698h-530l-263 1118h473l72 -751h17l124 751h508l117 -751h16l84 751h467zM1413 1227h-407v370h407v-370zM821 1227h-405v370h405v-370z" />
    <glyph glyph-name="Ygrave" unicode="&#x1ef2;" horiz-adv-x="1572" 
d="M645 1526l-278 377h473l149 -377h-344zM1610 1446l-613 -1034v-412h-460v412l-574 1034h535l280 -627h6l301 627h525z" />
    <glyph glyph-name="ygrave" unicode="&#x1ef3;" horiz-adv-x="1339" 
d="M549 1206l-287 391h473l158 -391h-344zM1366 1118l-600 -1569h-465l170 451h-74l-424 1118h486l203 -731h16l215 731h473z" />
    <glyph glyph-name="uni2012" unicode="&#x2012;" horiz-adv-x="1075" 
d="M0 379v401h1075v-401h-1075z" />
    <glyph glyph-name="endash" unicode="&#x2013;" horiz-adv-x="1024" 
d="M963 410h-902v356h902v-356z" />
    <glyph glyph-name="emdash" unicode="&#x2014;" horiz-adv-x="2048" 
d="M1987 410h-1926v356h1926v-356z" />
    <glyph glyph-name="quoteleft" unicode="&#x2018;" horiz-adv-x="544" 
d="M195 1546h329q-23 -43 -38 -131t-15 -186v-338h-416v276q0 210 140 379z" />
    <glyph glyph-name="quoteright" unicode="&#x2019;" horiz-adv-x="544" 
d="M489 1546v-276q0 -214 -137 -379h-332q24 44 40 132.5t16 184.5v338h413z" />
    <glyph glyph-name="quotesinglbase" unicode="&#x201a;" horiz-adv-x="544" 
d="M524 406v-277q0 -214 -137 -379h-332q24 44 40 133t16 185v338h413z" />
    <glyph glyph-name="quotedblleft" unicode="&#x201c;" horiz-adv-x="1075" 
d="M195 1546h329q-23 -43 -38 -131t-15 -186v-338h-416v276q0 210 140 379zM725 1546h330q-24 -43 -39 -131.5t-15 -185.5v-338h-415v276q0 211 139 379z" />
    <glyph glyph-name="quotedblright" unicode="&#x201d;" horiz-adv-x="1075" 
d="M489 1546v-276q0 -214 -137 -379h-332q24 44 40 132.5t16 184.5v338h413zM1020 1546v-276q0 -214 -137 -379h-332q24 44 39.5 132t15.5 185v338h414z" />
    <glyph glyph-name="quotedblbase" unicode="&#x201e;" horiz-adv-x="1062" 
d="M524 406v-277q0 -211 -139 -379h-330q23 43 38.5 132t15.5 186v338h415zM1042 406v-277q0 -211 -139 -379h-330q23 43 38.5 132t15.5 186v338h415z" />
    <glyph glyph-name="dagger" unicode="&#x2020;" horiz-adv-x="1142" 
d="M1133 856l-351 23l25 -879h-471l24 879l-350 -23v406l348 -21l-24 303h475l-25 -303l349 21v-406z" />
    <glyph glyph-name="daggerdbl" unicode="&#x2021;" horiz-adv-x="1142" 
d="M1133 283l-351 22l27 -305h-473l24 305l-350 -22v387l350 -8v223l-350 -8v385l348 -21l-24 303h475l-25 -303l349 21v-385l-349 8v-223l349 8v-387z" />
    <glyph glyph-name="bullet" unicode="&#x2022;" horiz-adv-x="1011" 
d="M803 721q0 -122 -87 -208.5t-210 -86.5q-121 0 -209 87t-88 208t87.5 209t209.5 88q120 0 208.5 -88.5t88.5 -208.5z" />
    <glyph glyph-name="ellipsis" unicode="&#x2026;" horiz-adv-x="1556" 
d="M471 0h-401v420h401v-420zM979 0h-401v420h401v-420zM1487 0h-402v420h402v-420z" />
    <glyph glyph-name="perthousand" unicode="&#x2030;" horiz-adv-x="2136" 
d="M1686 743q213 0 323.5 -90t110.5 -293q0 -97 -36 -174t-97.5 -123.5t-138 -71t-162.5 -24.5q-60 0 -110 10t-78 23t-48.5 29.5t-26.5 24.5t-8 12q-5 -6 -11.5 -13.5t-28 -24.5t-46 -29t-65 -22t-86.5 -10q-435 0 -435 383q0 97 36.5 174t98 123.5t138 71t162.5 24.5
q57 0 104.5 -10t75 -23t48 -29t27.5 -25.5t9 -14.5q3 5 12 14.5t30.5 25.5t48 29t67.5 23t86 10zM16 1085q0 97 36.5 174t98 124t138 71.5t162.5 24.5q213 0 323.5 -90t110.5 -293q0 -97 -36 -174t-97.5 -124t-138 -71.5t-162.5 -24.5q-435 0 -435 383zM662 274l-596 -274
v367l596 274v-367zM1571 1079l-596 -274v366l596 275v-367zM524 1083q0 65 -19 90t-54 25t-54.5 -25t-19.5 -90q0 -64 19 -89t55 -25q35 0 54 24.5t19 89.5zM1759 348q0 65 -19 90t-54 25t-54.5 -25t-19.5 -90t19 -90t55 -25q35 0 54 25t19 90zM1251 348q0 65 -19 90t-54 25
t-54.5 -25t-19.5 -90t19 -90t55 -25q35 0 54 25t19 90z" />
    <glyph glyph-name="guilsinglleft" unicode="&#x2039;" horiz-adv-x="616" 
d="M616 920l-206 -363l204 -356l-327 -119l-287 475l287 475z" />
    <glyph glyph-name="guilsinglright" unicode="&#x203a;" horiz-adv-x="616" 
d="M616 557l-286 -475l-328 119l205 356l-207 363l330 112z" />
    <glyph glyph-name="fraction" unicode="&#x2044;" horiz-adv-x="677" 
d="M1083 1137l-1255 -1084l-234 242l1254 1085z" />
    <glyph glyph-name="colonsign" unicode="&#x20a1;" horiz-adv-x="1492" 
d="M1241 1427l109 211h209l-666 -1298q184 0 346 51l102 -348q-227 -76 -483 -76q-88 0 -151 8l-66 -129h-209l82 162q-18 5 -100 35l-101 -197h-209l152 295q-217 187 -217 578q0 382 209.5 571t605.5 189q15 0 43 -1t41 -1l84 161h209l-94 -184q61 -14 104 -27zM958 1106
l-344 -672q32 -32 88 -59l367 717q-69 12 -111 14zM508 729q0 -43 6 -84l227 447q-113 -32 -173 -125t-60 -238z" />
    <glyph glyph-name="uni20A2" unicode="&#x20a2;" horiz-adv-x="1445" 
d="M1411 932l-55 -391q-116 24 -182 24q-52 0 -87 -8t-75 -31v-186q151 6 288 51l103 -348q-227 -76 -483 -76q-164 0 -296.5 24t-243 79.5t-185 141.5t-115.5 214t-41 293q0 195 63.5 342.5t181 238t275.5 135t356 44.5q268 0 486 -82l-113 -344q-173 55 -354 55
q-92 0 -164 -17t-133.5 -57.5t-95 -117.5t-33.5 -187q0 -193 92 -285v484h412v-160q37 92 90 139t141 47q92 0 168 -22z" />
    <glyph glyph-name="franc" unicode="&#x20a3;" horiz-adv-x="1607" 
d="M1608 840l-56 -391q-116 24 -182 24q-108 0 -162 -39v-434h-452v510h-199v-510h-461v1446h1112v-356h-651v-254h651v-160q37 101 89.5 147.5t142.5 46.5q65 0 168 -30z" />
    <glyph glyph-name="lira" unicode="&#x20a4;" horiz-adv-x="1130" 
d="M51 485v211h162v70h-162v211h162v45q0 78 13.5 140t46 107.5t68 79t98 56t116 36t142.5 21.5t157 11t178 6l17 -369q-206 -14 -286.5 -40t-94.5 -93h311v-211h-315v-70h315v-211h-315v-14q0 -27 -9 -51.5t-21.5 -40t-25 -27.5t-21.5 -17l-9 -5v-6h507v-324h-1011v324
q65 6 98 43.5t39 117.5h-160z" />
    <glyph glyph-name="mill" unicode="&#x20a5;" horiz-adv-x="2048" 
d="M799 467v195q0 76 -22 100t-77 24q-82 0 -161 -41v-745h-453v1118h453v-104q1 1 11.5 9t18 13.5t23.5 16.5t30 19t35 19t40.5 19t45 16.5t50 14t53 9t57.5 3.5q131 0 211 -47l203 412h369l-187 -377q53 12 111 12q69 0 123.5 -14.5t91 -37.5t62.5 -60.5t40.5 -73.5
t22.5 -88t10 -93t2 -98v-688h-453v662q0 76 -22 100t-76 24q-43 0 -94 -14l-68 -139v-633h-313l-135 -276h-369z" />
    <glyph glyph-name="uni20A6" unicode="&#x20a6;" horiz-adv-x="1607" 
d="M1511 0h-516l-250 438h-188v-438h-461v438h-96v205h96v123h-96v205h96v475h510l266 -475h177v475h462v-475h95v-205h-95v-123h95v-205h-95v-438zM563 762h-6v-119h74zM989 766l53 -94h7v94h-60z" />
    <glyph glyph-name="uni20A7" unicode="&#x20a7;" horiz-adv-x="3399" 
d="M858 889q0 32 -4 58t-16 53.5t-32.5 46.5t-55 31t-80.5 12h-111v-402h86q62 0 106 18t66 49t31.5 63.5t9.5 70.5zM1331 895q0 -115 -44.5 -214.5t-129.5 -176.5t-221.5 -121.5t-308.5 -44.5h-68v-338h-463v1446h619q130 0 243 -38t195.5 -108t130 -174.5t47.5 -230.5z
M2286 358l34 -342q-159 -49 -315 -49q-55 0 -90 1t-85 5t-82 11.5t-72 21.5t-65.5 34.5t-52 51t-41.5 70t-24.5 92.5t-9.5 117v424h-137v323h141l29 230h421v-230h344v-323h-344v-377q0 -47 26 -63.5t79 -16.5q64 0 244 20zM3363 365q0 -89 -34.5 -159.5t-89 -114.5
t-129 -72.5t-148 -40t-152.5 -11.5q-264 0 -463 47l37 316q252 -43 354 -43q168 0 168 55q0 18 -24.5 30.5t-64 19t-90.5 17.5t-103.5 23.5t-103.5 39t-90.5 63t-64 97t-24.5 138.5t30.5 142.5t81.5 108.5t119.5 74t143.5 44t155 14q249 0 445 -55l-47 -310
q-74 18 -175.5 33t-160.5 15q-133 0 -133 -50q0 -20 24 -33.5t64 -21t90.5 -18.5t103 -23t103 -38t90.5 -60.5t64 -93t24 -133.5z" />
    <glyph glyph-name="uni20A8" unicode="&#x20a8;" horiz-adv-x="2383" 
d="M668 1085h-109v-325h84q118 0 167.5 47.5t49.5 118.5q0 74 -40.5 116.5t-151.5 42.5zM692 446q-43 -4 -133 -4v-442h-463v1446h596q138 0 251 -27.5t202 -85.5t138.5 -157.5t49.5 -233.5q0 -70 -21 -137t-54.5 -115.5t-67.5 -82.5t-66 -52q96 -125 222 -192.5t258 -67.5
q286 0 286 47q0 18 -24.5 30.5t-64 19t-90.5 17.5t-103.5 23.5t-103.5 39t-90.5 63t-64 97t-24.5 138.5t30.5 142.5t81.5 108.5t119.5 74t143.5 44t155 14q249 0 445 -55l-47 -310q-74 18 -175.5 33t-160.5 15q-133 0 -133 -50q0 -20 24 -33.5t64 -21t90.5 -18.5t103 -23
t103 -38t90.5 -60.5t64 -93t24 -133.5q0 -398 -797 -398q-597 0 -858 479z" />
    <glyph glyph-name="uni20A9" unicode="&#x20a9;" horiz-adv-x="2172" 
d="M1948 438l-99 -438h-614l-86 438h-154l-94 -438h-620l-86 438h-195v205h156l-25 123h-131v205h92l-92 475h492l63 -475h197l108 475h453l98 -475h199l76 475h487l-107 -475h107v-205h-152l-28 -123h180v-205h-225zM1454 766l27 -123h78l18 123h-123zM584 766l16 -123h78
l27 123h-121zM1067 766l-27 -123h68l-25 123h-16z" />
    <glyph glyph-name="uni20AA" unicode="&#x20aa;" horiz-adv-x="2058" 
d="M590 0v952h411v-637h275q75 0 122.5 10t79.5 29.5t47.5 61t21 92t5.5 135.5v799h410v-840q0 -167 -29 -276.5t-102 -185t-197 -108t-315 -32.5h-729zM96 0v1446h729q191 0 318 -33t204.5 -107.5t109.5 -185t32 -276.5v-352h-410v311q0 131 -29.5 201.5t-91.5 98
t-176 27.5h-274v-1130h-412z" />
    <glyph glyph-name="dong" unicode="&#x20ab;" horiz-adv-x="1329" 
d="M68 0v260h1108v-260h-1108zM758 625v338q-4 0 -38 5t-58 5q-185 0 -185 -182q0 -189 154 -189q55 0 127 23zM1165 340h-379v68q-73 -52 -128 -72.5t-148 -20.5q-69 0 -131 15t-120.5 50t-100.5 88.5t-67 136t-25 186.5q0 97 33 175t87 127.5t127.5 83t150.5 47t161 13.5
q32 0 81 -5t52 -5v47h-260v219h260v51h407v-51h90v-219h-90v-934z" />
    <glyph glyph-name="Euro" unicode="&#x20ac;" horiz-adv-x="1304" 
d="M836 1475q241 0 417 -80l-106 -328q-139 41 -293 43q-181 0 -250 -121h402v-219h-445q-2 -8 -2 -43q0 -7 1 -26.5t1 -26.5h445v-221h-392q75 -117 260 -117q171 0 293 31l74 -344q-151 -54 -401 -54q-326 0 -497.5 118t-223.5 366h-133v221h110q-2 10 -2 43q0 7 1 26.5
t1 26.5h-110v219h135q53 247 224.5 366.5t490.5 119.5z" />
    <glyph glyph-name="uni20AD" unicode="&#x20ad;" horiz-adv-x="1587" 
d="M1599 0h-608l-399 614h-35v-614h-461v614h-96v287h96v545h461v-545h39l385 545h592l-463 -545h270v-287h-266z" />
    <glyph glyph-name="uni20AE" unicode="&#x20ae;" horiz-adv-x="1304" 
d="M201 88v250l221 88v119l-221 -88v229l221 88v316h-426v356h1313v-356h-426v-129l229 94v-230l-229 -94v-119l229 95v-250l-229 -95v-362h-461v176z" />
    <glyph glyph-name="uni20B1" unicode="&#x20b1;" horiz-adv-x="1433" 
d="M1331 895v-18h103v-123h-121q-50 -186 -226 -301t-460 -115h-68v-338h-463v754h-96v123h96v57h-96v123h96v389h619q220 0 381 -103.5t213 -285.5h125v-123h-105q2 -14 2 -39zM858 877v12q0 29 -2 45h-297v-57h299zM559 688h86q116 0 172 66h-258v-66zM670 1090h-111v-33
h232q-50 33 -121 33z" />
    <glyph glyph-name="uni2113" unicode="&#x2113;" horiz-adv-x="1204" 
d="M559 -25q-169 0 -260.5 89.5t-91.5 275.5v123l-115 -76l-86 117q1 1 201 135v401q0 106 27.5 192t76.5 142.5t108 96.5t130 61t134 30t128 9q39 0 84 -8.5t95.5 -29.5t91.5 -51.5t67.5 -79.5t26.5 -108q0 -47 -15 -93.5t-37 -86t-61.5 -85t-74.5 -79t-91 -78.5t-95 -74.5
t-102 -75.5q-27 -20 -41 -30v-203q0 -152 20 -202.5t87 -50.5q93 0 158 51l63 -154q-71 -71 -182 -114.5t-246 -43.5zM659 1167v-272q228 204 228 365q0 74 -24 103.5t-77 29.5q-127 0 -127 -226z" />
    <glyph glyph-name="uni2116" unicode="&#x2116;" horiz-adv-x="2519" 
d="M2025 793q-430 0 -430 335q0 351 441 351q226 0 331 -83t105 -261q0 -92 -33.5 -159.5t-95 -106.5t-140.5 -57.5t-178 -18.5zM2034 1008q114 0 114 127q0 67 -26.5 98t-87.5 31q-67 0 -94 -31.5t-27 -99.5q0 -65 29 -95t92 -30zM1624 475v256h819v-256h-819zM995 0h516
v1446h-462v-774h-7l-436 774h-510v-1446h461v762h6z" />
    <glyph glyph-name="uni2117" unicode="&#x2117;" horiz-adv-x="1640" 
d="M811 -33q-371 0 -571.5 192t-200.5 562q0 364 211 561t581 197q374 0 572.5 -194t198.5 -560q0 -362 -208 -560t-583 -198zM969 829q0 -47 -29.5 -79.5t-103.5 -32.5h-54v223h70q68 0 92.5 -31t24.5 -80zM1264 831q0 142 -108 225t-275 83h-387v-811h288v194h43
q212 0 325.5 88t113.5 221z" />
    <glyph glyph-name="uni2120" unicode="&#x2120;" horiz-adv-x="1763" 
d="M1722 721h-286v334h-6l-74 -334h-226l-73 334h-6v-334h-287v727h366l111 -393h6l109 393h366v-727zM692 963q0 -70 -32 -121.5t-85.5 -78.5t-112 -39.5t-122.5 -12.5q-164 0 -295 28l25 203q153 -29 225 -29q106 0 106 35q0 12 -15.5 20t-41 12.5t-57.5 11.5t-66 15.5
t-66 25.5t-57.5 40t-41 61.5t-15.5 88.5q0 81 51.5 137.5t126 81t162.5 24.5q161 0 283 -34l-31 -199q-131 31 -213 31q-86 0 -86 -31q0 -16 26.5 -26.5t66.5 -16t86 -20t86 -35t66.5 -65t26.5 -107.5z" />
    <glyph glyph-name="trademark" unicode="&#x2122;" horiz-adv-x="1794" 
d="M748 1196h-211v-475h-285v475h-211v252h707v-252zM1753 721h-287v334h-6l-74 -334h-225l-74 334h-6v-334h-286v727h366l111 -393h6l108 393h367v-727z" />
    <glyph glyph-name="mho" unicode="&#x2127;" horiz-adv-x="1716" 
d="M39 1446h715v-334q-31 -23 -66.5 -61t-75.5 -93t-66 -127.5t-26 -144.5q0 -74 18 -135.5t56 -111t104.5 -77.5t157.5 -28q94 0 162 28.5t106 79.5t55 111.5t17 134.5q0 72 -26 144t-66 127t-75 92.5t-66 60.5v334h714v-365h-227v-10q27 -15 60 -48.5t69.5 -85t61 -126.5
t24.5 -156q0 -320 -212.5 -503t-586.5 -183q-243 0 -425.5 78.5t-286 235.5t-103.5 376q0 83 25 158.5t63 126t69.5 81t57.5 46.5v10h-227v365z" />
    <glyph glyph-name="estimated" unicode="&#x212e;" horiz-adv-x="1271" 
d="M651 -16q-307 0 -466.5 148t-159.5 417q0 133 49 247.5t134 193.5t202 124t249 45q179 0 310.5 -55.5t207 -170.5t78.5 -282l2 -114h-860v-113q0 -274 262 -274q131 0 247 49.5t190 160.5l127 -94q-39 -73 -109.5 -130t-152.5 -88.5t-161 -47.5t-149 -16zM397 684h486v39
q0 139 -48 205.5t-176 66.5q-136 0 -199 -68.5t-63 -203.5v-39z" />
    <glyph glyph-name="onethird" unicode="&#x2153;" horiz-adv-x="1333" 
d="M1038 1085l-399 -305v307l399 306v-308zM522 780h-260v471h-149v215l409 13v-699zM522 360l-399 -305v307l399 306v-308zM918 -14q-124 0 -246 28l47 209q13 -2 38 -6t39.5 -6t38 -4t48.5 -2q42 0 60 13t18 28q0 49 -168 49v106q72 0 112.5 12.5t40.5 32.5q0 31 -47 31
q-65 0 -156 -26l-65 194q129 51 250 51q70 0 127 -17t97 -61t40 -110q0 -111 -76 -150q39 -14 72 -56.5t33 -96.5q0 -52 -16.5 -91.5t-44 -63.5t-68 -38.5t-82 -20t-92.5 -5.5z" />
    <glyph glyph-name="twothirds" unicode="&#x2154;" horiz-adv-x="1488" 
d="M795 780l399 305v308l-399 -306v-307zM279 55l399 305v308l-399 -306v-307zM1073 -14q-124 0 -246 28l47 209q13 -2 38 -6t39.5 -6t38 -4t48.5 -2q42 0 60 13t18 28q0 49 -168 49v106q72 0 113 12.5t41 32.5q0 31 -47 31q-65 0 -156 -26l-65 194q129 51 249 51
q70 0 127.5 -17t97.5 -61t40 -110q0 -111 -76 -150q38 -14 71 -56.5t33 -96.5q0 -52 -16.5 -91.5t-44 -63.5t-68 -38.5t-82 -20t-92.5 -5.5zM123 782v174l237 222q48 43 48 65q0 16 -13 20.5t-41 4.5q-20 0 -45.5 -4.5t-42.5 -9t-46 -13.5t-38 -12l-69 194q148 56 274 56
q140 0 210.5 -61.5t70.5 -157.5q0 -143 -189 -263h199v-215h-555z" />
    <glyph glyph-name="oneeighth" unicode="&#x215b;" horiz-adv-x="1347" 
d="M1038 1085l-399 -305v307l399 306v-308zM522 780h-260v471h-149v215l409 13v-699zM522 360l-399 -305v307l399 306v-308zM934 -14q-297 0 -297 207q0 54 32 97.5t79 69.5q-44 31 -68.5 63t-24.5 81q0 67 42.5 112t103.5 62.5t137 17.5q117 0 199 -49t82 -139
q0 -89 -99 -150q115 -64 115 -159q0 -213 -301 -213zM879 496q0 -13 20 -32.5t35 -27.5q16 7 37.5 27.5t21.5 32.5q0 14 -18.5 28.5t-38.5 14.5q-24 0 -40.5 -13.5t-16.5 -29.5zM1004 199q0 16 -23.5 35.5t-42.5 29.5q-20 -9 -44 -29t-24 -36q0 -18 22 -30.5t44 -12.5
q27 0 47.5 11.5t20.5 31.5z" />
    <glyph glyph-name="threeeighths" unicode="&#x215c;" horiz-adv-x="1490" 
d="M1182 1085l-400 -305v307l400 306v-308zM666 360l-400 -305v307l400 306v-308zM1077 -14q-297 0 -297 207q0 54 32 97.5t79 69.5q-44 31 -68 63t-24 81q0 67 42.5 112t103.5 62.5t136 17.5q117 0 199 -49t82 -139t-98 -150q114 -64 114 -159q0 -213 -301 -213zM1022 496
q0 -13 20 -32.5t35 -27.5q16 7 38 27.5t22 32.5q0 14 -19 28.5t-39 14.5q-24 0 -40.5 -13.5t-16.5 -29.5zM1147 199q0 16 -23.5 35.5t-42.5 29.5q-19 -9 -43 -28.5t-24 -36.5q0 -18 21.5 -30.5t43.5 -12.5q27 0 47.5 11.5t20.5 31.5zM678 991q0 -223 -311 -223
q-64 0 -127.5 8.5t-95.5 17.5l-31 9l39 201q141 -21 192 -21q35 0 47 11.5t12 33.5t-41.5 29.5t-130.5 7.5v137q89 0 122.5 9.5t33.5 35.5q0 29 -39 29q-34 0 -77.5 -8t-70.5 -16l-26 -7l-55 195q14 6 38.5 15t92.5 23.5t127 14.5q118 0 196 -48t78 -149q0 -92 -71 -145
q40 -22 69 -63.5t29 -96.5z" />
    <glyph glyph-name="fiveeighths" unicode="&#x215d;" horiz-adv-x="1484" 
d="M776 780l400 305v308l-400 -306v-307zM260 55l399 305v308l-399 -306v-307zM1071 -14q-297 0 -297 207q0 54 32 97.5t79 69.5q-44 31 -68 63t-24 81q0 67 42.5 112t103.5 62.5t136 17.5q117 0 199 -49t82 -139q0 -89 -99 -150q115 -64 115 -159q0 -213 -301 -213z
M1016 496q0 -13 20 -32.5t35 -27.5q16 7 37.5 27.5t21.5 32.5q0 14 -18.5 28.5t-38.5 14.5q-24 0 -40.5 -13.5t-16.5 -29.5zM1141 199q0 16 -23.5 35.5t-42.5 29.5q-19 -9 -43 -28.5t-24 -36.5q0 -18 21.5 -30.5t43.5 -12.5q27 0 47.5 11.5t20.5 31.5zM371 780
q-122 0 -258 31l53 209q95 -21 184 -21q34 0 50 11t16 24q0 18 -11 29.5t-34 16t-42.5 6t-52.5 1.5q-32 0 -124 -8v400h485v-213h-244v-49h19q132 0 197 -47t65 -152q0 -116 -85.5 -177t-217.5 -61z" />
    <glyph glyph-name="seveneighths" unicode="&#x215e;" horiz-adv-x="1402" 
d="M694 780l400 305v308l-400 -306v-307zM178 55l400 305v308l-400 -306v-307zM989 -14q-297 0 -297 207q0 54 32 97.5t79 69.5q-44 31 -68 63t-24 81q0 67 42.5 112t103.5 62.5t136 17.5q117 0 199 -49t82 -139t-98 -150q114 -64 114 -159q0 -213 -301 -213zM934 496
q0 -13 20 -32.5t35 -27.5q16 7 38 27.5t22 32.5q0 14 -19 28.5t-39 14.5q-24 0 -40.5 -13.5t-16.5 -29.5zM1059 199q0 16 -23.5 35.5t-42.5 29.5q-19 -9 -43 -28.5t-24 -36.5q0 -18 21.5 -30.5t43.5 -12.5q27 0 47.5 11.5t20.5 31.5zM145 795l203 465h-235v219h546v-160
l-229 -524h-285z" />
    <glyph glyph-name="uni2190" unicode="&#x2190;" horiz-adv-x="1533" 
d="M940 162l-268 -266l-598 688l616 684l254 -256l-217 -232h807v-401h-793z" />
    <glyph glyph-name="arrowup" unicode="&#x2191;" horiz-adv-x="1519" 
d="M1446 860l-266 -268l-217 199v-793h-402v807l-231 -217l-256 254l684 616z" />
    <glyph glyph-name="uni2192" unicode="&#x2192;" horiz-adv-x="1533" 
d="M862 -104l-268 266l199 217h-793v401h807l-217 232l254 256l616 -684z" />
    <glyph glyph-name="arrowdown" unicode="&#x2193;" horiz-adv-x="1519" 
d="M1180 864l266 -268l-688 -598l-684 616l256 254l231 -217v807h402v-792z" />
    <glyph glyph-name="uni2196" unicode="&#x2196;" horiz-adv-x="1374" 
d="M1032 1278v-377l-293 -14l561 -559l-284 -285l-572 571l-10 -317l-360 -2l49 919z" />
    <glyph glyph-name="uni2197" unicode="&#x2197;" horiz-adv-x="1374" 
d="M342 901v377l909 -64l49 -919l-360 2l-10 317l-572 -571l-284 285l561 559z" />
    <glyph glyph-name="uni2198" unicode="&#x2198;" horiz-adv-x="1374" 
d="M342 43v377l293 14l-561 559l284 285l572 -571l10 317l360 2l-49 -920z" />
    <glyph glyph-name="uni2199" unicode="&#x2199;" horiz-adv-x="1374" 
d="M1032 420v-377l-909 63l-49 920l360 -2l10 -317l572 571l284 -285l-561 -559z" />
    <glyph glyph-name="partialdiff" unicode="&#x2202;" horiz-adv-x="1320" 
d="M1280 645q0 -334 -164.5 -506t-474.5 -172q-137 0 -244.5 29t-188.5 90t-124 161.5t-43 235.5q0 131 47 230t131.5 159t195 89.5t244.5 29.5q44 0 64 -2q-26 45 -180.5 102.5t-270.5 82.5l144 370q68 -17 128.5 -35.5t131 -45.5t131 -58.5t123 -74.5t113 -92t96 -112
t76 -134.5t48 -160t17.5 -186.5zM813 590v90q-50 4 -76 4q-239 0 -239 -197q0 -73 36 -115t109 -42q46 0 79.5 18t50.5 43t26.5 64.5t11.5 67.5t2 67z" />
    <glyph glyph-name="nabla" unicode="&#x2207;" horiz-adv-x="1597" 
d="M-10 1446h1618l-518 -1446h-580zM803 391l203 699h-412l203 -699h6z" />
    <glyph glyph-name="product" unicode="&#x220f;" horiz-adv-x="1759" 
d="M1739 1090h-205v-1541h-463v1541h-383v-1541h-463v1541h-205v356h1719v-356z" />
    <glyph glyph-name="coproduct" unicode="&#x2210;" horiz-adv-x="1759" 
d="M1534 -94h205v-357h-1719v357h205v1540h463v-1540h383v1540h463v-1540z" />
    <glyph glyph-name="summation" unicode="&#x2211;" horiz-adv-x="1214" 
d="M1174 0h-1141v289l350 434l-352 436v287h1143v-356h-580l268 -369l-264 -365h576v-356z" />
    <glyph glyph-name="minus" unicode="&#x2212;" horiz-adv-x="1081" 
d="M1026 549h-971v356h971v-356z" />
    <glyph glyph-name="radical" unicode="&#x221a;" horiz-adv-x="1681" 
d="M1753 1714l-651 -1714h-543l-268 762h-326v356h678l205 -727h6l434 1323h465z" />
    <glyph glyph-name="infinity" unicode="&#x221e;" horiz-adv-x="1843" 
d="M741 655l-28 19q-100 65 -221 65q-47 0 -74 -21t-27 -61q0 -82 103 -82q117 0 215 60zM1450 657q0 82 -102 82q-112 0 -220 -63l-30 -19l35 -20q104 -62 219 -62q98 0 98 82zM1782 662q0 -191 -102.5 -290.5t-288.5 -99.5q-87 0 -172.5 38t-190.5 108l-110 74l-117 -78
q-104 -69 -187 -105.5t-170 -36.5q-187 0 -285 95t-98 286q0 189 103 288t285 99q87 0 172.5 -36.5t183.5 -102.5l117 -80l120 80q101 67 185 103t170 36q186 0 285.5 -95t99.5 -283z" />
    <glyph glyph-name="integral" unicode="&#x222b;" horiz-adv-x="935" 
d="M905 1479l31 -381q-88 -6 -141.5 -12t-101.5 -18t-72.5 -30t-38 -45.5t-13.5 -68.5v-881q0 -96 -23.5 -170.5t-77.5 -136.5t-141 -102.5t-216.5 -62.5t-300.5 -22l-21 373q62 5 105.5 11t88 19t71.5 31.5t44 49.5t17 73v889q0 79 17 144.5t50 113.5t75.5 85t101 61
t117.5 40.5t134.5 25t143.5 11.5t151 3z" />
    <glyph glyph-name="approxequal" unicode="&#x2248;" horiz-adv-x="1198" 
d="M971 676l170 -230q-13 -23 -49 -58.5t-87.5 -74.5t-120 -66.5t-132.5 -27.5q-53 0 -103.5 17t-83 37.5t-72 37.5t-73.5 17q-52 0 -108.5 -24t-82.5 -48l-172 238q17 21 38.5 44t61 56.5t80.5 58.5t95 43.5t106 18.5q54 0 103 -17.5t79 -38t69.5 -38t76.5 -17.5
q52 0 110.5 20t94.5 52zM971 1171l170 -229q-18 -30 -77 -82t-146 -98.5t-154 -46.5q-42 0 -85.5 17t-75 37t-77.5 37t-92 17q-63 0 -120 -23.5t-85 -49.5l-172 239q22 28 53.5 58t82.5 70t116 65.5t129 25.5q54 0 103 -17t79 -37t69.5 -37t76.5 -17q52 0 110.5 19.5
t94.5 51.5z" />
    <glyph glyph-name="notequal" unicode="&#x2260;" horiz-adv-x="1097" 
d="M1024 311h-588l-96 -151h-262l94 151h-98v342h303l78 123h-381v342h583l95 150h264l-96 -150h104v-342h-305l-80 -123h385v-342z" />
    <glyph glyph-name="lessequal" unicode="&#x2264;" horiz-adv-x="1138" 
d="M1073 0h-1007v338h585l-585 199v374l1007 332v-369l-551 -147v-8l551 -146v-573z" />
    <glyph glyph-name="greaterequal" unicode="&#x2265;" horiz-adv-x="1138" 
d="M487 338h586v-338h-1007v573l550 146v8l-550 147v369l1007 -332v-374z" />
    <glyph glyph-name="uni2460" unicode="&#x2460;" horiz-adv-x="1720" 
d="M860 -10q-152 0 -287 53t-234.5 147.5t-157.5 233t-58 301.5q0 159 58 296.5t157 233.5t234.5 150.5t287.5 54.5t286.5 -52t234.5 -145t158 -232.5t58 -305.5q0 -167 -58 -306.5t-158 -232.5t-234.5 -144.5t-286.5 -51.5zM860 188q239 0 388 149t149 388t-149 388
t-388 149t-387.5 -149t-148.5 -388t148.5 -388t387.5 -149zM600 395v215h131v250h-131v217l391 17v-484h125v-215h-516z" />
    <glyph glyph-name="uni2461" unicode="&#x2461;" horiz-adv-x="1720" 
d="M860 -10q-152 0 -287 53t-234.5 147.5t-157.5 233t-58 301.5q0 159 58 296.5t157 233.5t234.5 150.5t287.5 54.5t286.5 -52t234.5 -145t158 -232.5t58 -305.5q0 -167 -58 -306.5t-158 -232.5t-234.5 -144.5t-286.5 -51.5zM860 188q239 0 388 149t149 388t-149 388
t-388 149t-387.5 -149t-148.5 -388t148.5 -388t387.5 -149zM590 397v174l237 222q47 42 47 65q0 16 -13 20.5t-40 4.5q-20 0 -45.5 -4.5t-42.5 -9t-46 -13.5t-38 -12l-69 194q148 56 274 56q140 0 210.5 -62t70.5 -158q0 -142 -189 -262h199v-215h-555z" />
    <glyph glyph-name="uni2462" unicode="&#x2462;" horiz-adv-x="1720" 
d="M860 -10q-152 0 -287 53t-234.5 147.5t-157.5 233t-58 301.5q0 159 58 296.5t157 233.5t234.5 150.5t287.5 54.5t286.5 -52t234.5 -145t158 -232.5t58 -305.5q0 -167 -58 -306.5t-158 -232.5t-234.5 -144.5t-286.5 -51.5zM860 188q239 0 388 149t149 388t-149 388
t-388 149t-387.5 -149t-148.5 -388t148.5 -388t387.5 -149zM848 375q-124 0 -246 28l47 209q13 -2 38 -6t39.5 -6t38 -4t48.5 -2q42 0 60 13t18 28q0 49 -168 49v107q73 0 113.5 12.5t40.5 32.5q0 30 -48 30q-64 0 -155 -26l-66 194q129 51 250 51q70 0 127 -17t97 -61
t40 -110q0 -111 -75 -149q38 -14 71 -57t33 -97q0 -52 -16.5 -91.5t-44 -63.5t-68 -38.5t-82 -20t-92.5 -5.5z" />
    <glyph glyph-name="uni2463" unicode="&#x2463;" horiz-adv-x="1720" 
d="M860 -10q-152 0 -287 53t-234.5 147.5t-157.5 233t-58 301.5q0 159 58 296.5t157 233.5t234.5 150.5t287.5 54.5t286.5 -52t234.5 -145t158 -232.5t58 -305.5q0 -167 -58 -306.5t-158 -232.5t-234.5 -144.5t-286.5 -51.5zM860 188q239 0 388 149t149 388t-149 388
t-388 149t-387.5 -149t-148.5 -388t148.5 -388t387.5 -149zM801 395v101h-285v186l223 397h318v-372h69v-211h-69v-101h-256zM696 707h105v192z" />
    <glyph glyph-name="uni2464" unicode="&#x2464;" horiz-adv-x="1720" 
d="M860 -10q-152 0 -287 53t-234.5 147.5t-157.5 233t-58 301.5q0 159 58 296.5t157 233.5t234.5 150.5t287.5 54.5t286.5 -52t234.5 -145t158 -232.5t58 -305.5q0 -167 -58 -306.5t-158 -232.5t-234.5 -144.5t-286.5 -51.5zM860 188q239 0 388 149t149 388t-149 388
t-388 149t-387.5 -149t-148.5 -388t148.5 -388t387.5 -149zM846 375q-122 0 -258 31l53 208q90 -20 184 -20q34 0 50 11t16 24q0 18 -11 29.5t-33.5 16t-42 6t-52.5 1.5t-125 -8v399h485v-213h-244v-49h19q132 0 197 -47t65 -152q0 -116 -85.5 -176.5t-217.5 -60.5z" />
    <glyph glyph-name="uni2465" unicode="&#x2465;" horiz-adv-x="1720" 
d="M860 -10q-152 0 -287 53t-234.5 147.5t-157.5 233t-58 301.5q0 159 58 296.5t157 233.5t234.5 150.5t287.5 54.5t286.5 -52t234.5 -145t158 -232.5t58 -305.5q0 -167 -58 -306.5t-158 -232.5t-234.5 -144.5t-286.5 -51.5zM860 188q239 0 388 149t149 388t-149 388
t-388 149t-387.5 -149t-148.5 -388t148.5 -388t387.5 -149zM838 375q-297 0 -297 319q0 84 20.5 153t62.5 123.5t112 84.5t163 30q109 0 199 -34l-49 -201q-69 27 -127 27q-49 0 -87 -18.5t-49 -53.5q65 20 119 20q93 0 159 -58.5t66 -148.5q0 -119 -79 -181t-213 -62z
M842 561q41 0 41 49q0 27 -9.5 38t-31.5 11q-27 0 -51 -6q0 -50 11 -71t40 -21z" />
    <glyph glyph-name="uni2466" unicode="&#x2466;" horiz-adv-x="1720" 
d="M860 -10q-152 0 -287 53t-234.5 147.5t-157.5 233t-58 301.5q0 159 58 296.5t157 233.5t234.5 150.5t287.5 54.5t286.5 -52t234.5 -145t158 -232.5t58 -305.5q0 -167 -58 -306.5t-158 -232.5t-234.5 -144.5t-286.5 -51.5zM860 188q239 0 388 149t149 388t-149 388
t-388 149t-387.5 -149t-148.5 -388t148.5 -388t387.5 -149zM627 397l202 465h-235v219h547v-159l-230 -525h-284z" />
    <glyph glyph-name="uni2467" unicode="&#x2467;" horiz-adv-x="1720" 
d="M860 -10q-152 0 -287 53t-234.5 147.5t-157.5 233t-58 301.5q0 159 58 296.5t157 233.5t234.5 150.5t287.5 54.5t286.5 -52t234.5 -145t158 -232.5t58 -305.5q0 -167 -58 -306.5t-158 -232.5t-234.5 -144.5t-286.5 -51.5zM860 188q239 0 388 149t149 388t-149 388
t-388 149t-387.5 -149t-148.5 -388t148.5 -388t387.5 -149zM854 375q-297 0 -297 207q0 54 32 98t79 70q-44 31 -68.5 62.5t-24.5 80.5q0 67 42.5 112t103.5 62.5t137 17.5q117 0 199 -49t82 -139q0 -50 -25.5 -85t-73.5 -64q50 -28 82.5 -69t32.5 -91q0 -213 -301 -213z
M799 885q0 -13 20 -32.5t35 -27.5q16 7 37.5 27.5t21.5 32.5q0 14 -18.5 28.5t-38.5 14.5q-24 0 -40.5 -13.5t-16.5 -29.5zM924 588q0 16 -23.5 35.5t-42.5 29.5q-19 -9 -43 -28.5t-24 -36.5q0 -18 21.5 -30.5t43.5 -12.5q27 0 47.5 11.5t20.5 31.5z" />
    <glyph glyph-name="uni2468" unicode="&#x2468;" horiz-adv-x="1720" 
d="M860 -10q-152 0 -287 53t-234.5 147.5t-157.5 233t-58 301.5q0 159 58 296.5t157 233.5t234.5 150.5t287.5 54.5t286.5 -52t234.5 -145t158 -232.5t58 -305.5q0 -167 -58 -306.5t-158 -232.5t-234.5 -144.5t-286.5 -51.5zM860 188q239 0 388 149t149 388t-149 388
t-388 149t-387.5 -149t-148.5 -388t148.5 -388t387.5 -149zM879 1085q297 0 297 -319q0 -84 -21 -153t-63 -123.5t-112 -84.5t-163 -30q-127 0 -219 35l49 200q67 -26 148 -26q110 0 135 86q-68 -21 -119 -21q-100 0 -162.5 46t-62.5 147q0 119 79.5 181t213.5 62zM874 899
q-40 0 -40 -49q0 -27 9 -37t31 -10q28 0 52 6q0 50 -11.5 70t-40.5 20z" />
    <glyph glyph-name="uni24CA" unicode="&#x24ca;" horiz-adv-x="1640" 
d="M811 -33q-371 0 -571.5 192t-200.5 562q0 364 211 561t581 197q374 0 572.5 -194t198.5 -560q0 -362 -208 -560t-583 -198zM1278 662v446h-281v-444q0 -84 -36 -118t-125 -34q-90 0 -127 31.5t-37 99.5v465h-287v-473q0 -332 451 -332q442 0 442 359z" />
    <glyph glyph-name="lozenge" unicode="&#x25ca;" horiz-adv-x="1423" 
d="M913 721l-198 366h-6l-199 -366l199 -361h6zM1423 721l-434 -721h-555l-434 721l434 725h555z" />
    <glyph glyph-name="uni2610" unicode="&#x2610;" horiz-adv-x="1638" 
d="M121 27v1394h1392v-1394h-1392zM348 256h938v936h-938v-936z" />
    <glyph glyph-name="uni2611" unicode="&#x2611;" horiz-adv-x="1638" 
d="M121 27v1394h1392v-1394h-1392zM348 256h938v936h-938v-936zM725 584l336 565l215 -109l-447 -727h-243l-209 396l227 120z" />
    <glyph glyph-name="uni261A" unicode="&#x261a;" horiz-adv-x="1564" 
d="M102 786q0 62 44 108t124 46h539l-92 86q-62 59 -62 121q0 87 121 205l486 -389h200v-764h-135q-19 0 -40 -13.5t-38.5 -29.5t-47.5 -29.5t-64 -13.5h-385q-80 0 -124 41.5t-44 105.5q0 19 6 37q-43 15 -69.5 53.5t-26.5 83.5q0 29 16 66q-31 40 -31 86q0 20 13 55h-238
q-71 0 -111.5 43t-40.5 102z" />
    <glyph glyph-name="uni261B" unicode="&#x261b;" horiz-adv-x="1564" 
d="M1462 786q0 -60 -40 -102.5t-111 -42.5h-238q12 -32 12 -55q0 -48 -30 -86q16 -37 16 -66q0 -45 -26.5 -83.5t-69.5 -53.5q6 -18 6 -37q0 -64 -44 -105.5t-124 -41.5h-385q-34 0 -64 13.5t-47.5 29.5t-38.5 29.5t-40 13.5h-136v764h201l485 389q121 -118 121 -205
q0 -63 -61 -121l-92 -86h538q80 0 124 -46t44 -108z" />
    <glyph glyph-name="uni261C" unicode="&#x261c;" horiz-adv-x="1806" 
d="M1704 199h-377q-19 0 -40 -13.5t-38.5 -29.5t-47.5 -29.5t-64 -13.5h-385q-80 0 -124 41.5t-44 105.5q0 19 6 37q-43 15 -69.5 53.5t-26.5 83.5q0 29 16 66q-31 36 -31 86q0 20 13 55h-238q-71 0 -111.5 43t-40.5 102q0 62 44 108t124 46h539l-92 86q-62 59 -62 121
q0 87 121 205l486 -389h442v-764zM1546 795h-221v-435h221v435z" />
    <glyph glyph-name="uni261D" unicode="&#x261d;" horiz-adv-x="1443" 
d="M659 379v-221h435v221h-435zM1255 377v-377h-763v442l-390 486q118 121 205 121q62 0 121 -62l86 -92v539q0 80 46 124t108 44q59 0 102 -40.5t43 -111.5v-238q35 13 55 13q50 0 86 -31q37 16 66 16q45 0 83.5 -26.5t53.5 -69.5q18 6 37 6q64 0 105.5 -44t41.5 -124v-385
q0 -34 -13.5 -64t-29.5 -47.5t-29.5 -38.5t-13.5 -40z" />
    <glyph glyph-name="uni261E" unicode="&#x261e;" horiz-adv-x="1806" 
d="M481 795h-221v-435h221v435zM479 199h-377v764h443l485 389q121 -118 121 -205q0 -63 -61 -121l-93 -86h539q80 0 124 -46t44 -108q0 -59 -40.5 -102t-111.5 -43h-237q12 -32 12 -55q0 -50 -31 -86q17 -39 17 -66q0 -45 -26.5 -83.5t-69.5 -53.5q6 -18 6 -37
q0 -64 -44 -105.5t-124 -41.5h-385q-43 0 -78.5 21.5t-62.5 43t-50 21.5z" />
    <glyph glyph-name="uni261F" unicode="&#x261f;" horiz-adv-x="1443" 
d="M784 1067v221h-434v-221h434zM188 1069v377h764v-442l389 -486q-118 -121 -204 -121q-62 0 -121 62l-86 92v-539q0 -80 -46 -124t-108 -44q-59 0 -102 40.5t-43 111.5v237q-32 -12 -56 -12q-50 0 -86 31q-37 -16 -65 -16q-45 0 -83.5 26.5t-53.5 69.5q-18 -6 -37 -6
q-64 0 -106 44t-42 124v385q0 34 13.5 64t29.5 47.5t29.5 38.5t13.5 40z" />
    <glyph glyph-name="uni267E" unicode="&#x267e;" horiz-adv-x="1640" 
d="M811 -33q-371 0 -571.5 192t-200.5 562q0 364 211 561t581 197q374 0 572.5 -194t198.5 -560q0 -362 -208 -560t-583 -198zM664 719l22 -19l-24 -18q-74 -57 -162 -57q-78 0 -78 77q0 38 20 58t56 20q91 0 166 -61zM1219 702q0 -77 -74 -77q-87 0 -166 59l-25 18l23 17
q82 61 164 61q78 0 78 -78zM1468 707q0 177 -74.5 266.5t-213.5 89.5q-65 0 -128.5 -34t-140.5 -97l-90 -76l-88 76q-152 131 -268 131q-136 0 -213.5 -93.5t-77.5 -271.5q0 -358 289 -358q65 0 128.5 34.5t139.5 98.5l86 74l84 -70q78 -66 143 -101.5t130 -35.5
q140 0 217 93.5t77 273.5z" />
    <glyph glyph-name="uni2713" unicode="&#x2713;" horiz-adv-x="1398" 
d="M645 573l336 566l215 -109l-446 -727h-244l-209 395l227 121z" />
    <glyph glyph-name="uni2776" unicode="&#x2776;" horiz-adv-x="1720" 
d="M860 -10q-152 0 -287 53t-234.5 147.5t-157.5 233t-58 301.5q0 159 58 296.5t157 233.5t234.5 150.5t287.5 54.5t286.5 -52t234.5 -145t158 -232.5t58 -305.5q0 -167 -58 -306.5t-158 -232.5t-234.5 -144.5t-286.5 -51.5zM612 610v-215h516v215h-124v484l-392 -17v-217
h131v-250h-131z" />
    <glyph glyph-name="uni2777" unicode="&#x2777;" horiz-adv-x="1720" 
d="M860 -10q-152 0 -287 53t-234.5 147.5t-157.5 233t-58 301.5q0 159 58 296.5t157 233.5t234.5 150.5t287.5 54.5t286.5 -52t234.5 -145t158 -232.5t58 -305.5q0 -167 -58 -306.5t-158 -232.5t-234.5 -144.5t-286.5 -51.5zM590 571v-174h555v215h-199q189 120 189 262
q0 96 -70.5 158t-210.5 62q-126 0 -274 -56l69 -194q9 3 38 12t46 13.5t42.5 9t45.5 4.5q27 0 40 -4.5t13 -20.5q0 -23 -47 -65z" />
    <glyph glyph-name="uni2778" unicode="&#x2778;" horiz-adv-x="1720" 
d="M860 -10q-152 0 -287 53t-234.5 147.5t-157.5 233t-58 301.5q0 159 58 296.5t157 233.5t234.5 150.5t287.5 54.5t286.5 -52t234.5 -145t158 -232.5t58 -305.5q0 -167 -58 -306.5t-158 -232.5t-234.5 -144.5t-286.5 -51.5zM848 375q51 0 92.5 5.5t82 20t68 38.5t44 63.5
t16.5 91.5q0 54 -33 97t-71 57q75 38 75 149q0 66 -40 110t-97 61t-127 17q-121 0 -250 -51l66 -194q91 26 155 26q48 0 48 -30q0 -20 -40.5 -32.5t-113.5 -12.5v-107q168 0 168 -49q0 -15 -18 -28t-60 -13q-25 0 -48.5 2t-38 4t-39.5 6t-38 6l-47 -209q122 -28 246 -28z
" />
    <glyph glyph-name="uni2779" unicode="&#x2779;" horiz-adv-x="1720" 
d="M860 -10q-152 0 -287 53t-234.5 147.5t-157.5 233t-58 301.5q0 159 58 296.5t157 233.5t234.5 150.5t287.5 54.5t286.5 -52t234.5 -145t158 -232.5t58 -305.5q0 -167 -58 -306.5t-158 -232.5t-234.5 -144.5t-286.5 -51.5zM801 496v-101h256v101h69v211h-69v372h-318
l-223 -397v-186h285zM801 707h-105l105 192v-192z" />
    <glyph glyph-name="uni277A" unicode="&#x277a;" horiz-adv-x="1720" 
d="M860 -10q-152 0 -287 53t-234.5 147.5t-157.5 233t-58 301.5q0 159 58 296.5t157 233.5t234.5 150.5t287.5 54.5t286.5 -52t234.5 -145t158 -232.5t58 -305.5q0 -167 -58 -306.5t-158 -232.5t-234.5 -144.5t-286.5 -51.5zM846 375q132 0 217.5 60.5t85.5 176.5
q0 105 -65 152t-197 47h-19v49h244v213h-485v-399q92 8 125 8t52.5 -1.5t42 -6t33.5 -16t11 -29.5q0 -13 -16 -24t-50 -11q-94 0 -184 20l-53 -208q136 -31 258 -31z" />
    <glyph glyph-name="uni277B" unicode="&#x277b;" horiz-adv-x="1720" 
d="M860 -10q-152 0 -287 53t-234.5 147.5t-157.5 233t-58 301.5q0 159 58 296.5t157 233.5t234.5 150.5t287.5 54.5t286.5 -52t234.5 -145t158 -232.5t58 -305.5q0 -167 -58 -306.5t-158 -232.5t-234.5 -144.5t-286.5 -51.5zM838 375q134 0 213 62t79 181q0 90 -66 148.5
t-159 58.5q-54 0 -119 -20q28 72 136 72q58 0 127 -27l49 201q-90 34 -199 34q-93 0 -163 -30t-112 -84.5t-62.5 -123.5t-20.5 -153q0 -319 297 -319zM842 561q-29 0 -40 21t-11 71q24 6 51 6q22 0 31.5 -11t9.5 -38q0 -49 -41 -49z" />
    <glyph glyph-name="uni277C" unicode="&#x277c;" horiz-adv-x="1720" 
d="M860 -10q-152 0 -287 53t-234.5 147.5t-157.5 233t-58 301.5q0 159 58 296.5t157 233.5t234.5 150.5t287.5 54.5t286.5 -52t234.5 -145t158 -232.5t58 -305.5q0 -167 -58 -306.5t-158 -232.5t-234.5 -144.5t-286.5 -51.5zM829 862l-202 -465h284l230 525v159h-547v-219
h235z" />
    <glyph glyph-name="uni277D" unicode="&#x277d;" horiz-adv-x="1720" 
d="M860 -10q-152 0 -287 53t-234.5 147.5t-157.5 233t-58 301.5q0 159 58 296.5t157 233.5t234.5 150.5t287.5 54.5t286.5 -52t234.5 -145t158 -232.5t58 -305.5q0 -167 -58 -306.5t-158 -232.5t-234.5 -144.5t-286.5 -51.5zM854 375q301 0 301 213q0 50 -32.5 91t-82.5 69
q48 29 73.5 64t25.5 85q0 90 -82 139t-199 49q-76 0 -137 -17.5t-103.5 -62.5t-42.5 -112q0 -49 24.5 -80.5t68.5 -62.5q-47 -26 -79 -70t-32 -98q0 -207 297 -207zM799 885q0 16 16.5 29.5t40.5 13.5q20 0 38.5 -14.5t18.5 -28.5q0 -12 -21.5 -32.5t-37.5 -27.5
q-15 8 -35 27.5t-20 32.5zM924 588q0 -20 -20.5 -31.5t-47.5 -11.5q-22 0 -43.5 12.5t-21.5 30.5q0 17 24 36.5t43 28.5q19 -10 42.5 -29.5t23.5 -35.5z" />
    <glyph glyph-name="uni277E" unicode="&#x277e;" horiz-adv-x="1720" 
d="M860 -10q-152 0 -287 53t-234.5 147.5t-157.5 233t-58 301.5q0 159 58 296.5t157 233.5t234.5 150.5t287.5 54.5t286.5 -52t234.5 -145t158 -232.5t58 -305.5q0 -167 -58 -306.5t-158 -232.5t-234.5 -144.5t-286.5 -51.5zM879 1085q-134 0 -213.5 -62t-79.5 -181
q0 -101 62.5 -147t162.5 -46q51 0 119 21q-25 -86 -135 -86q-81 0 -148 26l-49 -200q92 -35 219 -35q93 0 163 30t112 84.5t63 123.5t21 153q0 319 -297 319zM874 899q29 0 40.5 -20t11.5 -70q-24 -6 -52 -6q-22 0 -31 10t-9 37q0 49 40 49z" />
    <glyph glyph-name="uni301A" unicode="&#x301a;" horiz-adv-x="1298" 
d="M1274 -451h-1178v1995h1178v-366h-154v-1262h154v-367zM549 1178v-1262h160v1262h-160z" />
    <glyph glyph-name="uni301B" unicode="&#x301b;" horiz-adv-x="1298" 
d="M750 -84v1262h-160v-1262h160zM1202 -451h-1177v367h153v1262h-153v366h1177v-1995z" />
    <glyph glyph-name="apple" unicode="&#xf8ff;" horiz-adv-x="2562" 
d="M993 713v59h-39v-59h39zM1116 713v59h-39v-59h39zM1485 754v18h-39v-18h39zM1608 713v59h-39v-59h39zM1853 754v18h-38v-18h38zM279 731h-21v-20h-22v20h-21v23h21v20h22v-20h21v-23zM360 692h-22v21h22v-21zM422 731h-21v-20h-22v20h-21v23h21v20h22v-20h21v-23z
M360 772h-22v23h22v-23zM442 692h-22v21h22v-21zM442 772h-22v23h22v-23zM545 692h-21v-20h-22v20h20v21h23v-21zM606 731h-20v-20h-23v20h-20v23h20v20h23v-20h20v-23zM545 772h-23v21h-20v22h22v-20h21v-23zM647 672h-22v20h-21v21h23v-21h20v-20zM647 793h-20v-21h-23v23
h21v20h22v-22zM770 692h-43v19h-20v61h-21v23h21v20h22v-20h41v-23h-41v-59h41v-21zM893 711h-21v-19h-20v-20h-21v-21h-22v23h20v37h-20v84h22v-82h39v82h23v-84zM1016 711h-21v-19h-41v-41h-22v144h63v-21h21v-63zM1139 711h-21v-19h-43v19h-20v63h20v21h43v-21h21v-63z
M1262 692h-43v19h-21v61h-20v23h20v20h23v-20h41v-23h-41v-59h41v-21zM1384 692h-22v80h-39v-80h-23v144h23v-41h41v-21h20v-82zM1507 692h-63v19h-21v63h21v21h43v-21h20v-43h-61v-18h61v-21zM1630 651h-22v41h-41v19h-21v63h21v21h63v-144zM1753 692h-63v19h-21v84h23v-82
h39v82h22v-103zM1876 692h-64v19h-20v63h20v21h43v-21h21v-43h-61v-18h61v-21zM1958 692h-21v-20h-22v20h20v21h23v-21zM2019 731h-20v-20h-23v20h-20v23h20v20h23v-20h20v-23zM1958 772h-23v21h-20v22h22v-20h21v-23zM2060 672h-22v20h-21v21h23v-21h20v-20zM2060 793h-20
v-21h-23v23h21v20h22v-22zM2142 692h-22v21h22v-21zM2204 731h-21v-20h-22v20h-21v23h21v20h22v-20h21v-23zM2142 772h-22v23h22v-23zM2224 692h-22v21h22v-21zM2224 772h-22v23h22v-23zM2347 731h-20v-20h-23v20h-20v23h20v20h23v-20h20v-23z" />
    <glyph glyph-name="s_t" unicode="&#xfb06;" horiz-adv-x="2043" 
d="M1995 358l35 -342q-159 -49 -316 -49q-55 0 -90 1t-85 5t-82 11.5t-72 21.5t-65.5 34.5t-52 51t-41.5 70t-24.5 92.5t-9.5 117v424q-491 22 -563 22q-133 0 -133 -51q0 -20 24 -33t64 -18.5t90.5 -15t103 -19.5t103 -34t90.5 -57.5t64 -91t24 -132.5q0 -89 -34.5 -159.5
t-89 -114.5t-129 -72.5t-148 -40t-152.5 -11.5q-114 0 -229.5 11.5t-174.5 23.5l-59 12l37 316q250 -43 354 -43q168 0 168 55q0 20 -31 32.5t-81 20.5t-110 18t-120.5 33.5t-110.5 59t-81 101t-31 153.5q0 130 67 220t176 131.5t250 41.5q87 0 205 -6t271 -16.5t190 -12.5
l29 230h422v-230h344v-323h-344v-377q0 -47 25.5 -63.5t78.5 -16.5q35 0 96 5t105 10z" />
    <glyph glyph-name="CR" horiz-adv-x="1024" 
 />
    <glyph glyph-name="Iacute_Jacute" horiz-adv-x="1366" 
d="M557 0h-461v1446h461v-1446zM1270 1446v-1032q0 -98 -20.5 -171t-56 -119t-91 -74t-119.5 -39t-147 -11h-183v358h52q102 0 102 95v993h463zM762 1903l-279 -377h-344l150 377h473zM1458 1903l-278 -377h-344l149 377h473z" />
    <glyph glyph-name="A.alt1" horiz-adv-x="1660" 
d="M1135 659l26 437h-8l-264 -437h246zM1565 0h-437v354h-436l-237 -354h-486l1008 1446h588v-1446z" />
    <glyph glyph-name="A.alt2" horiz-adv-x="1660" 
d="M487 1096l27 -437h246l-264 437h-9zM520 0h-424v1446h588l1008 -1446h-498l-238 354h-436v-354z" />
    <glyph glyph-name="V.alt1" horiz-adv-x="1669" 
d="M981 0l-1014 1446h508l688 -1051h6l-57 1051h459v-1446h-590z" />
    <glyph glyph-name="V.alt2" horiz-adv-x="1669" 
d="M1700 1446l-1014 -1446h-590v1446h459l-57 -1051h6l688 1051h508z" />
    <glyph glyph-name="W.alt1" horiz-adv-x="2238" 
d="M2269 1446l-604 -1446h-635l-2 791h-6l-326 -791h-600v1446h471l-59 -1000h6l422 1000h453l14 -1000h6l373 1000h487z" />
    <glyph glyph-name="W.alt2" horiz-adv-x="2236" 
d="M2140 1446l-43 -1446h-604l-297 791h-6l-31 -791h-631l-559 1446h512l330 -1000h6l33 1000h453l403 -1000h6l-37 1000h465z" />
    <glyph glyph-name="Agrave.alt1" horiz-adv-x="1660" 
d="M1114 1526l-278 377h473l149 -377h-344zM1135 659l26 437h-8l-264 -437h246zM1565 0h-437v354h-436l-237 -354h-486l1008 1446h588v-1446z" />
    <glyph glyph-name="Agrave.alt2" horiz-adv-x="1660" 
d="M487 1096l27 -437h246l-264 437h-9zM520 0h-424v1446h588l1008 -1446h-498l-238 354h-436v-354zM199 1526l-279 377h473l150 -377h-344z" />
    <glyph glyph-name="Aacute.alt1" horiz-adv-x="1660" 
d="M1720 1903l-278 -377h-344l149 377h473zM1135 659l26 437h-8l-264 -437h246zM1565 0h-437v354h-436l-237 -354h-486l1008 1446h588v-1446z" />
    <glyph glyph-name="Aacute.alt2" horiz-adv-x="1660" 
d="M487 1096l27 -437h246l-264 437h-9zM520 0h-424v1446h588l1008 -1446h-498l-238 354h-436v-354zM840 1903l-279 -377h-344l150 377h473z" />
    <glyph glyph-name="Acircumflex.alt1" horiz-adv-x="1660" 
d="M737 1526l248 377h500l252 -377h-412l-88 180l-92 -180h-408zM1135 659l26 437h-8l-264 -437h246zM1565 0h-437v354h-436l-237 -354h-486l1008 1446h588v-1446z" />
    <glyph glyph-name="Acircumflex.alt2" horiz-adv-x="1660" 
d="M487 1096l27 -437h246l-264 437h-9zM520 0h-424v1446h588l1008 -1446h-498l-238 354h-436v-354zM-80 1526l248 377h500l252 -377h-412l-88 180l-92 -180h-408z" />
    <glyph glyph-name="Atilde.alt1" horiz-adv-x="1660" 
d="M1565 0h-437v354h-436l-237 -354h-486l1008 1446h588v-1446zM1597 1933l146 -211l-15 -16q-14 -17 -24.5 -28t-33.5 -32t-43.5 -36t-51 -33t-60 -29.5t-66.5 -19.5t-75 -8q-46 0 -88.5 14.5t-69 31.5t-62.5 31.5t-71 14.5q-91 0 -176 -74l-151 215q168 205 372 205
q47 0 89 -14.5t68 -31.5t62.5 -31.5t73.5 -14.5q31 0 60 8t44.5 16t40.5 23.5t31 19.5zM1135 659l26 437h-8l-264 -437h246z" />
    <glyph glyph-name="Atilde.alt2" horiz-adv-x="1660" 
d="M520 0h-424v1446h588l1008 -1446h-498l-238 354h-436v-354zM745 1933l146 -211l-15 -16q-14 -17 -24.5 -28t-33.5 -32t-43.5 -36t-51 -33t-60 -29.5t-66.5 -19.5t-75 -8q-46 0 -88.5 14.5t-69 31.5t-62.5 31.5t-71 14.5q-91 0 -176 -74l-151 215q168 205 372 205
q47 0 89 -14.5t68 -31.5t62.5 -31.5t73.5 -14.5q31 0 60 8t44.5 16t40.5 23.5t31 19.5zM487 1096l27 -437h246l-264 437h-9z" />
    <glyph glyph-name="Adieresis.alt1" horiz-adv-x="1660" 
d="M1751 1528h-408v370h408v-370zM1159 1528h-405v370h405v-370zM1135 659l26 437h-8l-264 -437h246zM1565 0h-437v354h-436l-237 -354h-486l1008 1446h588v-1446z" />
    <glyph glyph-name="Adieresis.alt2" horiz-adv-x="1660" 
d="M487 1096l27 -437h246l-264 437h-9zM520 0h-424v1446h588l1008 -1446h-498l-238 354h-436v-354zM903 1528h-407v370h407v-370zM311 1528h-405v370h405v-370z" />
    <glyph glyph-name="Aring.alt1" horiz-adv-x="1660" 
d="M1143 659l43 494h-8l-281 -494h246zM1374 1610q0 63 -84 63q-88 0 -88 -61q0 -36 20 -51t62 -15q44 0 67 14t23 50zM1665 1610q0 -122 -96 -193l-4 -1417h-447l12 354h-436l-237 -354h-488l994 1425q-54 75 -54 183q0 288 387 288q171 0 270 -68t99 -218z" />
    <glyph glyph-name="Aring.alt2" horiz-adv-x="1660" 
d="M475 1153l43 -494h246l-281 494h-8zM287 1610q0 -36 23 -50t67 -14q42 0 62 15t20 51q0 61 -88 61q-84 0 -84 -63zM-4 1610q0 150 99 218t270 68q387 0 387 -288q0 -108 -54 -183l994 -1425h-488l-237 354h-437l13 -354h-445l-6 1417q-96 71 -96 193z" />
    <glyph glyph-name="Amacron.alt1" horiz-adv-x="1660" 
d="M1653 1526h-752v377h752v-377zM1135 659l26 437h-8l-264 -437h246zM1565 0h-437v354h-436l-237 -354h-486l1008 1446h588v-1446z" />
    <glyph glyph-name="Amacron.alt2" horiz-adv-x="1660" 
d="M487 1096l27 -437h246l-264 437h-9zM520 0h-424v1446h588l1008 -1446h-498l-238 354h-436v-354zM770 1526h-752v377h752v-377z" />
    <glyph glyph-name="Abreve.alt1" horiz-adv-x="1660" 
d="M1565 0h-437v354h-436l-237 -354h-486l1008 1446h588v-1446zM1565 1976l145 -227q-17 -24 -34 -45t-59.5 -57.5t-89 -62t-119.5 -45t-155 -19.5t-155.5 19.5t-121 45.5t-88.5 61.5t-60 58.5t-33 46l149 227q26 -24 58.5 -45.5t102 -44t148.5 -22.5q115 0 195 35t117 75z
M1135 659l26 437h-8l-264 -437h246z" />
    <glyph glyph-name="Abreve.alt2" horiz-adv-x="1660" 
d="M520 0h-424v1446h588l1008 -1446h-498l-238 354h-436v-354zM719 1976l145 -227q-160 -229 -456 -229q-82 0 -156 19.5t-121.5 45.5t-88.5 61.5t-60 58.5t-33 46l149 227q25 -24 58.5 -45.5t103 -44t148.5 -22.5q115 0 194 35t117 75zM487 1096l27 -437h246l-264 437h-9z
" />
    <glyph glyph-name="Aogonek.alt1" horiz-adv-x="1660" 
d="M1497 -225l66 -269q-143 -75 -324 -75q-143 0 -231 72t-88 221q0 148 210 276h-2v354h-436l-237 -354h-486l1008 1446h588v-1446q-58 -26 -100.5 -46.5t-88.5 -47.5t-71 -53t-25 -48q0 -63 84 -63q64 0 133 33zM1135 659l26 437h-8l-264 -437h246z" />
    <glyph glyph-name="Aogonek.alt2" horiz-adv-x="1660" 
d="M1622 -225l66 -269q-143 -75 -324 -75q-143 0 -231.5 72t-88.5 221q0 155 150 276l-238 354h-436v-354h-424v1446h588l1006 -1446q-58 -26 -100.5 -46.5t-88.5 -47.5t-71 -53t-25 -48q0 -63 84 -63q64 0 133 33zM487 1096l27 -437h246l-264 437h-9z" />
    <glyph glyph-name="Wcircumflex.alt1" horiz-adv-x="2238" 
d="M666 1526l247 377h500l252 -377h-412l-88 180l-92 -180h-407zM2269 1446l-604 -1446h-635l-2 791h-6l-326 -791h-600v1446h471l-59 -1000h6l422 1000h453l14 -1000h6l373 1000h487z" />
    <glyph glyph-name="Wcircumflex.alt2" horiz-adv-x="2236" 
d="M575 1526l248 377h500l252 -377h-412l-88 180l-92 -180h-408zM2140 1446l-43 -1446h-604l-297 791h-6l-31 -791h-631l-559 1446h512l330 -1000h6l33 1000h453l403 -1000h6l-37 1000h465z" />
    <glyph glyph-name="Wgrave.alt1" horiz-adv-x="2238" 
d="M985 1526l-278 377h473l149 -377h-344zM2269 1446l-604 -1446h-635l-2 791h-6l-326 -791h-600v1446h471l-59 -1000h6l422 1000h453l14 -1000h6l373 1000h487z" />
    <glyph glyph-name="Wgrave.alt2" horiz-adv-x="2236" 
d="M891 1526l-279 377h473l150 -377h-344zM2140 1446l-43 -1446h-604l-297 791h-6l-31 -791h-631l-559 1446h512l330 -1000h6l33 1000h453l403 -1000h6l-37 1000h465z" />
    <glyph glyph-name="Wacute.alt1" horiz-adv-x="2238" 
d="M1624 1903l-278 -377h-345l150 377h473zM2269 1446l-604 -1446h-635l-2 791h-6l-326 -791h-600v1446h471l-59 -1000h6l422 1000h453l14 -1000h6l373 1000h487z" />
    <glyph glyph-name="Wacute.alt2" horiz-adv-x="2236" 
d="M1530 1903l-279 -377h-344l150 377h473zM2140 1446l-43 -1446h-604l-297 791h-6l-31 -791h-631l-559 1446h512l330 -1000h6l33 1000h453l403 -1000h6l-37 1000h465z" />
    <glyph glyph-name="Wdieresis.alt1" horiz-adv-x="2238" 
d="M1661 1528h-408v370h408v-370zM1069 1528h-405v370h405v-370zM2269 1446l-604 -1446h-635l-2 791h-6l-326 -791h-600v1446h471l-59 -1000h6l422 1000h453l14 -1000h6l373 1000h487z" />
    <glyph glyph-name="Wdieresis.alt2" horiz-adv-x="2236" 
d="M1599 1528h-407v370h407v-370zM1008 1528h-406v370h406v-370zM2140 1446l-43 -1446h-604l-297 791h-6l-31 -791h-631l-559 1446h512l330 -1000h6l33 1000h453l403 -1000h6l-37 1000h465z" />
    <glyph glyph-name="iacute_jacute" horiz-adv-x="1224" 
d="M735 1599l-286 -391h-345l158 391h473zM539 0h-453v1118h453v-1118zM1141 1118v-1089q0 -264 -119 -372t-381 -108q-74 0 -156 15t-127 30l-45 15l58 301q125 -12 186 -12q73 0 102 29.5t29 103.5v1087h453zM1313 1599l-287 -391h-344l158 391h473z" />
    <glyph glyph-name="questiondown.cap" horiz-adv-x="808" 
d="M252 1446h442v-348h-442v348zM18 428q0 67 33.5 136.5t81 121t95 93.5t80.5 63l34 22l-45 109l383 57q7 -11 18 -30t29 -72.5t18 -100.5q0 -45 -18.5 -85t-46 -67t-60 -54t-60 -48t-46 -47t-18.5 -53q0 -48 85.5 -87t198.5 -48l-80 -371q-80 5 -143.5 12t-137 22
t-129 36.5t-109 56.5t-87.5 80.5t-55 110t-21 143.5z" />
    <glyph glyph-name="exclamdown.cap" horiz-adv-x="651" 
d="M104 1446h443v-348h-443v348zM96 0v510l33 475h391l35 -475v-510h-459z" />
    <glyph glyph-name="hyphen.cap" horiz-adv-x="716" 
d="M664 535h-611v356h611v-356z" />
    <glyph glyph-name="endash.cap" horiz-adv-x="1024" 
d="M963 535h-902v356h902v-356z" />
    <glyph glyph-name="emdash.cap" horiz-adv-x="2048" 
d="M1987 535h-1926v356h1926v-356z" />
    <glyph glyph-name="parenleft.cap" horiz-adv-x="884" 
d="M606 1745l287 -289q-8 -5 -23 -15.5t-57 -47t-80.5 -77t-85 -105t-80.5 -133t-57 -159t-23 -184.5q0 -93 22.5 -184t58.5 -162.5t79.5 -136t87 -110.5t79.5 -80t58 -51l23 -17l-285 -291q-12 7 -33 20.5t-81 62.5t-114.5 104.5t-121.5 147t-115 189.5t-81 232t-33 276
q0 111 19.5 216t53 190t76.5 162.5t90.5 137t95.5 110.5t91 86t76.5 60t52.5 37z" />
    <glyph glyph-name="parenright.cap" horiz-adv-x="884" 
d="M854 717q0 -111 -19.5 -216t-53 -190t-76.5 -162.5t-90.5 -137t-95.5 -110.5t-91 -86t-76.5 -60t-53.5 -37l-19 -11l-287 289q8 5 23 15.5t57 47t80 77t85 105t80.5 133t56.5 159t23 184.5q0 93 -22.5 184t-58.5 162.5t-79.5 136t-86.5 110.5t-79 80t-59 51l-22 17
l284 291q12 -7 33 -20.5t81 -62.5t115 -104.5t122 -147t115 -189.5t81 -232t33 -276z" />
    <glyph glyph-name="bracketleft.cap" horiz-adv-x="727" 
d="M702 -276h-606v1994h606v-366h-153v-1262h153v-366z" />
    <glyph glyph-name="bracketright.cap" horiz-adv-x="727" 
d="M631 -276h-606v366h153v1262h-153v366h606v-1994z" />
    <glyph glyph-name="braceleft.cap" horiz-adv-x="788" 
d="M770 -281h-168q-90 0 -163 10t-140.5 36t-112.5 68t-69.5 110t-20.5 157q0 34 6 70l29 248q7 59 -37.5 90t-103.5 31v358q58 0 103 31t38 90l-29 248q-6 36 -6 69q-4 89 20.5 157t69.5 110t112.5 68t140.5 36t163 10h168v-377h-82q-143 0 -129 -98l49 -305q0 -3 1 -16
t1 -15q3 -40 -8 -72.5t-31 -52.5t-39 -33t-38 -23q-5 -2 -7 -3v-6q18 -9 30 -15.5t33 -23.5t33 -35t20.5 -47.5t6.5 -63.5q0 -2 -1 -14.5t-1 -15.5l-49 -305q-7 -50 27 -74.5t102 -24.5h82v-377z" />
    <glyph glyph-name="braceright.cap" horiz-adv-x="788" 
d="M799 897v-358q-58 0 -103.5 -31t-38.5 -90l29 -248q6 -36 6 -70q4 -89 -20.5 -157t-69.5 -110t-112.5 -68t-140.5 -36t-163 -10h-168v377h82q68 0 102 24.5t27 74.5l-49 305q0 3 -1 15.5t-1 14.5q-2 25 2.5 47.5t10 37.5t20 31.5t20.5 23.5t26 19.5t22.5 14t21.5 11.5v6
q-24 12 -39 21.5t-39.5 31.5t-36 55.5t-8.5 75.5q0 2 1 15t1 16l49 305q14 98 -129 98h-82v377h168q90 0 163 -10t140.5 -36t112.5 -68t69.5 -110t20.5 -157q0 -33 -6 -69l-29 -248q-7 -59 38 -90t104 -31z" />
    <glyph glyph-name="uni301A.cap" horiz-adv-x="1298" 
d="M1274 -276h-1178v1996h1178v-366h-154v-1264h154v-366zM549 1354v-1264h160v1264h-160z" />
    <glyph glyph-name="uni301B.cap" horiz-adv-x="1298" 
d="M750 90v1262h-160v-1262h160zM1202 -276h-1177v366h153v1262h-153v366h1177v-1994z" />
    <glyph glyph-name="dblparenleft" horiz-adv-x="1443" 
d="M606 1587l223 -225q-175 -157 -258.5 -358t-83.5 -426q0 -224 95 -441t252 -358l-224 -234q-166 106 -294 258.5t-206.5 355t-78.5 419.5q0 147 34.5 283.5t90 243t132 201t154.5 161t164 120.5zM1165 1587l287 -289q-182 -123 -293.5 -316.5t-111.5 -403.5
q0 -215 115 -412t292 -330l-285 -291q-166 106 -294 258.5t-206.5 355t-78.5 419.5q0 147 34.5 283.5t90 243t132 201t154.5 161t164 120.5z" />
    <glyph glyph-name="dblparenleft.cap" horiz-adv-x="1443" 
d="M606 1745l223 -225q-175 -157 -258.5 -358.5t-83.5 -426.5q0 -224 95 -440.5t252 -357.5l-224 -234q-123 79 -227.5 186.5t-183.5 238t-123.5 287t-44.5 320.5q0 147 34.5 283.5t90 243t132 201.5t154.5 162t164 120zM1165 1745l287 -289q-181 -123 -293 -316.5
t-112 -404.5q0 -215 115 -411.5t292 -329.5l-285 -291q-123 79 -227.5 186.5t-183.5 238t-123.5 287t-44.5 320.5q0 147 34.5 283.5t90 243t132 201.5t154.5 162t164 120z" />
    <glyph glyph-name="dblparenright" horiz-adv-x="1443" 
d="M-8 1298l287 289q86 -54 164 -120.5t154.5 -161t132 -201t90 -243t34.5 -283.5q0 -164 -44.5 -321t-124 -287.5t-184 -238t-227.5 -186.5l-284 291q177 133 292 330t115 412q0 210 -111.5 403.5t-293.5 316.5zM614 1362l224 225q86 -54 164 -120.5t154.5 -161t132 -201
t90 -243t34.5 -283.5q0 -217 -78.5 -419.5t-206.5 -355t-294 -258.5l-224 234q156 141 251 358t95 441q0 225 -83.5 426t-258.5 358z" />
    <glyph glyph-name="dblparenright.cap" horiz-adv-x="1443" 
d="M-8 1456l287 289q86 -53 164 -120t154.5 -162t132 -201.5t90 -243t34.5 -283.5q0 -164 -44.5 -320.5t-124 -287t-184 -238t-227.5 -186.5l-284 291q177 133 292 329.5t115 411.5q0 211 -112 404.5t-293 316.5zM614 1520l224 225q86 -53 164 -120t154.5 -162t132 -201.5
t90 -243t34.5 -283.5q0 -164 -44.5 -320.5t-123.5 -287t-183.5 -238t-227.5 -186.5l-224 234q156 141 251 357.5t95 440.5q0 225 -83.5 426.5t-258.5 358.5z" />
    <glyph glyph-name="guilsinglright.cap" horiz-adv-x="616" 
d="M616 721l-286 -475l-328 119l205 356l-207 362l330 113z" />
    <glyph glyph-name="guilsinglleft.cap" horiz-adv-x="616" 
d="M616 1083l-206 -362l204 -356l-327 -119l-287 475l287 475z" />
    <glyph glyph-name="guillemotleft.cap" horiz-adv-x="1175" 
d="M616 1083l-206 -362l204 -356l-327 -119l-287 475l287 475zM1176 1083l-207 -362l205 -356l-328 -119l-287 475l287 475z" />
    <glyph glyph-name="guillemotright.cap" horiz-adv-x="1175" 
d="M0 1083l330 113l286 -475l-286 -475l-328 119l205 356zM559 1083l330 113l287 -475l-287 -475l-328 119l205 356z" />
    <glyph glyph-name="aogonek_j" horiz-adv-x="1910" 
d="M700 295v127l-127 -4q-22 -1 -35 -2t-33.5 -6t-31.5 -12.5t-20 -23t-9 -36.5q0 -36 17 -52t53 -16q94 0 186 25zM1825 1272h-451v325h451v-325zM1825 1118v-1024q0 -151 -41.5 -257.5t-125 -170.5t-200.5 -93.5t-278 -29.5q-265 0 -375.5 58t-110.5 211q0 62 46.5 123
t109.5 88q-58 37 -70 75q-24 -18 -52 -36t-75 -42t-105.5 -38.5t-117.5 -14.5q-195 0 -293 88t-98 269q0 64 18 115t46 85t73.5 58.5t89.5 38t105 21t109.5 9.5t113.5 2h106q0 48 -3 70.5t-17.5 43t-43.5 26.5t-81 6q-83 0 -164 -14t-158 -36l-77 -22l-64 313q4 2 13 5
q280 108 499 108q69 0 121 -3t111.5 -12.5t101.5 -26t83.5 -46t67 -70.5t41 -101t15.5 -136v-344q0 -49 25 -64.5t77 -15.5l-16 -344q-110 -25 -139 -44q-25 -16 -25 -38q0 -28 28 -38.5t85 -10.5q73 0 132.5 47.5t59.5 124.5v1087h453z" />
    <glyph glyph-name="a_a" horiz-adv-x="2516" 
d="M1931 295v127l-127 -4q-22 -1 -35 -2t-33.5 -6t-31.5 -12.5t-20 -23t-9 -36.5q0 -36 17 -52t53 -16q94 0 186 25zM700 295v127l-127 -4q-22 -1 -35 -2t-33.5 -6t-31.5 -12.5t-20 -23t-9 -36.5q0 -36 17 -52t53 -16q94 0 186 25zM2478 334l-16 -344q-91 -23 -154 -23
q-123 0 -202 41t-95 90q-24 -18 -52 -36t-75 -42t-105.5 -38.5t-117.5 -14.5q-215 0 -322 123q-48 -40 -139.5 -81.5t-165.5 -41.5q-95 0 -167 42t-87 89q-24 -18 -52 -36t-75 -42t-105.5 -38.5t-117.5 -14.5q-195 0 -293 88t-98 269q0 64 18 115t46 85t73.5 58.5t89.5 38
t105 21t109.5 9.5t113.5 2h106q0 48 -3 70.5t-17.5 43t-43.5 26.5t-81 6q-83 0 -164 -14t-158 -36l-77 -22l-64 313q4 2 13 5q280 108 499 108q69 0 121 -3t111.5 -12.5t101.5 -26t83.5 -46t67 -70.5t41 -101t15.5 -136v-365q0 -41 30 -59t95 -21v11q0 64 18 115t46 85
t73.5 58.5t89.5 38t105 21t109.5 9.5t113.5 2h106q0 48 -3 70.5t-17.5 43t-43.5 26.5t-81 6q-64 0 -134 -10t-114.5 -21t-92.5 -25t-59 -16l-63 313q4 2 13 5q280 108 499 108q69 0 121 -3t111.5 -12.5t101.5 -26t83.5 -46t67 -70.5t41 -101t15.5 -136v-344q0 -49 25 -64.5
t77 -15.5z" />
    <glyph glyph-name="a_a_s" horiz-adv-x="3575" 
d="M1661 -33q-215 0 -322 123q-48 -40 -139.5 -81.5t-165.5 -41.5q-95 0 -167 42t-87 89q-24 -18 -52 -36t-75 -42t-105.5 -38.5t-117.5 -14.5q-195 0 -293 88t-98 269q0 64 18 115t46 85t73.5 58.5t89.5 38t105 21t109.5 9.5t113.5 2h106q0 48 -3 70.5t-17.5 43t-43.5 26.5
t-81 6q-83 0 -164 -14t-158 -36l-77 -22l-64 313q4 2 13 5q280 108 499 108q69 0 121 -3t111.5 -12.5t101.5 -26t83.5 -46t67 -70.5t41 -101t15.5 -136v-365q0 -41 30 -59t95 -21v11q0 64 18 115t46 85t73.5 58.5t89.5 38t105 21t109.5 9.5t113.5 2h106q0 48 -3 70.5
t-17.5 43t-43.5 26.5t-81 6q-64 0 -134 -10t-114.5 -21t-92.5 -25t-59 -16l-63 313q4 2 13 5q280 108 499 108q69 0 121 -3t111.5 -12.5t101.5 -26t83.5 -46t67 -70.5t41 -101t15.5 -136v-82q0 -92 30.5 -162.5t78 -112.5t113 -68.5t127 -36t128.5 -9.5q90 0 142.5 7
t69.5 18.5t17 29.5t-24.5 30.5t-64 19t-90.5 17.5t-103.5 23.5t-103.5 39t-90.5 63t-64 97t-24.5 138.5t30.5 142.5t81.5 108.5t119.5 74t143.5 44t155 14q119 0 230.5 -13.5t162.5 -27.5l52 -14l-47 -310q-213 48 -336 48q-133 0 -133 -50q0 -20 24 -33.5t64 -21
t90.5 -18.5t103 -23t103 -38t90.5 -60.5t64 -93t24 -133.5q0 -90 -39.5 -159.5t-106.5 -114t-163.5 -73t-202 -40t-231.5 -11.5q-109 0 -196 10t-141.5 23t-109.5 40.5t-82 46t-76 56.5q-97 -90 -220.5 -133t-309.5 -43zM1931 295v127l-127 -4q-22 -1 -35 -2t-33.5 -6
t-31.5 -12.5t-20 -23t-9 -36.5q0 -36 17 -52t53 -16q94 0 186 25zM700 295v127l-127 -4q-22 -1 -35 -2t-33.5 -6t-31.5 -12.5t-20 -23t-9 -36.5q0 -36 17 -52t53 -16q94 0 186 25z" />
    <glyph glyph-name="a_dotlessi" horiz-adv-x="1867" 
d="M1782 1118v-1087q-478 -64 -705 -64q-123 0 -202 41t-95 90q-24 -18 -52 -36t-75 -42t-105.5 -38.5t-117.5 -14.5q-195 0 -293 88t-98 269q0 64 18 115t46 85t73.5 58.5t89.5 38t105 21t109.5 9.5t113.5 2h106q0 48 -3 70.5t-17.5 43t-43.5 26.5t-81 6q-83 0 -164 -14
t-158 -36l-77 -22l-64 313q4 2 13 5q280 108 499 108q69 0 121 -3t111.5 -12.5t101.5 -26t83.5 -46t67 -70.5t41 -101t15.5 -136v-346q0 -60 28 -101t80 -41h76v848h453zM700 295v127l-127 -4q-22 -1 -35 -2t-33.5 -6t-31.5 -12.5t-20 -23t-9 -36.5q0 -36 17 -52t53 -16
q94 0 186 25z" />
    <glyph glyph-name="a_i" horiz-adv-x="1867" 
d="M1782 1118v-1087q-478 -64 -705 -64q-123 0 -202 41t-95 90q-24 -18 -52 -36t-75 -42t-105.5 -38.5t-117.5 -14.5q-195 0 -293 88t-98 269q0 64 18 115t46 85t73.5 58.5t89.5 38t105 21t109.5 9.5t113.5 2h106q0 48 -3 70.5t-17.5 43t-43.5 26.5t-81 6q-83 0 -164 -14
t-158 -36l-77 -22l-64 313q4 2 13 5q280 108 499 108q69 0 121 -3t111.5 -12.5t101.5 -26t83.5 -46t67 -70.5t41 -101t15.5 -136v-346q0 -60 28 -101t80 -41h76v848h453zM1782 1272h-451v325h451v-325zM700 295v127l-127 -4q-22 -1 -35 -2t-33.5 -6t-31.5 -12.5t-20 -23
t-9 -36.5q0 -36 17 -52t53 -16q94 0 186 25z" />
    <glyph glyph-name="a_iacute" horiz-adv-x="1867" 
d="M1782 1118v-1087q-478 -64 -705 -64q-123 0 -202 41t-95 90q-24 -18 -52 -36t-75 -42t-105.5 -38.5t-117.5 -14.5q-195 0 -293 88t-98 269q0 64 18 115t46 85t73.5 58.5t89.5 38t105 21t109.5 9.5t113.5 2h106q0 48 -3 70.5t-17.5 43t-43.5 26.5t-81 6q-83 0 -164 -14
t-158 -36l-77 -22l-64 313q4 2 13 5q280 108 499 108q69 0 121 -3t111.5 -12.5t101.5 -26t83.5 -46t67 -70.5t41 -101t15.5 -136v-346q0 -60 28 -101t80 -41h76v848h453zM1970 1597l-287 -391h-344l158 391h473zM700 295v127l-127 -4q-22 -1 -35 -2t-33.5 -6t-31.5 -12.5
t-20 -23t-9 -36.5q0 -36 17 -52t53 -16q94 0 186 25z" />
    <glyph glyph-name="a_ibreve" horiz-adv-x="1867" 
d="M1782 1118v-1087q-478 -64 -705 -64q-123 0 -202 41t-95 90q-24 -18 -52 -36t-75 -42t-105.5 -38.5t-117.5 -14.5q-195 0 -293 88t-98 269q0 64 18 115t46 85t73.5 58.5t89.5 38t105 21t109.5 9.5t113.5 2h106q0 48 -3 70.5t-17.5 43t-43.5 26.5t-81 6q-83 0 -164 -14
t-158 -36l-77 -22l-64 313q4 2 13 5q280 108 499 108q69 0 121 -3t111.5 -12.5t101.5 -26t83.5 -46t67 -70.5t41 -101t15.5 -136v-346q0 -60 28 -101t80 -41h76v848h453zM1872 1700l156 -238q-14 -22 -33.5 -47t-62.5 -63.5t-92.5 -67.5t-124 -50.5t-156.5 -21.5t-157 21
t-125 50.5t-92 67t-62.5 64t-32.5 47.5l157 240q141 -133 312 -133q106 0 188.5 43.5t124.5 87.5zM700 295v127l-127 -4q-22 -1 -35 -2t-33.5 -6t-31.5 -12.5t-20 -23t-9 -36.5q0 -36 17 -52t53 -16q94 0 186 25z" />
    <glyph glyph-name="a_icircumflex" horiz-adv-x="1867" 
d="M1782 1118v-1087q-478 -64 -705 -64q-123 0 -202 41t-95 90q-24 -18 -52 -36t-75 -42t-105.5 -38.5t-117.5 -14.5q-195 0 -293 88t-98 269q0 64 18 115t46 85t73.5 58.5t89.5 38t105 21t109.5 9.5t113.5 2h106q0 48 -3 70.5t-17.5 43t-43.5 26.5t-81 6q-83 0 -164 -14
t-158 -36l-77 -22l-64 313q4 2 13 5q280 108 499 108q69 0 121 -3t111.5 -12.5t101.5 -26t83.5 -46t67 -70.5t41 -101t15.5 -136v-346q0 -60 28 -101t80 -41h76v848h453zM1042 1206l256 391h500l260 -391h-411l-97 195l-100 -195h-408zM700 295v127l-127 -4q-22 -1 -35 -2
t-33.5 -6t-31.5 -12.5t-20 -23t-9 -36.5q0 -36 17 -52t53 -16q94 0 186 25z" />
    <glyph glyph-name="a_idieresis" horiz-adv-x="1867" 
d="M1782 1118v-1087q-478 -64 -705 -64q-123 0 -202 41t-95 90q-24 -18 -52 -36t-75 -42t-105.5 -38.5t-117.5 -14.5q-195 0 -293 88t-98 269q0 64 18 115t46 85t73.5 58.5t89.5 38t105 21t109.5 9.5t113.5 2h106q0 48 -3 70.5t-17.5 43t-43.5 26.5t-81 6q-83 0 -164 -14
t-158 -36l-77 -22l-64 313q4 2 13 5q280 108 499 108q69 0 121 -3t111.5 -12.5t101.5 -26t83.5 -46t67 -70.5t41 -101t15.5 -136v-346q0 -60 28 -101t80 -41h76v848h453zM2052 1227h-407v370h407v-370zM1460 1227h-405v370h405v-370zM700 295v127l-127 -4q-22 -1 -35 -2
t-33.5 -6t-31.5 -12.5t-20 -23t-9 -36.5q0 -36 17 -52t53 -16q94 0 186 25z" />
    <glyph glyph-name="a_igrave" horiz-adv-x="1867" 
d="M1782 1118v-1087q-478 -64 -705 -64q-123 0 -202 41t-95 90q-24 -18 -52 -36t-75 -42t-105.5 -38.5t-117.5 -14.5q-195 0 -293 88t-98 269q0 64 18 115t46 85t73.5 58.5t89.5 38t105 21t109.5 9.5t113.5 2h106q0 48 -3 70.5t-17.5 43t-43.5 26.5t-81 6q-83 0 -164 -14
t-158 -36l-77 -22l-64 313q4 2 13 5q280 108 499 108q69 0 121 -3t111.5 -12.5t101.5 -26t83.5 -46t67 -70.5t41 -101t15.5 -136v-346q0 -60 28 -101t80 -41h76v848h453zM1425 1206l-286 391h473l157 -391h-344zM700 295v127l-127 -4q-22 -1 -35 -2t-33.5 -6t-31.5 -12.5
t-20 -23t-9 -36.5q0 -36 17 -52t53 -16q94 0 186 25z" />
    <glyph glyph-name="a_imacron" horiz-adv-x="1867" 
d="M1782 1118v-1087q-478 -64 -705 -64q-123 0 -202 41t-95 90q-24 -18 -52 -36t-75 -42t-105.5 -38.5t-117.5 -14.5q-195 0 -293 88t-98 269q0 64 18 115t46 85t73.5 58.5t89.5 38t105 21t109.5 9.5t113.5 2h106q0 48 -3 70.5t-17.5 43t-43.5 26.5t-81 6q-83 0 -164 -14
t-158 -36l-77 -22l-64 313q4 2 13 5q280 108 499 108q69 0 121 -3t111.5 -12.5t101.5 -26t83.5 -46t67 -70.5t41 -101t15.5 -136v-346q0 -60 28 -101t80 -41h76v848h453zM1929 1221h-751v376h751v-376zM700 295v127l-127 -4q-22 -1 -35 -2t-33.5 -6t-31.5 -12.5t-20 -23
t-9 -36.5q0 -36 17 -52t53 -16q94 0 186 25z" />
    <glyph glyph-name="a_r" horiz-adv-x="2185" 
d="M1782 717v-670q-478 -80 -705 -80q-123 0 -202 41t-95 90q-24 -18 -52 -36t-75 -42t-105.5 -38.5t-117.5 -14.5q-195 0 -293 88t-98 269q0 64 18 115t46 85t73.5 58.5t89.5 38t105 21t109.5 9.5t113.5 2h106q0 48 -3 70.5t-17.5 43t-43.5 26.5t-81 6q-83 0 -164 -14
t-158 -36l-77 -22l-64 313q4 2 13 5q280 108 499 108q69 0 121 -3t111.5 -12.5t101.5 -26t83.5 -46t67 -70.5t41 -101t15.5 -136v-295q0 -60 28 -100.5t80 -40.5h76v796h453v-160q111 195 272 195q61 0 168 -31l-55 -391q-116 25 -182 25q-96 0 -203 -39zM700 295v127
l-127 -4q-22 -1 -35 -2t-33.5 -6t-31.5 -12.5t-20 -23t-9 -36.5q0 -36 17 -52t53 -16q94 0 186 25z" />
    <glyph glyph-name="a_r_y" horiz-adv-x="3297" 
d="M1782 696v-649q-478 -80 -705 -80q-123 0 -202 41t-95 90q-24 -18 -52 -36t-75 -42t-105.5 -38.5t-117.5 -14.5q-195 0 -293 88t-98 269q0 64 18 115t46 85t73.5 58.5t89.5 38t105 21t109.5 9.5t113.5 2h106q0 48 -3 70.5t-17.5 43t-43.5 26.5t-81 6q-83 0 -164 -14
t-158 -36l-77 -22l-64 313q4 2 13 5q280 108 499 108q69 0 121 -3t111.5 -12.5t101.5 -26t83.5 -46t67 -70.5t41 -101t15.5 -136v-295q0 -60 28 -100.5t80 -40.5h76v796h453v-160q91 160 272 160h363l202 -731h17l215 731h473l-600 -1569h-465l170 451h-74l-278 723
q-74 12 -88 12q-100 0 -207 -39zM700 295v127l-127 -4q-22 -1 -35 -2t-33.5 -6t-31.5 -12.5t-20 -23t-9 -36.5q0 -36 17 -52t53 -16q94 0 186 25z" />
    <glyph glyph-name="a_r_yacute" horiz-adv-x="3297" 
d="M3043 1597l-286 -391h-344l157 391h473zM1782 696v-649q-478 -80 -705 -80q-123 0 -202 41t-95 90q-24 -18 -52 -36t-75 -42t-105.5 -38.5t-117.5 -14.5q-195 0 -293 88t-98 269q0 64 18 115t46 85t73.5 58.5t89.5 38t105 21t109.5 9.5t113.5 2h106q0 48 -3 70.5
t-17.5 43t-43.5 26.5t-81 6q-83 0 -164 -14t-158 -36l-77 -22l-64 313q4 2 13 5q280 108 499 108q69 0 121 -3t111.5 -12.5t101.5 -26t83.5 -46t67 -70.5t41 -101t15.5 -136v-295q0 -60 28 -100.5t80 -40.5h76v796h453v-160q91 160 272 160h363l202 -731h17l215 731h473
l-600 -1569h-465l170 451h-74l-278 723q-74 12 -88 12q-100 0 -207 -39zM700 295v127l-127 -4q-22 -1 -35 -2t-33.5 -6t-31.5 -12.5t-20 -23t-9 -36.5q0 -36 17 -52t53 -16q94 0 186 25z" />
    <glyph glyph-name="a_racute" horiz-adv-x="2185" 
d="M2165 1597l-287 -391h-344l158 391h473zM1782 717v-670q-478 -80 -705 -80q-123 0 -202 41t-95 90q-24 -18 -52 -36t-75 -42t-105.5 -38.5t-117.5 -14.5q-195 0 -293 88t-98 269q0 64 18 115t46 85t73.5 58.5t89.5 38t105 21t109.5 9.5t113.5 2h106q0 48 -3 70.5
t-17.5 43t-43.5 26.5t-81 6q-83 0 -164 -14t-158 -36l-77 -22l-64 313q4 2 13 5q280 108 499 108q69 0 121 -3t111.5 -12.5t101.5 -26t83.5 -46t67 -70.5t41 -101t15.5 -136v-295q0 -60 28 -100.5t80 -40.5h76v796h453v-160q111 195 272 195q61 0 168 -31l-55 -391
q-116 25 -182 25q-96 0 -203 -39zM700 295v127l-127 -4q-22 -1 -35 -2t-33.5 -6t-31.5 -12.5t-20 -23t-9 -36.5q0 -36 17 -52t53 -16q94 0 186 25z" />
    <glyph glyph-name="a_rcaron" horiz-adv-x="2185" 
d="M1520 1206l-256 391h407l101 -194l96 194h411l-260 -391h-499zM1782 717v-670q-478 -80 -705 -80q-123 0 -202 41t-95 90q-24 -18 -52 -36t-75 -42t-105.5 -38.5t-117.5 -14.5q-195 0 -293 88t-98 269q0 64 18 115t46 85t73.5 58.5t89.5 38t105 21t109.5 9.5t113.5 2h106
q0 48 -3 70.5t-17.5 43t-43.5 26.5t-81 6q-83 0 -164 -14t-158 -36l-77 -22l-64 313q4 2 13 5q280 108 499 108q69 0 121 -3t111.5 -12.5t101.5 -26t83.5 -46t67 -70.5t41 -101t15.5 -136v-295q0 -60 28 -100.5t80 -40.5h76v796h453v-160q111 195 272 195q61 0 168 -31
l-55 -391q-116 25 -182 25q-96 0 -203 -39zM700 295v127l-127 -4q-22 -1 -35 -2t-33.5 -6t-31.5 -12.5t-20 -23t-9 -36.5q0 -36 17 -52t53 -16q94 0 186 25z" />
    <glyph glyph-name="a_rcommaaccent" horiz-adv-x="2185" 
d="M1782 717v-670q-478 -80 -705 -80q-123 0 -202 41t-95 90q-24 -18 -52 -36t-75 -42t-105.5 -38.5t-117.5 -14.5q-195 0 -293 88t-98 269q0 64 18 115t46 85t73.5 58.5t89.5 38t105 21t109.5 9.5t113.5 2h106q0 48 -3 70.5t-17.5 43t-43.5 26.5t-81 6q-83 0 -164 -14
t-158 -36l-77 -22l-64 313q4 2 13 5q280 108 499 108q69 0 121 -3t111.5 -12.5t101.5 -26t83.5 -46t67 -70.5t41 -101t15.5 -136v-295q0 -60 28 -100.5t80 -40.5h76v796h453v-160q111 195 272 195q61 0 168 -31l-55 -391q-116 25 -182 25q-96 0 -203 -39zM1792 -104v-72
q0 -79 -15 -147.5t-42 -119t-44.5 -76t-41.5 -54.5h-359q28 50 48 148t20 202v119h434zM700 295v127l-127 -4q-22 -1 -35 -2t-33.5 -6t-31.5 -12.5t-20 -23t-9 -36.5q0 -36 17 -52t53 -16q94 0 186 25z" />
    <glyph glyph-name="a_s" horiz-adv-x="2344" 
d="M700 295v127l-127 -4q-22 -1 -35 -2t-33.5 -6t-31.5 -12.5t-20 -23t-9 -36.5q0 -36 17 -52t53 -16q94 0 186 25zM2308 365q0 -89 -39 -159.5t-102 -114.5t-150.5 -72.5t-177.5 -40t-190 -11.5q-239 0 -390 45.5t-264 134.5q-106 -91 -227.5 -135.5t-282.5 -44.5
q-446 0 -446 357q0 64 18 115t46 85t73.5 58.5t89.5 38t105 21t109.5 9.5t113.5 2h106q0 48 -3 70.5t-17.5 43t-43.5 26.5t-81 6q-83 0 -164 -14t-158 -36l-77 -22l-64 313q4 2 13 5q280 108 499 108q69 0 121 -3t111.5 -12.5t101.5 -26t83.5 -46t67 -70.5t41 -101
t15.5 -136v-58q0 -97 31 -171.5t81 -119.5t120.5 -73t141 -38.5t152.5 -10.5q180 0 180 55q0 20 -31 31t-81 16.5t-110.5 13.5t-120.5 29.5t-110 56.5t-81 102t-31 159t30.5 164t81 116t121 72.5t143 39.5t155.5 11q119 0 230 -13.5t163 -27.5l51 -14l-47 -310
q-213 48 -336 48q-133 0 -133 -50q0 -20 24 -33.5t64 -21t90.5 -18.5t103 -23t103 -38t90.5 -60.5t64 -93t24 -133.5z" />
    <glyph glyph-name="a_s_t" horiz-adv-x="3293" 
d="M3244 358l35 -342q-159 -49 -316 -49q-55 0 -90 1t-85 5t-82 11.5t-72 21.5t-65.5 34.5t-52 51t-41.5 70t-24.5 92.5t-9.5 117v424q-491 22 -563 22q-133 0 -133 -51q0 -20 24 -33t64 -18.5t90.5 -15t103 -19.5t103 -34t90.5 -57.5t64 -91t24 -132.5q0 -89 -39 -159.5
t-102 -114.5t-150.5 -72.5t-177.5 -40t-190 -11.5q-239 0 -390 45.5t-264 134.5q-106 -91 -227.5 -135.5t-282.5 -44.5q-446 0 -446 357q0 64 18 115t46 85t73.5 58.5t89.5 38t105 21t109.5 9.5t113.5 2h106q0 48 -3 70.5t-17.5 43t-43.5 26.5t-81 6q-83 0 -164 -14
t-158 -36l-77 -22l-64 313q4 2 13 5q280 108 499 108q69 0 121 -3t111.5 -12.5t101.5 -26t83.5 -46t67 -70.5t41 -101t15.5 -136v-58q0 -97 31 -171.5t81 -119.5t120.5 -73t141 -38.5t152.5 -10.5q180 0 180 55q0 20 -31 32.5t-81 20.5t-110.5 18t-120.5 33.5t-110 59
t-81 101t-31 153.5q0 98 38.5 174t106 123.5t156 71.5t193.5 24q87 0 205 -6t270.5 -16.5t189.5 -12.5l29 230h422v-230h344v-323h-344v-377q0 -47 25.5 -63.5t78.5 -16.5q35 0 96 5t104 10zM700 295v127l-127 -4q-22 -1 -35 -2t-33.5 -6t-31.5 -12.5t-20 -23t-9 -36.5
q0 -36 17 -52t53 -16q94 0 186 25z" />
    <glyph glyph-name="a_s_tcaron" horiz-adv-x="3293" 
d="M2986 1624h287v-106q0 -243 -111 -340h-211q35 92 35 311v135zM3244 358l35 -342q-159 -49 -316 -49q-55 0 -90 1t-85 5t-82 11.5t-72 21.5t-65.5 34.5t-52 51t-41.5 70t-24.5 92.5t-9.5 117v424q-491 22 -563 22q-133 0 -133 -51q0 -20 24 -33t64 -18.5t90.5 -15
t103 -19.5t103 -34t90.5 -57.5t64 -91t24 -132.5q0 -89 -39 -159.5t-102 -114.5t-150.5 -72.5t-177.5 -40t-190 -11.5q-239 0 -390 45.5t-264 134.5q-106 -91 -227.5 -135.5t-282.5 -44.5q-446 0 -446 357q0 64 18 115t46 85t73.5 58.5t89.5 38t105 21t109.5 9.5t113.5 2
h106q0 48 -3 70.5t-17.5 43t-43.5 26.5t-81 6q-83 0 -164 -14t-158 -36l-77 -22l-64 313q4 2 13 5q280 108 499 108q69 0 121 -3t111.5 -12.5t101.5 -26t83.5 -46t67 -70.5t41 -101t15.5 -136v-58q0 -97 31 -171.5t81 -119.5t120.5 -73t141 -38.5t152.5 -10.5q180 0 180 55
q0 20 -31 32.5t-81 20.5t-110.5 18t-120.5 33.5t-110 59t-81 101t-31 153.5q0 98 38.5 174t106 123.5t156 71.5t193.5 24q87 0 205 -6t270.5 -16.5t189.5 -12.5l29 230h422v-230h344v-323h-344v-377q0 -47 25.5 -63.5t78.5 -16.5q35 0 96 5t104 10zM700 295v127l-127 -4
q-22 -1 -35 -2t-33.5 -6t-31.5 -12.5t-20 -23t-9 -36.5q0 -36 17 -52t53 -16q94 0 186 25z" />
    <glyph glyph-name="a_sacute" horiz-adv-x="2344" 
d="M2195 1597l-286 -391h-344l157 391h473zM700 295v127l-127 -4q-22 -1 -35 -2t-33.5 -6t-31.5 -12.5t-20 -23t-9 -36.5q0 -36 17 -52t53 -16q94 0 186 25zM2308 365q0 -89 -39 -159.5t-102 -114.5t-150.5 -72.5t-177.5 -40t-190 -11.5q-239 0 -390 45.5t-264 134.5
q-106 -91 -227.5 -135.5t-282.5 -44.5q-446 0 -446 357q0 64 18 115t46 85t73.5 58.5t89.5 38t105 21t109.5 9.5t113.5 2h106q0 48 -3 70.5t-17.5 43t-43.5 26.5t-81 6q-83 0 -164 -14t-158 -36l-77 -22l-64 313q4 2 13 5q280 108 499 108q69 0 121 -3t111.5 -12.5
t101.5 -26t83.5 -46t67 -70.5t41 -101t15.5 -136v-58q0 -97 31 -171.5t81 -119.5t120.5 -73t141 -38.5t152.5 -10.5q180 0 180 55q0 20 -31 31t-81 16.5t-110.5 13.5t-120.5 29.5t-110 56.5t-81 102t-31 159t30.5 164t81 116t121 72.5t143 39.5t155.5 11q119 0 230 -13.5
t163 -27.5l51 -14l-47 -310q-213 48 -336 48q-133 0 -133 -50q0 -20 24 -33.5t64 -21t90.5 -18.5t103 -23t103 -38t90.5 -60.5t64 -93t24 -133.5z" />
    <glyph glyph-name="a_sacute_t" horiz-adv-x="3293" 
d="M2195 1597l-286 -391h-344l157 391h473zM3244 358l35 -342q-159 -49 -316 -49q-55 0 -90 1t-85 5t-82 11.5t-72 21.5t-65.5 34.5t-52 51t-41.5 70t-24.5 92.5t-9.5 117v424q-491 22 -563 22q-133 0 -133 -51q0 -20 24 -33t64 -18.5t90.5 -15t103 -19.5t103 -34
t90.5 -57.5t64 -91t24 -132.5q0 -89 -39 -159.5t-102 -114.5t-150.5 -72.5t-177.5 -40t-190 -11.5q-239 0 -390 45.5t-264 134.5q-106 -91 -227.5 -135.5t-282.5 -44.5q-446 0 -446 357q0 64 18 115t46 85t73.5 58.5t89.5 38t105 21t109.5 9.5t113.5 2h106q0 48 -3 70.5
t-17.5 43t-43.5 26.5t-81 6q-83 0 -164 -14t-158 -36l-77 -22l-64 313q4 2 13 5q280 108 499 108q69 0 121 -3t111.5 -12.5t101.5 -26t83.5 -46t67 -70.5t41 -101t15.5 -136v-58q0 -97 31 -171.5t81 -119.5t120.5 -73t141 -38.5t152.5 -10.5q180 0 180 55q0 20 -31 32.5
t-81 20.5t-110.5 18t-120.5 33.5t-110 59t-81 101t-31 153.5q0 98 38.5 174t106 123.5t156 71.5t193.5 24q87 0 205 -6t270.5 -16.5t189.5 -12.5l29 230h422v-230h344v-323h-344v-377q0 -47 25.5 -63.5t78.5 -16.5q35 0 96 5t104 10zM700 295v127l-127 -4q-22 -1 -35 -2
t-33.5 -6t-31.5 -12.5t-20 -23t-9 -36.5q0 -36 17 -52t53 -16q94 0 186 25z" />
    <glyph glyph-name="a_scaron" horiz-adv-x="2344" 
d="M1542 1206l-256 391h408l100 -194l96 194h412l-260 -391h-500zM700 295v127l-127 -4q-22 -1 -35 -2t-33.5 -6t-31.5 -12.5t-20 -23t-9 -36.5q0 -36 17 -52t53 -16q94 0 186 25zM2308 365q0 -89 -39 -159.5t-102 -114.5t-150.5 -72.5t-177.5 -40t-190 -11.5
q-239 0 -390 45.5t-264 134.5q-106 -91 -227.5 -135.5t-282.5 -44.5q-446 0 -446 357q0 64 18 115t46 85t73.5 58.5t89.5 38t105 21t109.5 9.5t113.5 2h106q0 48 -3 70.5t-17.5 43t-43.5 26.5t-81 6q-83 0 -164 -14t-158 -36l-77 -22l-64 313q4 2 13 5q280 108 499 108
q69 0 121 -3t111.5 -12.5t101.5 -26t83.5 -46t67 -70.5t41 -101t15.5 -136v-58q0 -97 31 -171.5t81 -119.5t120.5 -73t141 -38.5t152.5 -10.5q180 0 180 55q0 20 -31 31t-81 16.5t-110.5 13.5t-120.5 29.5t-110 56.5t-81 102t-31 159t30.5 164t81 116t121 72.5t143 39.5
t155.5 11q119 0 230 -13.5t163 -27.5l51 -14l-47 -310q-213 48 -336 48q-133 0 -133 -50q0 -20 24 -33.5t64 -21t90.5 -18.5t103 -23t103 -38t90.5 -60.5t64 -93t24 -133.5z" />
    <glyph glyph-name="a_scaron_tcaron" horiz-adv-x="3293" 
d="M1542 1206l-256 391h408l100 -194l96 194h412l-260 -391h-500zM2986 1624h287v-106q0 -243 -111 -340h-211q35 92 35 311v135zM3244 358l35 -342q-159 -49 -316 -49q-55 0 -90 1t-85 5t-82 11.5t-72 21.5t-65.5 34.5t-52 51t-41.5 70t-24.5 92.5t-9.5 117v424
q-491 22 -563 22q-133 0 -133 -51q0 -20 24 -33t64 -18.5t90.5 -15t103 -19.5t103 -34t90.5 -57.5t64 -91t24 -132.5q0 -89 -39 -159.5t-102 -114.5t-150.5 -72.5t-177.5 -40t-190 -11.5q-239 0 -390 45.5t-264 134.5q-106 -91 -227.5 -135.5t-282.5 -44.5q-446 0 -446 357
q0 64 18 115t46 85t73.5 58.5t89.5 38t105 21t109.5 9.5t113.5 2h106q0 48 -3 70.5t-17.5 43t-43.5 26.5t-81 6q-83 0 -164 -14t-158 -36l-77 -22l-64 313q4 2 13 5q280 108 499 108q69 0 121 -3t111.5 -12.5t101.5 -26t83.5 -46t67 -70.5t41 -101t15.5 -136v-58
q0 -97 31 -171.5t81 -119.5t120.5 -73t141 -38.5t152.5 -10.5q180 0 180 55q0 20 -31 32.5t-81 20.5t-110.5 18t-120.5 33.5t-110 59t-81 101t-31 153.5q0 98 38.5 174t106 123.5t156 71.5t193.5 24q87 0 205 -6t270.5 -16.5t189.5 -12.5l29 230h422v-230h344v-323h-344
v-377q0 -47 25.5 -63.5t78.5 -16.5q35 0 96 5t104 10zM700 295v127l-127 -4q-22 -1 -35 -2t-33.5 -6t-31.5 -12.5t-20 -23t-9 -36.5q0 -36 17 -52t53 -16q94 0 186 25z" />
    <glyph glyph-name="a_scedilla" horiz-adv-x="2344" 
d="M2077 -289q0 -50 -23 -94t-59.5 -75t-81 -57t-89 -42t-81 -27t-59.5 -16l-23 -4l-148 256q8 2 20.5 5.5t44.5 16t57 28t45 40.5t20 53l-14 101h335q56 -111 56 -185zM700 295v127l-127 -4q-22 -1 -35 -2t-33.5 -6t-31.5 -12.5t-20 -23t-9 -36.5q0 -36 17 -52t53 -16
q94 0 186 25zM2308 365q0 -89 -39 -159.5t-102 -114.5t-150.5 -72.5t-177.5 -40t-190 -11.5q-239 0 -390 45.5t-264 134.5q-106 -91 -227.5 -135.5t-282.5 -44.5q-446 0 -446 357q0 64 18 115t46 85t73.5 58.5t89.5 38t105 21t109.5 9.5t113.5 2h106q0 48 -3 70.5t-17.5 43
t-43.5 26.5t-81 6q-83 0 -164 -14t-158 -36l-77 -22l-64 313q4 2 13 5q280 108 499 108q69 0 121 -3t111.5 -12.5t101.5 -26t83.5 -46t67 -70.5t41 -101t15.5 -136v-58q0 -97 31 -171.5t81 -119.5t120.5 -73t141 -38.5t152.5 -10.5q180 0 180 55q0 20 -31 31t-81 16.5
t-110.5 13.5t-120.5 29.5t-110 56.5t-81 102t-31 159t30.5 164t81 116t121 72.5t143 39.5t155.5 11q119 0 230 -13.5t163 -27.5l51 -14l-47 -310q-213 48 -336 48q-133 0 -133 -50q0 -20 24 -33.5t64 -21t90.5 -18.5t103 -23t103 -38t90.5 -60.5t64 -93t24 -133.5z" />
    <glyph glyph-name="a_scedilla_t" horiz-adv-x="3293" 
d="M2077 -289q0 -50 -23 -94t-59.5 -75t-81 -57t-89 -42t-81 -27t-59.5 -16l-23 -4l-148 256q8 2 20.5 5.5t44.5 16t57 28t45 40.5t20 53l-14 101h335q56 -111 56 -185zM3244 358l35 -342q-159 -49 -316 -49q-55 0 -90 1t-85 5t-82 11.5t-72 21.5t-65.5 34.5t-52 51
t-41.5 70t-24.5 92.5t-9.5 117v424q-491 22 -563 22q-133 0 -133 -51q0 -20 24 -33t64 -18.5t90.5 -15t103 -19.5t103 -34t90.5 -57.5t64 -91t24 -132.5q0 -89 -39 -159.5t-102 -114.5t-150.5 -72.5t-177.5 -40t-190 -11.5q-239 0 -390 45.5t-264 134.5
q-106 -91 -227.5 -135.5t-282.5 -44.5q-446 0 -446 357q0 64 18 115t46 85t73.5 58.5t89.5 38t105 21t109.5 9.5t113.5 2h106q0 48 -3 70.5t-17.5 43t-43.5 26.5t-81 6q-83 0 -164 -14t-158 -36l-77 -22l-64 313q4 2 13 5q280 108 499 108q69 0 121 -3t111.5 -12.5
t101.5 -26t83.5 -46t67 -70.5t41 -101t15.5 -136v-58q0 -97 31 -171.5t81 -119.5t120.5 -73t141 -38.5t152.5 -10.5q180 0 180 55q0 20 -31 32.5t-81 20.5t-110.5 18t-120.5 33.5t-110 59t-81 101t-31 153.5q0 98 38.5 174t106 123.5t156 71.5t193.5 24q87 0 205 -6
t270.5 -16.5t189.5 -12.5l29 230h422v-230h344v-323h-344v-377q0 -47 25.5 -63.5t78.5 -16.5q35 0 96 5t104 10zM700 295v127l-127 -4q-22 -1 -35 -2t-33.5 -6t-31.5 -12.5t-20 -23t-9 -36.5q0 -36 17 -52t53 -16q94 0 186 25z" />
    <glyph glyph-name="a_scircumflex" horiz-adv-x="2344" 
d="M1290 1206l256 391h500l260 -391h-412l-96 195l-100 -195h-408zM700 295v127l-127 -4q-22 -1 -35 -2t-33.5 -6t-31.5 -12.5t-20 -23t-9 -36.5q0 -36 17 -52t53 -16q94 0 186 25zM2308 365q0 -89 -39 -159.5t-102 -114.5t-150.5 -72.5t-177.5 -40t-190 -11.5
q-239 0 -390 45.5t-264 134.5q-106 -91 -227.5 -135.5t-282.5 -44.5q-446 0 -446 357q0 64 18 115t46 85t73.5 58.5t89.5 38t105 21t109.5 9.5t113.5 2h106q0 48 -3 70.5t-17.5 43t-43.5 26.5t-81 6q-83 0 -164 -14t-158 -36l-77 -22l-64 313q4 2 13 5q280 108 499 108
q69 0 121 -3t111.5 -12.5t101.5 -26t83.5 -46t67 -70.5t41 -101t15.5 -136v-58q0 -97 31 -171.5t81 -119.5t120.5 -73t141 -38.5t152.5 -10.5q180 0 180 55q0 20 -31 31t-81 16.5t-110.5 13.5t-120.5 29.5t-110 56.5t-81 102t-31 159t30.5 164t81 116t121 72.5t143 39.5
t155.5 11q119 0 230 -13.5t163 -27.5l51 -14l-47 -310q-213 48 -336 48q-133 0 -133 -50q0 -20 24 -33.5t64 -21t90.5 -18.5t103 -23t103 -38t90.5 -60.5t64 -93t24 -133.5z" />
    <glyph glyph-name="a_scommaaccent" horiz-adv-x="2344" 
d="M2308 365q0 -89 -39 -159.5t-102 -114.5t-150.5 -72.5t-177.5 -40t-190 -11.5q-239 0 -390 45.5t-264 134.5q-106 -91 -227.5 -135.5t-282.5 -44.5q-446 0 -446 357q0 64 18 115t46 85t73.5 58.5t89.5 38t105 21t109.5 9.5t113.5 2h106q0 48 -3 70.5t-17.5 43t-43.5 26.5
t-81 6q-83 0 -164 -14t-158 -36l-77 -22l-64 313q4 2 13 5q280 108 499 108q69 0 121 -3t111.5 -12.5t101.5 -26t83.5 -46t67 -70.5t41 -101t15.5 -136v-58q0 -97 31 -171.5t81 -119.5t120.5 -73t141 -38.5t152.5 -10.5q180 0 180 55q0 20 -31 31t-81 16.5t-110.5 13.5
t-120.5 29.5t-110 56.5t-81 102t-31 159t30.5 164t81 116t121 72.5t143 39.5t155.5 11q119 0 230 -13.5t163 -27.5l51 -14l-47 -310q-213 48 -336 48q-133 0 -133 -50q0 -20 24 -33.5t64 -21t90.5 -18.5t103 -23t103 -38t90.5 -60.5t64 -93t24 -133.5zM2052 -104v-72
q0 -79 -15 -147.5t-42 -119t-44.5 -76t-41.5 -54.5h-359q28 50 48 148t20 202v119h434zM700 295v127l-127 -4q-22 -1 -35 -2t-33.5 -6t-31.5 -12.5t-20 -23t-9 -36.5q0 -36 17 -52t53 -16q94 0 186 25z" />
    <glyph glyph-name="a_scommaaccent_t" horiz-adv-x="3293" 
d="M3244 358l35 -342q-159 -49 -316 -49q-55 0 -90 1t-85 5t-82 11.5t-72 21.5t-65.5 34.5t-52 51t-41.5 70t-24.5 92.5t-9.5 117v424q-491 22 -563 22q-133 0 -133 -51q0 -20 24 -33t64 -18.5t90.5 -15t103 -19.5t103 -34t90.5 -57.5t64 -91t24 -132.5q0 -89 -39 -159.5
t-102 -114.5t-150.5 -72.5t-177.5 -40t-190 -11.5q-239 0 -390 45.5t-264 134.5q-106 -91 -227.5 -135.5t-282.5 -44.5q-446 0 -446 357q0 64 18 115t46 85t73.5 58.5t89.5 38t105 21t109.5 9.5t113.5 2h106q0 48 -3 70.5t-17.5 43t-43.5 26.5t-81 6q-83 0 -164 -14
t-158 -36l-77 -22l-64 313q4 2 13 5q280 108 499 108q69 0 121 -3t111.5 -12.5t101.5 -26t83.5 -46t67 -70.5t41 -101t15.5 -136v-58q0 -97 31 -171.5t81 -119.5t120.5 -73t141 -38.5t152.5 -10.5q180 0 180 55q0 20 -31 32.5t-81 20.5t-110.5 18t-120.5 33.5t-110 59
t-81 101t-31 153.5q0 98 38.5 174t106 123.5t156 71.5t193.5 24q87 0 205 -6t270.5 -16.5t189.5 -12.5l29 230h422v-230h344v-323h-344v-377q0 -47 25.5 -63.5t78.5 -16.5q35 0 96 5t104 10zM2052 -104v-72q0 -79 -15 -147.5t-42 -119t-44.5 -76t-41.5 -54.5h-359
q28 50 48 148t20 202v119h434zM700 295v127l-127 -4q-22 -1 -35 -2t-33.5 -6t-31.5 -12.5t-20 -23t-9 -36.5q0 -36 17 -52t53 -16q94 0 186 25z" />
    </font>
</defs>
</svg>
